#TITLE:squall;
#SUBTITLE:;
#ARTIST:猫叉Master+;
#TITLETRANSLIT:;
#SUBTITLETRANSLIT:;
#ARTISTTRANSLIT:Nekomata Master+;
#CREDIT:;
#BANNER:squall.png;
#BACKGROUND:squall-background.png;
#JACKET:squall-jacket.png;
#LYRICSPATH:;
#CDTITLE:cdtitle.png;
#MUSIC:squall.mp3;
#OFFSET:-0.022;
#SAMPLESTART:31.600;
#SAMPLELENGTH:12.000;
#SELECTABLE:YES;
#BPMS:0.000=190.000;
#STOPS:;
#BGCHANGES:;

//---------------dance-single - ----------------
#NOTES:
     dance-single:
     :
     Hard:
     9:
     0.530,0.657,0.120,0.138,0.077:
0000
0000
0000
0000
,
0000
0000
0000
0000
,
0000
0000
0000
0000
,
0000
0000
0000
0000
,
0000
0000
0000
0000
,
0000
0000
0000
0000
,
0000
0000
0000
0000
,
0000
0000
0000
0000
,
0001
0000
0100
0000
0010
0000
1000
0000
0100
0000
0010
0000
,
0100
0000
1000
0100
0000
1000
0010
0000
,
0000
0000
0000
0000
0001
0010
0100
1000
,
0001
0000
0001
0100
0000
0001
0010
0000
,
0000
0000
0000
0000
0010
0100
0010
0001
,
1000
0000
0001
0100
0000
0001
0010
0000
,
0000
0000
0000
0000
0010
0100
1000
0100
,
1000
0000
1000
0001
0000
0001
0100
0000
,
0010
0000
0100
0000
0100
0000
0200
0000
0000
0300
0000
0000
,
0001
0100
0010
0000
0100
0000
0001
0000
,
1000
0000
0100
0000
0001
1000
0100
1000
,
0000
0100
1000
0000
0001
0000
0100
0000
,
0001
0000
0010
0100
0010
0001
1000
0000
,
0001
0100
0010
0100
,
0001
0000
0010
0000
0100
0000
1000
0100
,
0010
0100
1000
0001
0100
0001
0020
0000
,
0000
0130
1000
0100
1000
0001
0010
0100
,
0010
0000
0010
0100
1000
0000
1100
0000
,
1000
0000
0010
0100
0001
0000
0101
0000
,
0001
0000
0001
0100
0010
0000
0110
0000
,
0010
0000
0100
0001
0010
0000
0010
0100
,
1000
0000
0110
0000
0010
0001
0100
0000
,
0010
0000
1001
0000
0001
0100
0010
0000
,
1000
0000
1010
0000
0010
0100
0001
0000
,
1000
0100
0010
0001
1000
0100
0010
0100
,
1000
0000
0001
0100
0010
0000
0100
0001
,
0010
0000
0010
0100
1000
0000
0100
1000
,
0010
0000
0100
0001
0010
0000
0001
0000
,
0100
0000
0000
0001
0000
0000
1000
0001
0100
0001
0010
0100
,
1000
0200
0000
0000
0000
0000
0310
0100
,
1000
0000
0100
1000
0010
0000
0100
0001
,
0010
0100
0010
0000
0000
0000
0000
0000
,
0100
0010
0001
0100
1000
0100
0010
1000
,
0001
0000
1000
0100
0000
0100
1000
0000
,
1000
0010
0100
0000
0200
0000
0000
0000
,
0310
0000
0010
0100
0000
0010
0100
0000
,
0100
0010
1000
0000
0001
1000
0010
1000
,
0001
0000
0001
0100
0000
0010
1000
0000
,
1000
0100
0010
0000
0200
0000
0000
0000
,
0310
0000
0010
0001
0000
0001
0010
0000
,
0010
0100
1000
0000
1000
0001
1000
0001
,
0101
0000
0000
1001
0000
0000
0000
0000
,
0000
0000
0000
2000
,
3100
0000
0000
0011
0000
0000
0000
0000
,
0000
0000
0000
0000
0001
0010
0100
0010
,
0011
0000
0100
1001
0000
0001
0100
0100
,
0001
0000
0100
0010
1000
0001
0010
0100
,
1100
0000
1000
0101
0000
0001
1000
0000
,
1000
0100
0010
0100
1000
1000
0100
1000
,
0010
0000
1000
0000
0001
0100
0010
0000
0100
0000
0010
1000
,
0001
0000
0000
1000
0000
0000
1000
0000
,
0000
0000
0000
0000
1000
0001
0100
0001
,
0100
0000
0000
0010
0000
0000
1000
0000
,
0000
0000
0000
0000
1000
0100
0010
0100
,
0100
0000
0000
0010
0000
0000
0001
0000
,
0000
0000
0000
0000
0001
0010
0100
0010
,
0010
0000
0000
0010
0000
0000
0100
0000
,
2000
0000
3100
0000
0100
0010
0021
0000
,
0130
0000
0010
0001
0000
0001
0200
0000
,
0000
0000
0000
0301
0100
1000
0100
0010
,
1000
0000
0010
0100
0000
0100
0002
0000
,
0000
0000
0000
1003
0001
0010
0100
1000
,
0001
0000
0001
0100
0000
0100
0020
0000
,
0000
0000
0000
0130
0001
1000
0100
0010
,
0100
0000
0100
1000
0000
1000
0200
0000
,
0000
0000
0000
0000
0310
0001
1000
0001
,
0100
0000
0001
0100
0000
0100
0020
0000
,
0000
0000
0000
0130
0001
1000
0100
0001
,
0100
0000
0100
0010
0000
0010
0002
0000
,
0000
0000
0000
0013
1000
0010
0100
1000
,
0010
0000
0100
0001
0000
0001
0020
0000
,
0000
0000
0000
0130
1000
0100
0001
0100
,
0010
0000
0010
0100
0000
0100
2000
0000
,
0000
0000
0000
3001
0100
1000
0100
0010
,
1000
1000
0001
0001
,
1000
1000
0001
0001
,
0000
0100
0100
0010
,
0010
0000
0100
0000
0001
0000
0100
0001
,
0100
0010
1000
0001
,
0010
0100
1000
0100
,
0000
0100
0010
0001
,
0100
0000
0000
0010
0000
0000
1000
0000
0010
0000
0100
0000
;

//---------------dance-single - ----------------
#NOTES:
     dance-single:
     :
     Medium:
     6:
     0.394,0.579,0.069,0.103,0.034:
0000
0000
0000
0000
,
0000
0000
0000
0000
,
0000
0000
0000
0000
,
0000
0000
0000
0000
,
0000
0000
0000
0000
,
0000
0000
0000
0000
,
0000
0000
0000
0000
,
0000
0000
0000
0000
,
1000
0000
0001
0000
1000
0000
0001
0000
1000
0000
0001
0000
,
0010
0000
0000
0100
0000
0000
1000
0000
,
0000
0000
1000
0100
,
0010
0000
0000
0100
0000
0000
1000
0000
,
0000
0000
1000
0001
,
0100
0000
0000
0001
0000
0000
0010
0000
,
0000
0000
0100
1000
,
0100
0000
0000
0100
0000
0000
0010
0000
,
0001
1000
0010
1001
,
0001
0100
0010
0000
0100
0000
0010
0000
,
1000
0000
0001
0000
0010
0000
0100
1000
,
0000
0100
1000
0000
0100
0000
0010
0000
,
0100
0000
1000
0001
0100
0001
0100
0000
,
0000
0001
1000
0100
,
0001
0000
0100
0000
0010
0000
0100
1000
,
0010
0000
0100
0000
0010
1000
0001
0000
,
0000
0001
0010
0100
1000
0000
0100
0000
,
1100
0000
1000
0100
1000
0000
0100
1000
,
0100
0000
1000
0100
1000
0000
1100
0000
,
1000
0000
0001
0100
0010
0000
0000
0000
,
0000
0000
0000
0000
0100
0000
0001
1000
,
0100
0000
0100
0010
0001
0000
0000
0000
,
0000
0000
0000
0001
0010
0000
0000
0010
,
0100
0000
0000
0100
1000
0000
0000
0000
,
1000
0001
0100
0010
,
0110
0000
0000
0010
0100
0000
0000
0010
,
0100
0000
0000
0010
1000
0000
0000
0010
,
0100
0000
0000
0100
0001
0000
0000
0000
,
1001
0000
0001
0000
1000
0001
0010
0100
,
1000
0000
1100
0000
0100
0100
0110
0000
,
0010
0000
0001
0010
0100
0000
0100
0000
,
0010
0001
0010
0000
0000
0000
0000
0000
,
0001
1000
0010
0100
,
0001
0000
1000
0100
0000
1000
0001
0000
,
0100
0001
0100
0000
0010
0000
0100
0000
,
0001
0000
1000
0100
0000
0100
0010
0000
,
0010
0100
1000
0000
0001
0000
0100
0000
,
0010
0000
0100
0010
0000
0010
1000
0000
,
0100
1000
0010
0000
0100
0000
0001
0000
,
1000
0000
0100
1000
0000
1000
0010
0000
,
0100
0001
0010
0000
0100
0000
1000
0000
,
2002
0000
0000
0000
,
3003
0000
0000
0001
,
2000
0000
0000
3100
0000
0000
0000
0000
,
0000
0000
0000
0000
0100
0010
0001
0010
,
0100
0000
0010
0001
0000
0001
0010
0000
,
0010
0000
0100
0000
1000
0000
0100
1000
,
0010
0000
0100
0010
0000
0010
0100
0000
,
0010
0000
1000
0000
0001
1000
0010
0000
,
0001
0000
0100
0000
0010
0000
1000
0000
0010
0000
1000
0000
,
0100
0000
0000
0100
0000
0000
0100
0000
,
0000
0000
0001
0010
,
0100
0000
0000
1000
0000
0000
0100
0000
,
0000
0000
0010
0100
,
1000
0000
0000
0001
0000
0000
0100
0000
,
0000
0000
0100
0001
,
1000
0000
0000
1000
0000
0000
0010
0000
,
0200
0000
0000
0300
,
0010
0000
0000
0100
0000
0000
0002
0000
,
0000
0000
1003
0100
,
0010
0000
0000
0100
0000
0000
2000
0000
,
0000
0000
3001
1000
,
0100
0000
0000
1000
0000
0000
0020
0000
,
0000
0000
0130
0001
,
0100
0000
0000
0100
0000
0000
0020
0000
,
0000
0000
0130
0001
,
1000
0000
1000
0100
0000
0100
0020
0000
,
0000
0000
0130
1000
,
0001
0000
0001
0100
0000
0100
0020
0000
,
0000
0000
0130
0001
,
1000
0000
1000
0100
0000
0100
2000
0000
,
0000
0000
3100
0010
,
0001
0000
0001
0010
0000
0010
0002
0000
,
0000
0000
0000
0000
,
1003
0001
0100
0001
,
1000
0100
1000
0001
,
0000
0001
1000
0010
,
0100
0001
1000
1000
,
0001
0100
1000
0100
,
0010
1000
0010
0100
,
0000
0010
1000
0001
,
0010
0100
1000
0100
;

//---------------dance-single - ----------------
#NOTES:
     dance-single:
     :
     Easy:
     4:
     0.288,0.309,0.086,0.129,0.000:
0000
0000
0000
0000
,
0000
0000
0000
0000
,
0000
0000
0000
0000
,
0000
0000
0000
0000
,
0000
0000
0000
0000
,
0000
0000
0000
0000
,
0000
0000
0000
0000
,
0000
0000
0000
0000
,
2002
0000
0000
3003
,
0010
0000
0000
0010
0000
0000
0010
0000
,
0000
0000
0100
0001
,
1000
0000
0000
1000
0000
0000
1000
0000
,
0000
0000
1000
0001
,
0100
0000
0000
0100
0000
0000
0100
0000
,
0000
0000
0001
0100
,
0010
0000
0000
0010
0000
0000
0010
0000
,
0110
0000
0000
0000
,
1000
0100
1000
0010
,
0100
0010
1000
1000
,
0000
0010
0100
0001
,
1000
0100
1000
1000
,
0000
0100
1000
0001
,
0100
0001
0010
0001
,
0010
0100
0010
0002
,
0000
0013
0100
1000
,
0100
0000
0010
0000
,
0001
0000
1000
0000
,
0100
0000
0100
0000
,
0000
0000
0010
0000
,
0001
0000
1000
0000
,
0000
0001
1000
0000
,
0010
0000
0100
0000
,
0001
0100
0010
1000
,
1001
0000
0001
0000
,
1000
0000
0010
0000
,
0100
0000
0100
0000
,
0000
0000
0001
1000
,
0200
0000
0000
0300
,
0010
0000
0001
0010
,
0100
0100
0000
0000
,
0100
0010
0001
0010
,
0100
0000
0000
0100
0000
0000
1000
0000
,
0100
1000
0010
0100
,
0001
0000
0000
0001
0000
0000
0001
0000
,
0100
0010
1000
1000
,
0001
0000
0000
1000
0000
0000
0100
0000
,
1000
0010
0100
0000
,
0010
0000
0000
0100
0000
0000
0010
0000
,
1000
0100
0010
0001
,
1001
0000
0000
1001
0000
0000
0000
0000
,
0000
0000
0000
0000
,
0110
0000
0000
0110
0000
0000
0000
0000
,
0000
0000
0000
0000
,
1001
0000
0000
1001
0000
0000
0001
0000
,
1000
0000
0000
1000
0000
0000
0010
0000
,
0100
0000
0000
0100
0000
0000
0010
0000
,
1000
0000
0000
0100
0000
0000
0010
0000
,
0022
0000
0000
0033
,
0001
0000
0000
0010
0000
0000
0001
0000
,
0000
0000
0001
0010
,
0100
0000
0000
1000
0000
0000
0100
0000
,
0000
0000
1000
0010
,
0100
0000
0000
0100
0000
0000
0100
0000
,
0000
0000
0010
1000
,
0001
0000
0000
1000
0000
0000
0200
0000
,
0000
0000
0000
0300
,
1000
0000
0000
0100
0000
0000
0020
0000
,
0000
0000
0130
1000
,
0001
0000
0000
0100
0000
0000
0002
0000
,
0000
0000
0103
0001
,
0010
0000
0000
0010
0000
0000
0020
0000
,
0000
0000
0130
1000
,
0100
0000
0000
0100
0000
0000
2000
0000
,
0000
0000
3100
0010
,
0001
0000
0000
0010
0000
0000
0200
0000
,
0000
0000
0310
0001
,
1000
0000
0000
0001
0000
0000
0200
0000
,
0000
0000
0301
0100
,
0010
0000
0000
0010
0000
0000
0020
0000
,
0000
0000
0130
0010
,
1000
0000
0000
0001
0000
0000
0200
0000
,
0000
0000
0000
0000
,
0301
0000
1000
0000
,
0010
0000
0100
0010
,
0100
0000
0010
0000
,
1000
0000
0001
0100
,
0010
1000
0001
1000
,
0010
1000
0001
0010
,
0000
0100
1000
0010
,
0100
0001
1000
1000
;

//---------------dance-single - ----------------
#NOTES:
     dance-single:
     :
     Beginner:
     2:
     0.138,0.192,0.095,0.000,0.000: // measure 1
0000
0000
0000
0000
,  // measure 2
0000
0000
0000
0000
,  // measure 3
0000
0000
0000
0000
,  // measure 4
0000
0000
0000
0000
,  // measure 5
0000
0000
0000
0000
,  // measure 6
0000
0000
0000
0000
,  // measure 7
0000
0000
0000
0000
,  // measure 8
0000
0000
0000
0000
,  // measure 9
0100
0000
0000
0000
,  // measure 10
0010
0000
0000
0000
,  // measure 11
0000
0000
0100
0000
,  // measure 12
0001
0000
0000
0000
,  // measure 13
0000
0000
0001
0000
,  // measure 14
0100
0000
0000
0000
,  // measure 15
0000
0000
0001
0000
,  // measure 16
1000
0000
0000
0000
,  // measure 17
0100
0000
0000
0000
,  // measure 18
1000
0000
0000
0000
,  // measure 19
0001
0000
0001
0000
,  // measure 20
0100
0000
0000
0000
,  // measure 21
0001
0000
1000
0000
,  // measure 22
0100
0000
0000
0000
,  // measure 23
1000
0000
0010
0000
,  // measure 24
0100
0000
0001
0001
,  // measure 25
0000
0000
1000
0000
,  // measure 26
0010
0000
0100
0000
,  // measure 27
0001
0000
1000
0000
,  // measure 28
0100
0000
0100
0000
,  // measure 29
0000
0000
0100
0000
,  // measure 30
1000
0000
1000
0000
,  // measure 31
0000
0000
0001
0000
,  // measure 32
1000
0000
1000
0000
,  // measure 33
0000
0000
0000
0000
,  // measure 34
1001
0000
0001
0000
,  // measure 35
0100
0000
0001
0000
,  // measure 36
1000
0000
1000
0000
,  // measure 37
0000
0000
0100
0000
,  // measure 38
1000
0000
0010
0000
,  // measure 39
0100
0000
0001
0000
,  // measure 40
0100
0100
0000
0000
,  // measure 41
0000
0000
0000
0000
,  // measure 42
0110
0000
0000
0000
,  // measure 43
1000
0000
0001
0000
,  // measure 44
1001
0000
0000
0000
,  // measure 45
0100
0000
0100
0000
,  // measure 46
0110
0000
0000
0000
,  // measure 47
0100
0000
0010
0000
,  // measure 48
1001
0000
0000
0000
,  // measure 49
1000
0000
0001
0000
,  // measure 50
1001
0000
0000
0000
,  // measure 51
0000
0000
0000
0000
,  // measure 52
1001
0000
0000
0000
,  // measure 53
0000
0000
0000
0000
,  // measure 54
1001
0000
0000
0000
,  // measure 55
0000
0000
0000
0000
,  // measure 56
1001
0000
0000
0000
,  // measure 57
0000
0000
0000
0000
,  // measure 58
1001
0000
0000
0000
,  // measure 59
0100
0000
0000
0000
,  // measure 60
0000
0000
0010
0000
,  // measure 61
0001
0000
0000
0000
,  // measure 62
0000
0000
0010
0000
,  // measure 63
0100
0000
0000
0000
,  // measure 64
0000
0000
0100
0000
,  // measure 65
1000
0000
0000
0000
,  // measure 66
0000
0000
0000
0000
,  // measure 67
1000
0000
0000
1000
,  // measure 68
0000
0000
0001
0000
,  // measure 69
0100
0000
0000
0001
,  // measure 70
0000
0000
0010
0000
,  // measure 71
0100
0000
0000
0100
,  // measure 72
0000
0000
1000
0000
,  // measure 73
0100
0000
0000
1000
,  // measure 74
0000
0000
0001
0000
,  // measure 75
0100
0000
0000
0001
,  // measure 76
0000
0000
1000
0000
,  // measure 77
1000
0000
0000
0100
,  // measure 78
0000
0000
1000
0000
,  // measure 79
1000
0000
0000
0010
,  // measure 80
0000
0000
0100
0000
,  // measure 81
0100
0000
0000
0001
,  // measure 82
0000
0000
0000
0000
,  // measure 83
1001
0000
0000
0000
,  // measure 84
0000
0000
0000
0000
,  // measure 85
1000
0000
0000
0000
,  // measure 86
0000
0000
0000
0000
,  // measure 87
0001
0000
0000
0000
,  // measure 88
0100
0000
0000
0000
,  // measure 89
0000
0010
0000
0000
,  // measure 90
1000
0000
0100
0000
;
