#TITLE:rainbow flyer;
#SUBTITLE:(DJ YOSHITAKA remix);
#ARTIST:dj TAKA Remixed by DJ YOSHITAKA;
#TITLETRANSLIT:;
#SUBTITLETRANSLIT:;
#ARTISTTRANSLIT:;
#CREDIT:;
#BANNER:rainbow flyer (DJ YOSHITAKA remix).png;
#BACKGROUND:rainbow flyer (DJ YOSHITAKA remix)-bg.png;
#JACKET:rainbow flyer (DJ YOSHITAKA remix)-jacket.png;
#LYRICSPATH:;
#CDTITLE:;
#MUSIC:rainbow flyer (DJ YOSHITAKA remix).mp3;
#OFFSET:-12.994;
#SAMPLESTART:47.000;
#SAMPLELENGTH:12.000;
#SELECTABLE:YES;
#BPMS:0.000=148.000;
#STOPS:;
#BGCHANGES:;

//---------------dance-single - ----------------
#NOTES:
     dance-single:
     :
     Hard:
     8:
     0.468,0.549,0.032,0.056,0.419:
0001
0000
0100
0000
0010
1000
0010
0000
,
0100
0000
0001
0000
0010
0100
0010
0000
,
0100
0000
1000
0000
0010
0100
0010
0000
,
0100
0000
0100
0000
0100
0000
0100
0010
,
0010
0000
1000
0000
0001
0010
0001
0000
,
0010
0000
0100
0000
1000
0100
1000
0000
,
0100
0000
1000
0000
0010
0100
0010
0000
,
0100
0010
1000
0001
0100
0010
1000
0001
,
1000
0000
0000
0100
0000
0100
0000
0000
0010
0000
0000
0001
0000
0001
0000
0000
,
0100
0000
0000
0010
0000
0010
0000
0000
0100
0000
0000
0010
0000
0010
0000
0000
,
1000
0000
0000
0100
0000
0010
0000
0000
0100
0000
0000
1000
0000
0010
0000
0000
,
0100
0000
0000
0000
0100
0000
0000
0000
0100
0000
0010
0000
0100
0000
0010
1000
,
0001
0000
1000
0000
0001
0100
0000
0000
1000
0000
0001
0000
1000
0100
0000
0000
,
0000
0100
1000
0000
0000
1000
0100
0000
0000
0100
0010
0000
0000
0010
0001
0010
,
0100
0000
1000
0000
0001
0100
0000
0000
0001
0000
1000
0000
0001
0100
0000
0000
,
0000
1000
0010
0000
0000
0010
0100
0000
0010
0000
1000
0000
0010
0000
0100
0001
,
0100
0000
0010
0000
1000
0000
0001
0000
1000
0001
1000
0000
1000
0001
0000
0001
,
1000
0000
0010
0000
0100
0000
0100
0000
0100
0000
0100
0000
0100
0010
0100
0000
,
0010
0000
1000
0000
0001
0000
0001
0000
0001
1000
0001
1000
0001
1000
0000
0002
,
2000
0000
0000
0000
,
3003
0000
0000
0000
,
0000
0001
0100
0000
0000
0001
0100
0000
0000
0001
1000
0000
0010
0100
0000
0100
,
0001
0000
0001
0010
0000
0010
0100
0000
0000
0000
0000
0000
0000
0000
0000
0000
,
0000
0100
1000
0000
0000
0100
1000
0000
0000
0100
1000
0000
0100
0010
0000
0100
,
1000
0000
1000
0001
0000
0001
0100
0000
0000
0000
0000
0000
0000
0000
0000
0000
,
0000
0010
1000
0000
0000
0010
1000
0000
0000
0010
1000
0000
0010
0100
0000
0100
,
0001
0000
0001
0010
0000
0010
0100
0000
0000
0000
0000
0000
0000
0000
0000
0000
,
0000
0100
1000
0000
0000
0100
1000
0000
0000
0100
0010
0000
0100
1000
0000
1000
,
0001
0000
0001
0100
0000
0001
0010
0000
0000
0000
0000
0000
0000
0000
0000
0000
,
0100
1000
0010
0000
0000
0100
0001
0000
0000
0100
0010
0000
1000
0010
0000
0100
,
0010
0000
1000
0001
0000
0001
1000
0000
0000
0000
0000
0000
0000
0000
0000
0000
,
0001
1000
0010
0000
0000
0010
0100
0000
0000
0100
0001
0000
0001
1000
0000
1000
,
0100
0000
0100
0010
0000
0010
0001
0000
0000
0000
0000
0000
0000
0000
0000
0000
,
0010
0001
0100
0000
0000
0010
1000
0000
0000
0010
0100
0000
0100
0010
0000
0100
,
0001
0000
0001
0010
0000
0010
0100
0000
0000
0000
0000
0000
0000
0000
0000
0000
,
0100
1000
0010
0000
0000
0100
0001
0000
0000
0100
0001
0000
0100
0010
0000
0100
,
0001
0000
0001
1000
0000
1000
0100
0000
0000
0000
0000
0000
0000
0000
0000
0000
,
0120
1000
0001
1000
,
0100
0100
0100
0100
,
1000
0001
0100
1000
,
0130
0000
0000
0000
,
0210
0001
1000
0001
,
0010
0010
0010
0001
,
0010
1000
0010
0001
,
0020
0000
0000
0330
,
0102
0100
0100
0100
,
0010
0010
0010
0010
,
1000
1000
1000
1000
,
1003
0001
0100
0010
,
2010
0010
0010
0010
,
0100
0100
0100
0100
,
0001
0001
0001
0001
,
3001
0000
0000
1000
0000
0100
0010
0000
0001
0000
1000
0000
0001
0010
0100
1000
,
0001
0000
0100
0000
0000
0000
0010
0000
1000
0000
0010
0100
0000
0000
0000
0000
,
0010
0000
1000
0000
0000
0000
0001
0000
0010
0000
0100
1000
0000
0000
0000
0000
,
0100
0000
1000
0000
0000
0000
0010
0000
0100
0000
0001
1000
0000
0000
0000
0000
,
0010
0000
0010
0000
0010
0000
0010
0100
,
0010
0000
1000
0000
0000
0000
0010
0000
0100
0000
0001
0100
0000
0000
0000
0000
,
0010
0000
1000
0000
0000
0000
0010
0000
0100
0000
0001
1000
0000
0000
0000
0000
,
0100
0000
0010
0000
0000
0000
0001
0000
0010
0000
0100
1000
0000
0000
0000
0000
,
0000
0000
0000
0000
,
0100
0000
0010
0000
0000
0000
0100
0000
0010
0000
1000
0001
0000
0000
0000
0000
,
0010
0000
0100
0000
0000
0000
0001
0000
0010
0000
0100
1000
0000
0000
0000
0000
,
0100
0000
1000
0000
0000
0000
0010
0000
0100
0000
0001
1000
0000
0000
0000
0000
,
0010
0000
0010
0000
0010
0000
0010
1000
,
0010
0000
0100
0000
0000
0000
0001
0000
0010
0000
0100
0010
0000
0000
0000
0000
,
0010
0000
0001
0000
0000
0000
0100
0000
0010
0000
1000
0010
0000
0000
0000
0000
,
0010
0000
0100
0000
0000
0000
0100
0000
0010
0000
1000
0001
0000
0000
0000
0000
,
1000
0100
0010
0001
;

//---------------dance-single - ----------------
#NOTES:
     dance-single:
     :
     Medium:
     6:
     0.353,0.494,0.136,0.008,0.044:
0001
0000
0100
0000
0010
1000
0010
0000
,
0100
0000
0010
0000
1000
0001
1000
0000
,
0001
0000
0010
0000
0100
1000
0100
0000
,
1000
0000
1000
0000
1000
0000
1000
0001
,
1000
0000
0010
0000
0100
0001
0100
0000
,
0010
0000
1000
0000
0010
0100
0010
0000
,
0100
0001
1000
0100
,
1000
0100
0010
0001
,
1000
0000
0001
0000
0100
0001
0100
0010
,
0000
0000
0100
0000
0010
1000
0001
1000
,
0000
0100
1000
0010
0000
0100
0010
1000
,
1001
0000
0110
0000
1001
0001
1000
0000
,
0110
0100
0100
0000
0110
0100
0100
0000
,
0110
0000
1001
0000
0110
0100
0010
0000
,
1001
0010
0100
0000
0010
0100
0010
0000
,
0100
0000
0010
0000
1000
0001
1000
0000
,
0001
0000
0100
0000
0010
1000
0010
0000
,
0100
0010
1000
0000
0001
0010
0100
0000
,
0010
0001
0010
0000
0001
0100
0010
0000
,
0200
0000
0000
0000
,
0300
0000
0000
0000
,
0000
0010
0000
0100
0000
0010
1000
0000
,
0010
0000
0000
0100
0000
0000
0001
0000
0000
0000
0000
0000
0000
0000
0000
0000
,
0000
1000
0000
1000
0000
0001
1000
0000
,
0010
0000
0000
0100
0000
0000
0001
0000
0000
0000
0000
0000
0000
0000
0000
0000
,
0000
1000
0000
0100
0000
0010
0001
0000
,
0010
0000
0000
0001
0000
0000
0100
0000
0000
0000
0000
0000
0000
0000
0000
0000
,
0000
0010
0000
0100
0000
0010
1000
0000
,
0010
0000
0000
0100
0000
0000
0001
0000
0000
0000
0000
0000
0000
0000
0000
0000
,
0000
1100
0000
1100
0000
1000
0100
0000
,
1000
0000
0000
0010
0000
0000
0001
0000
0000
0000
0000
0000
0000
0000
0000
0000
,
0000
0011
0000
0011
0000
0010
0100
0000
,
0010
0000
0000
1000
0000
0000
0001
0000
0000
0000
0000
0000
0000
0000
0000
0000
,
0000
1001
0000
0110
0000
0100
0010
0000
,
1000
0000
0000
0010
0000
0000
0100
0000
0000
0000
0000
0000
0000
0000
0000
0000
,
0000
0110
0000
0110
0000
0010
0100
0000
,
0001
0000
0000
1000
0000
0000
0100
0000
0000
0000
0000
0000
0000
0000
0000
0000
,
1000
0100
0010
0001
,
0001
0010
0100
1000
0001
0000
1000
0000
,
0010
0100
0001
1000
,
0010
0000
0000
0000
,
0100
0010
1000
0001
,
1000
0100
0010
0001
0010
0000
0001
0000
,
0100
0010
1000
0001
,
0010
0000
0000
0010
0000
0000
0010
0000
0000
0000
0000
0000
0000
0000
0000
0000
,
0100
0010
0001
1000
,
0010
0100
0001
1000
0010
0000
0100
0000
,
0010
1000
0001
0010
,
0100
0000
0000
1000
0000
0000
0100
0000
0000
0000
0000
0000
0000
0000
0000
0000
,
1000
0010
0100
0001
,
0010
0100
1000
0001
0100
0000
0001
0000
,
1000
0100
1000
0010
,
0100
0000
0000
0001
0000
0000
1000
0000
0000
0000
0000
0000
0000
0000
0000
0000
,
1000
0100
0010
0010
,
0100
1000
0010
0010
,
0100
0001
1000
1000
,
0001
0000
1000
0000
0001
0000
1000
0001
,
1000
0010
0100
0100
,
0010
1000
0001
0001
,
1000
0100
1000
1000
,
0010
0000
0000
0000
,
0100
0000
0001
0000
1000
0100
1000
0000
,
0100
0000
1000
0000
0010
0100
0010
0000
,
0100
0000
0001
0000
0010
0100
0010
0000
,
0100
0000
0100
0000
0100
0000
0100
0100
,
1000
0000
0100
0000
1000
0100
0010
0000
,
0100
0000
1000
0000
0010
0100
0001
0000
,
1000
0000
0010
0000
0100
0001
1000
0000
,
0010
0100
0001
1000
;

//---------------dance-single - ----------------
#NOTES:
     dance-single:
     :
     Easy:
     3:
     0.184,0.275,0.048,0.072,0.000:
0001
0000
1000
0000
,
0001
0000
1000
0000
,
0001
0000
1000
0000
,
0010
0010
0010
0010
,
0100
0000
0010
0000
,
1000
0000
0001
0000
,
1000
0000
0100
0000
,
1000
0100
0010
0001
,
1001
0000
0001
0000
,
1000
0000
0010
0000
,
0100
0000
0010
0000
,
1000
0000
0001
0000
1000
0000
0001
0100
,
0001
0100
0100
0100
,
0001
0000
1000
0000
0100
0000
1000
0100
,
1000
0010
0100
0010
,
1000
0000
0001
0000
0100
0000
0001
0100
,
0001
0100
0010
1000
,
0010
0100
0001
0001
,
1000
0100
0010
0010
,
1001
0000
0000
0000
,
0000
0000
0000
0000
,
0001
0100
0010
1000
,
0010
0010
0000
0000
,
0100
0010
1000
0100
,
0010
0010
0000
0000
,
0100
1000
0001
0100
,
0010
0010
0000
0000
,
0100
0001
1000
0100
,
1000
1000
0000
0000
,
0001
0100
0010
1000
,
0010
0100
0000
0000
,
0001
1000
0100
1000
,
0010
0010
0000
0000
,
0100
0010
1000
0001
,
0010
0000
0000
0000
,
0100
1000
0010
0100
,
0001
0000
0000
0000
,
0202
0000
0000
0000
,
0000
0000
0000
0000
,
0000
0000
0000
0000
,
0303
0000
0000
0000
,
2200
0000
0000
0000
,
0000
0000
0000
0000
,
0000
0000
0000
0000
,
3300
0000
0000
0000
,
2002
0000
0000
0000
,
0000
0000
0000
0000
,
0000
0000
0000
0000
0000
0000
0000
3003
,
0000
0000
0000
0000
,
0220
0000
0000
0000
,
0000
0000
0000
0000
,
0000
0000
0000
0000
0000
0000
0000
0330
,
0000
0000
0000
0000
,
0100
0010
1000
0000
,
0000
0000
0000
0000
,
0010
0000
1000
0000
,
0000
0000
0000
0000
,
0001
0100
0001
1000
,
0000
0000
0000
0100
,
1000
0010
0000
0000
,
0100
0000
0000
0000
,
0010
0000
1000
0000
,
0001
0000
1000
0000
,
0100
0000
1000
0000
,
0010
0010
0010
0010
,
0100
0001
1000
0000
,
0001
1000
0100
0000
,
1000
0010
0100
0010
,
0200
0000
0000
0000
0000
0000
0000
0300
;

//---------------dance-single - ----------------
#NOTES:
     dance-single:
     :
     Beginner:
     1:
     0.095,0.190,0.008,0.032,0.000: // measure 1
0001
0000
0000
0000
,  // measure 2
0001
0000
0000
0000
,  // measure 3
0001
0000
0000
0000
,  // measure 4
1000
1000
1000
1000
,  // measure 5
0010
0000
0000
0000
,  // measure 6
0010
0000
0000
0000
,  // measure 7
0100
0000
0100
0000
,  // measure 8
0100
0000
0000
0000
,  // measure 9
0010
0000
0000
0000
,  // measure 10
1000
0000
0000
0000
,  // measure 11
0001
0000
0001
0000
,  // measure 12
1000
1000
1000
0000
,  // measure 13
0010
0000
0010
0000
,  // measure 14
0100
0100
0100
0000
,  // measure 15
0001
0001
0001
0000
,  // measure 16
1000
1000
1000
0000
,  // measure 17
0001
0000
0001
0000
,  // measure 18
1000
0000
0010
0000
,  // measure 19
0100
0000
0010
0000
,  // measure 20
1001
0000
0000
0000
,  // measure 21
0000
0000
0000
0000
,  // measure 22
0010
0000
0000
0000
,  // measure 23
1000
0000
0000
0000
,  // measure 24
0010
0000
0000
0000
,  // measure 25
0100
0000
0000
0000
,  // measure 26
0100
0000
0000
0000
,  // measure 27
0001
0000
0000
0000
,  // measure 28
0001
0000
0000
0000
,  // measure 29
1000
0000
0000
0000
,  // measure 30
0100
0000
0000
0000
,  // measure 31
1000
0000
0000
0000
,  // measure 32
0010
0000
0000
0000
,  // measure 33
1000
0000
0000
0000
,  // measure 34
0001
0000
0000
0000
,  // measure 35
0100
0000
0000
0000
,  // measure 36
0001
0000
0000
0000
,  // measure 37
1000
0000
0000
0000
,  // measure 38
0020
0000
0000
0000
,  // measure 39
0000
0000
0000
0000
,  // measure 40
0000
0000
0000
0030
,  // measure 41
0000
0000
0000
0000
,  // measure 42
0200
0000
0000
0000
,  // measure 43
0000
0000
0000
0000
,  // measure 44
0000
0000
0000
0300
,  // measure 45
0000
0000
0000
0000
,  // measure 46
0002
0000
0000
0000
,  // measure 47
0000
0000
0000
0000
,  // measure 48
0000
0000
0000
0003
,  // measure 49
0000
0000
0000
0000
,  // measure 50
2000
0000
0000
0000
,  // measure 51
0000
0000
0000
0000
,  // measure 52
0000
0000
0000
3000
,  // measure 53
0000
0000
0000
0000
,  // measure 54
0010
0000
0000
0000
,  // measure 55
1000
0000
0000
0000
,  // measure 56
0001
0000
0000
0000
,  // measure 57
0100
0100
0100
0100
,  // measure 58
0100
0000
0000
0000
,  // measure 59
0010
0000
0000
0000
,  // measure 60
1000
0000
0000
0000
,  // measure 61
0000
0000
0000
0000
,  // measure 62
0001
0000
0000
0000
,  // measure 63
1000
0000
0000
0000
,  // measure 64
0001
0000
0000
0000
,  // measure 65
0010
0010
0010
0010
,  // measure 66
0100
0000
0000
0000
,  // measure 67
0010
0000
0000
0000
,  // measure 68
0001
0000
0000
0000
,  // measure 69
1000
0000
0000
0000
;
