#TITLE:meme;
#SUBTITLE:;
#ARTIST:Zektbach;
#TITLETRANSLIT:;
#SUBTITLETRANSLIT:;
#ARTISTTRANSLIT:;
#CREDIT:;
#BANNER:meme.png;
#BACKGROUND:meme-background.png;
#JACKET:meme-jacket.png;
#LYRICSPATH:;
#CDTITLE:;
#MUSIC:meme.mp3;
#OFFSET:-0.026;
#SAMPLESTART:80.520;
#SAMPLELENGTH:12.000;
#SELECTABLE:YES;
#BPMS:0.000=155.000;
#STOPS:;
#BGCHANGES:;

//---------------dance-single - ----------------
#NOTES:
     dance-single:
     :
     Hard:
     7:
     0.413,0.475,0.141,0.058,0.000:
0000
0000
0000
0000
,
0000
0000
0000
0000
,
0000
0000
0000
0000
,
0000
0000
0000
0000
,
0000
0000
0000
0000
,
0000
0000
0000
0000
,
0000
0000
0000
0000
,
0000
0000
0000
0000
,
0001
0000
0010
0100
0000
0000
0100
1000
,
0000
0000
1000
0001
0000
0000
0001
0100
,
0010
1000
0010
0000
,
0100
0001
1000
0000
,
0100
0000
0010
0001
0000
0000
0010
0100
,
0000
0000
0100
1000
0000
0000
1000
0010
,
0100
0001
0010
0000
,
0010
0100
1000
0001
,
0200
0000
0001
0001
0000
0000
0001
0001
,
0000
0000
0001
0001
0000
0000
0301
1000
,
0020
1000
0000
1000
,
0000
1000
2030
0000
,
3200
0000
0010
0010
0000
0000
1000
1000
,
0000
0000
0010
0010
0000
0000
1000
1300
,
0200
0000
0000
0000
,
0320
0000
0000
0000
,
0031
1000
0010
1000
0010
0100
0001
0000
,
0001
0100
0010
1000
0001
0100
0010
0000
,
0100
0010
1000
0001
0010
1000
0010
0000
,
0010
0100
0100
1000
0100
0010
0001
0000
,
0100
1000
0100
0001
0010
0001
1000
0000
,
0010
0100
0010
0001
0010
0100
0001
0000
,
0100
0010
1000
0100
0010
0100
0010
0000
,
0100
0010
0001
0010
1000
0010
0100
0000
,
1000
0010
1000
0010
0100
0010
0100
0000
,
0100
0010
1000
0001
0010
0100
1000
0000
,
0010
0100
0001
0100
0010
1000
0001
0000
,
0001
1000
0100
0010
0100
0010
0100
0000
,
0010
0001
0010
0100
1000
0010
0100
0000
,
0100
0010
1000
0001
0010
0100
0010
0000
,
0010
0001
0100
0010
0100
0010
1000
0000
,
0010
0100
0001
1000
0001
0010
0100
1000
,
0000
0100
0100
0000
0100
0000
0100
0100
,
0000
0010
0010
0000
0010
0000
0001
0001
,
0000
1000
1000
0000
0001
0000
0100
0100
,
0000
0001
0001
0000
1000
0000
0100
0100
,
1000
0100
0110
1001
,
0001
0100
0110
1001
,
0001
0010
0110
1001
,
0001
0100
0110
1001
,
0001
0010
1001
0110
,
0100
0010
0110
1001
,
0001
0100
1001
0110
,
0001
0100
0110
1001
,
0101
0000
0001
0100
0000
0100
0010
1000
,
0000
1000
0010
0100
0000
0100
0010
1000
,
0001
0001
1000
1000
,
0100
1000
0100
0001
,
0100
0010
0001
0010
0000
0010
0100
0010
,
0000
0100
1000
0100
0000
0100
1000
0010
,
0100
0100
0001
0001
,
0001
0010
0100
1000
,
0100
0000
0010
0001
0000
0001
0010
1000
,
0000
1000
0010
0100
0000
0100
1000
0010
,
0100
0100
0010
0010
,
0100
0001
0010
0100
,
1000
0000
0100
0010
0000
0010
0100
1000
,
0000
0100
0010
0001
0000
0001
0100
0010
,
1000
1000
0001
0001
,
0001
0010
0100
1000
0001
0010
0100
1000
,
0100
0000
0100
0100
0000
0000
1000
1000
,
0000
0000
0010
0010
0000
0000
0100
0100
,
0000
0000
0000
0000
,
0000
0000
0000
0000
,
0100
0000
0001
0001
0000
0000
1000
1000
,
0000
0000
0100
0100
0000
0000
1000
1000
,
0000
0000
0000
0000
,
0000
0000
0000
0000
,
0002
0000
0003
0000
;

//---------------dance-single - ----------------
#NOTES:
     dance-single:
     :
     Medium:
     5:
     0.300,0.440,0.149,0.108,0.000:
0000
0000
0000
0000
,
0000
0000
0000
0000
,
0000
0000
0000
0000
,
0000
0000
0000
0000
,
0000
0000
0000
0000
,
0000
0000
0000
0000
,
0000
0000
0000
0000
,
0000
0000
0000
0000
,
1000
0000
0001
0100
0000
0000
0100
0010
,
0000
0000
0010
1000
0000
0000
1000
0100
,
0000
0000
0000
0000
,
0000
0000
0000
0000
,
0100
0000
0010
0001
0000
0000
0001
0010
,
0000
0000
0010
0100
0000
0000
0100
1000
,
0000
0000
0000
0000
,
0000
0000
0000
0000
,
2000
0000
0000
0000
,
0000
0000
3020
0000
,
0230
0000
0000
0000
,
0000
0000
0302
0000
,
0023
0000
0000
0000
,
0000
0000
0032
0000
,
2003
0000
0000
0000
,
3200
0000
0000
0000
,
1300
0000
0010
0000
0100
0001
0100
0000
,
0001
0000
0100
0000
0010
1000
0010
0000
,
0100
0000
0010
0000
1000
0001
1000
0000
,
0001
0000
0100
0000
0010
1000
0010
0000
,
0100
0000
0001
0000
0010
0100
0010
0000
,
0100
0000
1000
0000
0001
1000
0001
0000
,
0001
0000
0100
0000
0010
0100
0010
0000
,
0100
0000
0010
0000
1000
0010
1000
0000
,
0010
0100
0001
0000
0010
0000
0100
0000
,
0100
1000
0010
0000
0100
0000
0100
0000
,
0001
0100
0010
0000
1000
0000
0100
0000
,
1000
0010
0100
0000
0010
0000
0100
0000
,
0001
0010
0100
0000
0010
0000
0001
0000
,
1000
0001
0100
0000
0001
0000
0010
0000
,
0100
0010
0001
0000
1000
0000
0010
0000
,
0001
0010
1000
0000
0100
0000
0010
0000
,
0100
0000
1000
0001
,
0000
0001
0000
0000
0001
0000
0100
0000
,
0000
0001
0100
0010
,
0000
0010
1000
0001
,
1000
0001
0101
0101
,
0001
1000
1100
1100
,
1000
0001
0101
0101
,
0001
1000
1100
1100
,
1000
0001
0011
0011
,
0001
1000
1010
1010
,
1000
0001
0011
0011
,
0001
1000
1010
1010
,
0110
0000
0010
0100
0000
0000
0100
0001
,
0000
0000
0001
0010
0000
0000
0010
0100
,
2000
0000
0000
0000
,
3002
0000
0000
0000
,
0103
0000
0010
1000
0000
0000
0010
0100
,
0000
0000
0100
0001
0000
0000
0001
0010
,
0200
0000
0000
0000
,
2300
0000
0000
0000
,
3001
0000
0001
0100
0000
0000
0100
0010
,
0000
0000
0010
1000
0000
0000
1000
0010
,
0100
0010
1000
0001
,
0010
0100
0010
0001
,
1000
0000
0001
0100
0000
0000
0100
0010
,
0000
0000
0010
1000
0000
0000
1000
0100
,
0010
0100
1000
0010
,
0001
0010
0100
0001
,
1001
0000
0001
0001
0000
0000
1000
1000
,
0000
0000
0001
0001
0000
0000
0100
0100
,
0000
0000
0000
0000
,
0000
0000
0000
0000
,
0000
0000
0001
0001
0000
0000
1000
1000
,
0000
0000
0010
0010
0000
0000
0100
0200
,
0000
0000
0000
0000
,
0000
0000
0000
0000
,
0300
0000
0000
0000
;

//---------------dance-single - ----------------
#NOTES:
     dance-single:
     :
     Easy:
     2:
     0.187,0.306,0.066,0.207,0.000:
0000
0000
0000
0000
,
0000
0000
0000
0000
,
0000
0000
0000
0000
,
0000
0000
0000
0000
,
0000
0000
0000
0000
,
0000
0000
0000
0000
,
0000
0000
0000
0000
,
0000
0000
0000
0000
,
0010
1000
0000
0100
,
0000
1000
0000
0001
,
0000
0000
0000
0000
,
0000
0000
0000
0000
,
0100
0001
0000
0100
,
0000
0010
0000
1000
,
0000
0000
0000
0000
,
0000
0000
0000
0000
,
0200
1000
0000
1000
,
0000
1000
0000
1000
,
2300
0000
0000
0000
,
0000
0000
3020
0000
,
0130
0002
0000
1000
,
0000
1000
0000
1000
,
2003
0000
0000
0000
,
0200
0000
0000
3300
,
0100
0000
0010
0000
,
0001
0000
1000
0000
,
0010
0000
0100
0000
,
0001
0001
1000
1000
,
0100
0000
1000
0000
,
0010
0000
0100
0000
,
0001
0000
0010
0000
,
0100
0000
1000
0000
,
0200
0000
0000
0300
,
2000
0000
0000
3000
,
0002
0000
0000
0003
,
0200
0000
0000
0300
,
0202
0000
0000
0303
,
2020
0000
0000
3030
,
0220
0000
0000
0330
,
2002
0000
0000
3003
,
0101
0000
0001
0000
,
0100
0000
0001
0000
,
1000
0000
0100
0000
,
1000
0000
0010
0000
,
0100
0001
0100
0000
,
0100
0010
0100
0000
,
0010
1000
0010
0000
,
0010
1000
0100
0000
,
1000
0100
0010
0010
,
0100
1000
0001
0001
,
0100
0001
0010
0010
,
0100
1000
0010
0100
,
0001
1000
0000
0100
,
0000
1000
0000
0001
,
0200
0000
0000
0000
,
0000
0000
0000
0300
,
0001
0100
0000
0001
,
0000
1000
0000
0100
,
0020
0000
0000
0000
,
0200
0000
0000
0330
,
0110
0010
0000
0100
,
0000
1000
0000
0001
,
0100
0000
0001
0000
,
1000
1000
0001
0001
,
0100
0010
0000
1000
,
0000
0100
0000
1000
,
0100
1000
0010
0100
,
0001
0010
0100
1000
,
2002
0000
0000
0000
,
0000
0000
0000
0000
0000
0000
0003
3000
,
0000
0000
0000
0000
,
0000
0000
0000
0000
,
0220
0000
0000
0000
,
0000
0000
0000
0000
0000
0000
0300
0030
;

//---------------dance-single - ----------------
#NOTES:
     dance-single:
     :
     Beginner:
     1:
     0.089,0.153,0.000,0.000,0.000: // measure 1
0000
0000
0000
0000
,  // measure 2
0000
0000
0000
0000
,  // measure 3
0000
0000
0000
0000
,  // measure 4
0000
0000
0000
0000
,  // measure 5
0000
0000
0000
0000
,  // measure 6
0000
0000
0000
0000
,  // measure 7
0000
0000
0000
0000
,  // measure 8
0000
0000
0000
0000
,  // measure 9
0010
0100
0000
0100
,  // measure 10
0000
0100
0000
0100
,  // measure 11
0000
0000
0000
0000
,  // measure 12
0000
0000
0000
0000
,  // measure 13
0000
0001
0000
0001
,  // measure 14
0000
0001
0000
0001
,  // measure 15
0000
0000
0000
0000
,  // measure 16
0000
0000
0000
0000
,  // measure 17
1000
0000
0000
0000
,  // measure 18
0000
0000
0100
0000
,  // measure 19
1000
0000
0000
0000
,  // measure 20
0000
0000
0010
0000
,  // measure 21
0100
0000
0000
0000
,  // measure 22
0000
0000
0001
0000
,  // measure 23
1000
0000
0000
0000
,  // measure 24
0100
0000
0000
0000
,  // measure 25
1000
0000
0000
0000
,  // measure 26
0001
0000
0000
0000
,  // measure 27
1000
0000
0000
0000
,  // measure 28
0001
0000
0000
0000
,  // measure 29
0100
0000
0000
0000
,  // measure 30
0001
0000
0000
0000
,  // measure 31
1000
0000
0000
0000
,  // measure 32
0100
0000
0000
0000
,  // measure 33
1000
0000
0000
0000
,  // measure 34
0010
0000
0000
0000
,  // measure 35
0100
0000
0000
0000
,  // measure 36
0001
0000
0000
0000
,  // measure 37
0100
0000
0000
0000
,  // measure 38
0001
0000
0000
0000
,  // measure 39
1000
0000
0000
0000
,  // measure 40
0100
0000
0000
0000
,  // measure 41
1000
0000
0000
0000
,  // measure 42
0010
0000
0000
0000
,  // measure 43
0100
0000
0000
0000
,  // measure 44
0001
0000
0000
0000
,  // measure 45
1000
0000
0000
0000
,  // measure 46
1000
0000
0000
0000
,  // measure 47
1000
0000
0000
0000
,  // measure 48
1000
0000
0000
0000
,  // measure 49
0001
0000
0000
0000
,  // measure 50
0001
0000
0000
0000
,  // measure 51
0001
0000
0000
0000
,  // measure 52
0001
0000
0000
0000
,  // measure 53
0100
0001
0000
0100
,  // measure 54
0000
0010
0000
1000
,  // measure 55
0000
0000
0000
0000
,  // measure 56
0000
0000
0000
0000
,  // measure 57
1000
1000
0000
0100
,  // measure 58
0000
1000
0000
0001
,  // measure 59
0000
0000
0000
0000
,  // measure 60
0000
0000
0000
0000
,  // measure 61
0100
0001
0000
0100
,  // measure 62
0000
0010
0000
0100
,  // measure 63
0000
0000
0000
0000
,  // measure 64
0000
0000
0000
0000
,  // measure 65
0001
0001
0000
1000
,  // measure 66
0000
0100
0000
0010
,  // measure 67
0000
0000
0000
0000
,  // measure 68
0000
0000
0000
0000
,  // measure 69
0100
0100
0000
1000
,  // measure 70
0000
0001
0000
0100
,  // measure 71
0000
0000
0000
0000
,  // measure 72
0000
0000
0000
0000
,  // measure 73
0001
1000
0000
0100
,  // measure 74
0000
0010
0000
0001
;
