#TITLE:kyoto EVOLVED;
#SUBTITLE:(VER. B);
#ARTIST:xRGTMx underground;
#TITLETRANSLIT:;
#SUBTITLETRANSLIT:;
#ARTISTTRANSLIT:;
#CREDIT:;
#BANNER:kyoto EVOLVED (VER. B).png;
#BACKGROUND:kyoto EVOLVED (VER. B)-background.png;
#JACKET:kyoto EVOLVED (VER. B)-jacket.png;
#LYRICSPATH:;
#CDTITLE:;
#MUSIC:kyoto EVOLVED (VER. B).mp3;
#OFFSET:-0.030;
#SAMPLESTART:1.980;
#SAMPLELENGTH:12.000;
#SELECTABLE:YES;
#BPMS:0.000=122.000,64.000=61.000,80.000=122.000,136.000=244.001,264.000=488.001,296.000=244.001;
#STOPS:18.000=0.246
,18.250=0.246
,23.000=0.246
,23.500=0.246
,24.000=0.246
,24.500=0.246
,31.000=0.492
,113.750=0.984
,115.750=0.984
,117.750=0.984
,119.750=0.984
;
#BGCHANGES:;

//---------------dance-single - ----------------
#NOTES:
     dance-single:
     :
     Hard:
     10:
     0.681,0.968,0.475,0.067,0.450: // measure 1
0000
0000
0000
0000
,  // measure 2
0001
0000
0001
0000
1000
0000
1000
0100
0000
0001
0100
0000
0010
0000
1000
0000
,  // measure 3
0100
0000
0000
1100
0000
0000
0011
0000
0000
0101
0000
0000
0020
0000
0030
0000
,  // measure 4
0100
0000
0100
0000
0001
0000
0010
0001
0000
0010
0001
0000
0100
0010
0000
0000
,  // measure 5
1000
0001
0010
0100
0010
0001
0100
0010
0100
0010
1000
0000
1001
0000
0101
0000
,  // measure 6
0100
0000
0001
0010
0000
0010
0100
0000
1000
0001
0100
0000
1010
0000
0101
0000
,  // measure 7
0011
0000
1100
0000
0001
0000
0001
0000
1001
0000
1000
0001
0000
0001
1000
0000
,  // measure 8
1000
0010
0100
0000
0001
0100
0001
0100
0001
0100
0001
0100
0020
0000
0030
0000
,  // measure 9
0100
0000
0001
0000
1001
0000
1000
0100
0000
0010
0001
0000
0010
0000
0001
0000
,  // measure 10
0100
0000
0100
0000
0110
0000
0010
0100
0000
0010
1000
0000
0001
0000
0010
0000
,  // measure 11
0001
0000
1000
0000
1001
0000
1000
0100
0000
1000
0100
0000
0010
0000
0001
0000
,  // measure 12
0010
1000
0010
0001
0100
0010
1001
0000
,  // measure 13
0101
0101
0101
0100
0010
1000
0100
0000
,  // measure 14
1100
1100
1100
1000
0001
0010
0100
0000
,  // measure 15
1100
0000
0000
0101
0000
0000
0110
0000
0000
1001
0000
0000
0011
0000
0100
0000
,  // measure 16
1010
0000
1000
0000
0001
1000
0010
1000
0100
0001
0100
1000
0020
0000
0000
0000
,  // measure 17
0130
0000
0000
0010
0100
0000
0000
0000
0010
0000
1000
0100
0001
0000
0000
0000
,  // measure 18
0100
0000
0000
0010
0001
0000
0000
0000
1000
0000
0001
0000
1001
0000
0000
0000
,  // measure 19
0001
0100
0010
1000
1100
0000
0000
0000
1100
0000
0011
0000
1001
0000
0000
0000
,  // measure 20
0001
0010
0010
1000
0010
0000
0000
0000
0110
0000
0011
0000
1100
0000
0100
0010
,  // measure 21
0001
0000
0000
0100
0010
0000
0000
0000
0100
0000
0001
0000
1001
0000
0000
0000
,  // measure 22
0001
0000
0000
0100
0010
0000
0000
0000
1000
0000
0100
0000
1100
0000
0000
0000
,  // measure 23
0100
0000
0000
0010
0100
0000
0000
0000
1000
0000
0010
0000
0110
0000
0000
0000
,  // measure 24
0100
0000
0000
0001
0100
0000
0000
0000
0010
0100
0010
1000
0001
0100
0010
1000
,  // measure 25
0100
0000
0000
0100
0010
0000
0000
0000
0010
0000
0001
0000
0011
0000
0000
0000
,  // measure 26
0001
0000
0000
1000
0001
0000
0000
0000
1000
0000
0010
0000
0110
0000
0000
0000
,  // measure 27
0100
0000
0000
0010
1000
0000
0000
0000
0001
0000
1000
0000
1010
0000
0000
0000
,  // measure 28
1000
0000
0000
0100
0010
0000
0000
0000
0010
0100
1000
0100
0010
0001
0010
0100
,  // measure 29
1000
0000
0100
1000
0000
0010
0000
0100
0001
0010
0000
0001
0000
0100
0000
0010
,  // measure 30
0100
0000
0100
0010
0000
1000
0000
0001
1000
0100
0000
1000
0000
0010
0000
0100
,  // measure 31
0101
0000
0010
0000
0001
0100
0010
1000
,  // measure 32
0100
0000
1100
0000
1000
0100
0001
0100
,  // measure 33
1100
0000
0000
0110
0000
0000
0011
0000
0000
1100
0000
0000
1001
0000
1100
0000
,  // measure 34
0101
0000
0000
0000
0000
0000
0011
0000
0000
0000
0000
0000
0001
0000
0000
0010
0000
0000
0100
0000
0000
1000
0000
0000
0001
0000
1000
0000
0001
0000
0010
0000
0001
0000
0100
0000
0020
0000
0000
0000
0000
0000
0032
0000
0000
0000
0000
0000
,  // measure 35
1003
0000
0010
0000
0100
0001
0000
0001
,  // measure 36
0010
0000
0010
0100
1000
0100
0010
0001
,  // measure 37
1000
0000
0001
0000
0010
0100
0000
0100
,  // measure 38
0010
0000
0010
0001
0100
0010
1000
0100
,  // measure 39
0010
0000
0100
0000
1000
0010
0000
0010
,  // measure 40
0100
0000
0100
0010
1000
0001
0010
0100
,  // measure 41
0010
0100
1000
0100
,  // measure 42
0001
0000
0100
0000
0010
0100
0010
0100
,  // measure 43
1000
0000
0001
0000
0100
0010
0000
0010
,  // measure 44
0100
0000
0100
0010
1000
0001
0010
0100
,  // measure 45
1000
0001
1000
0001
0000
0000
0001
1000
0001
1000
0000
0000
,  // measure 46
1000
0001
1000
0001
0000
0000
0001
1000
0001
1000
0001
0100
,  // measure 47
0010
0000
0100
0000
0010
1000
0000
0010
,  // measure 48
0100
0000
0010
1000
0001
0010
0100
1000
,  // measure 49
0001
1000
0100
0010
0001
0100
0010
0100
,  // measure 50
0001
1000
0001
0010
0100
1000
0001
1000
,  // measure 51
0010
0000
1001
0000
1000
0001
1000
0001
,  // measure 52
0100
0010
1000
0100
0010
0001
1000
0010
,  // measure 53
1000
0000
1100
0000
0100
1000
0100
0010
,  // measure 54
0001
0010
0100
0010
0100
0010
0001
1000
,  // measure 55
0001
0000
1001
0000
0001
0010
0100
0010
,  // measure 56
0100
1000
0001
0100
0001
0100
0001
0010
,  // measure 57
0001
0000
1001
0000
1000
0001
0010
0001
,  // measure 58
0010
0100
1000
0100
1000
0010
1000
0001
,  // measure 59
0100
0000
1010
0000
1000
0001
1000
0001
,  // measure 60
0100
0010
0100
0001
0010
0100
1000
0001
,  // measure 61
1000
0001
1000
0100
0000
0000
0001
0100
0001
0100
0000
0000
,  // measure 62
1000
0001
0010
0100
0000
0000
0100
0010
0001
1000
0001
1000
,  // measure 63
0010
0000
1001
0000
0001
0100
0100
0001
,  // measure 64
0100
0100
0010
1000
1000
0010
0100
0010
,  // measure 65
1000
1000
0010
0100
0001
0001
1000
1000
,  // measure 66
0001
1000
0001
1000
0001
1000
0001
1000
0001
1000
0001
1000
,  // measure 67
0200
0000
0000
0000
,  // measure 68
0000
0000
0000
0000
,  // measure 69
0000
0000
0000
0000
,  // measure 70
0000
0000
0000
0000
,  // measure 71
0000
0000
0000
0000
,  // measure 72
0000
0000
0000
0300
,  // measure 73
1000
0000
0001
0000
,  // measure 74
1000
0001
1000
0001
,  // measure 75
2002
0000
0000
0000
,  // measure 76
3003
0000
0000
0000
;

//---------------dance-single - ----------------
#NOTES:
     dance-single:
     :
     Medium:
     8:
     0.468,0.647,0.308,0.158,0.171:
0000
0000
0000
0000
,
0001
0100
0010
0000
0100
0010
1000
0000
,
0001
0000
0000
1000
0000
0000
0100
0000
0000
1000
0000
0000
1010
0000
0000
0000
,
0010
0100
0010
0000
0100
0001
1000
0000
,
0001
0000
0010
0000
0100
0000
1000
0000
0001
0100
0010
0000
0100
0000
0001
0000
,
0101
0000
0100
0010
0110
0000
1001
0110
,
1001
0110
0100
0100
0010
0000
0100
0001
,
1000
0000
0100
0010
0001
0010
0100
0000
,
0010
0000
0001
0000
0100
0000
0100
0010
0000
0100
0010
0000
0100
0000
0000
0000
,
0010
0000
1000
0000
0001
0000
0100
0001
0000
0100
0001
0000
0100
0000
0000
0000
,
0010
0000
1000
0000
0010
0000
0100
0010
0000
0100
0010
0000
0100
0000
0000
0000
,
0010
0000
1000
0000
0100
0000
0010
0100
0000
0010
0100
0000
0010
0000
0000
0000
,
0011
0011
0011
0001
0100
0010
1000
0000
,
1010
1010
1010
0010
0100
0001
1000
0000
,
0001
0000
0000
1000
0000
0000
0100
0000
0000
1000
0000
0000
0010
0000
0000
0000
,
0100
0000
0010
0000
1000
0100
0010
0100
1000
0010
0100
0001
0020
0000
0230
0000
,
2300
0000
0000
0200
0000
0000
3300
0000
0200
0000
0000
0020
0000
0000
0330
0000
,
0020
0000
0000
0002
0000
0000
0033
0000
0002
0000
0000
0200
0000
0000
0303
0000
,
2001
0000
0000
0002
0000
0000
3003
0000
0020
0000
0000
0200
0000
0000
0330
0000
,
0200
0000
0000
0002
0000
0000
0303
0000
0020
0000
0000
0200
0000
0000
0330
0000
,
0110
0000
1001
0000
0001
0100
0110
0000
,
1001
0000
0101
0000
0001
0100
1010
0000
,
1000
0000
1100
0000
0100
0010
0011
0000
,
0001
0000
1100
0000
1000
1000
0001
0001
,
1000
0000
0101
0000
0001
0100
0110
0000
,
0010
0000
0101
0000
0001
0100
1000
0000
,
0100
0000
1100
0000
0100
0010
1000
0000
,
0010
0000
1010
0000
1000
0010
0100
0001
,
1000
0000
0000
0001
0000
0100
0000
0010
0100
0000
0000
0010
0000
0010
0000
0010
,
0100
0000
0000
0001
0000
0010
0000
0100
1000
0000
0000
0100
0000
0100
0000
0100
,
1100
0000
0011
0000
0001
0100
0110
0000
,
1001
0000
0101
0000
0001
0100
0010
0000
,
1000
0000
0000
0010
0000
0000
0100
0000
0000
0001
0000
0000
1000
0000
0000
0000
,
0001
0000
0010
0000
0100
0000
1000
0000
0100
0010
0001
1000
0001
0000
0100
0000
,
0010
1000
0100
0001
,
0100
1000
0010
0010
,
0100
0001
0100
1000
,
0100
0010
1000
1000
,
0010
0100
0001
0010
,
1000
0010
0100
0100
,
0010
0001
0100
1000
,
0100
0010
1000
0010
,
0100
0001
1000
0100
,
0010
0100
1000
0010
,
0110
0000
1001
0000
,
0110
0000
1001
0000
,
0001
0100
0010
0100
,
0010
1000
0010
0001
,
0010
0010
0100
0100
,
0001
0001
1000
1000
,
0001
0100
0010
1000
,
0010
0100
0001
1000
,
0100
0010
0100
1000
,
0010
0100
0010
0100
,
0010
1000
0001
0010
,
1000
0010
0100
0010
,
0001
0100
1000
0100
,
0010
1000
0010
0100
,
0010
1000
0001
0010
,
0100
1000
0100
1000
,
1000
0100
0000
0000
0010
0001
0000
0000
,
0001
0100
0000
0000
0010
0100
0000
0000
,
0010
0100
0010
1000
,
0001
0010
0100
1000
,
0001
0100
0010
1000
,
0001
1000
0001
1000
0001
1000
0001
1000
,
0002
0000
0000
0000
,
0000
0000
0000
0000
,
0000
0000
0000
0000
,
0000
0000
0000
0000
,
0000
0000
0000
0000
,
0000
0000
0000
0000
,
0000
0000
0000
0000
,
0000
0000
0000
0000
,
0103
0000
0000
0000
;

//---------------dance-single - ----------------
#NOTES:
     dance-single:
     :
     Easy:
     5:
     0.358,0.524,0.317,0.058,0.000:
0000
0000
0000
0000
,
0001
0100
0010
1000
,
0010
0000
0000
0200
,
0310
1000
0100
0001
,
0100
0010
0001
1000
,
0001
0000
0100
0000
0001
0000
1000
0100
,
0010
0001
1000
0000
0001
0000
0100
0000
,
0010
0000
1000
0010
1000
0010
1000
0000
,
0010
0100
0010
0000
0100
0000
1001
0000
,
0001
0100
0001
0000
0100
0000
1010
0000
,
0010
0100
0010
0000
1000
0000
1100
0000
,
0100
0010
0100
0000
0010
0000
0011
0000
,
0001
0100
1000
0000
0100
0000
0110
0000
,
0010
1000
0001
0000
0010
0000
1100
0000
,
1100
0011
0101
1010
,
1001
0000
1001
0000
0001
0100
0010
1000
,
0010
0000
0100
0000
0001
1000
0100
0000
,
1000
0000
0010
0000
0100
0010
1000
0000
,
0101
0000
0001
0000
1000
1000
0100
0000
,
1000
0000
0010
0000
0100
0100
0001
0000
,
1000
0000
0101
0000
0001
0100
0001
0000
,
0100
0000
0110
0000
0010
1000
0010
0000
,
1000
0000
1100
0000
0100
0010
0100
0000
,
0010
0000
0011
0000
0001
0010
0100
1000
,
0001
0000
1001
0000
0001
0100
0010
0000
,
0100
0000
1010
0000
0010
0100
0001
0000
,
1000
0000
1100
0000
0100
0010
0001
0000
,
0010
0000
0011
0000
0001
0010
0100
1000
,
0002
0000
0000
0000
0000
0000
0000
0003
2000
0000
0000
0000
0000
0000
0000
3000
,
0002
0000
0000
0000
0000
0000
0000
0003
2000
0000
0000
0000
0000
0000
0000
3000
,
0010
0000
0101
0000
0001
0100
0010
0000
,
1000
0000
1010
0000
1000
0010
0100
0000
,
0010
1000
0001
0010
,
0100
0000
0010
0001
0100
0010
1000
0100
,
0010
0000
0110
0000
,
0100
0000
0010
0001
,
1000
0000
1001
0000
,
0001
0100
0010
1000
,
0010
0000
0110
0000
,
0100
0010
1000
0001
,
0010
0000
0011
0000
,
0001
0010
0100
1000
,
0001
0000
1001
0000
,
0001
0100
0010
0000
,
1010
0000
0101
0000
,
1010
0000
0101
0000
,
0001
0000
1001
0000
,
0001
0100
0010
0000
,
1000
0000
0010
0000
,
0100
0000
0001
0000
,
1000
0001
1000
0001
,
1000
0001
1000
0000
,
0001
0100
0010
1000
,
0010
0100
0010
0000
,
0100
0010
1000
0100
,
0010
0001
0010
0000
,
0001
0010
0001
0010
,
0001
0010
0001
0010
,
0001
0100
0010
1000
,
0010
0100
0010
1000
,
1010
0000
1100
0000
,
0011
0000
0101
0000
,
0001
0100
0010
1000
,
0100
0010
0100
1000
,
0010
0010
0100
0100
,
0001
0001
1000
1000
,
0220
0000
0000
0000
,
0000
0000
0000
0000
,
0000
0000
0000
0000
,
0000
0000
0000
0000
,
0000
0000
0000
0000
,
0000
0000
0000
0000
,
0000
0000
0000
0000
,
0000
0000
0000
0000
,
0330
0000
0000
0000
;

//---------------dance-single - ----------------
#NOTES:
     dance-single:
     :
     Beginner:
     3:
     0.165,0.275,0.108,0.000,0.000:
0000
0000
0000
0000
,
0001
0000
0000
0000
,
0100
0000
0000
0010
,
0100
0000
0000
0000
,
0001
0000
1000
0100
,
0000
0000
0000
1000
,
0000
0010
0000
0000
,
0000
0100
0000
1001
,
0001
0000
0000
0000
,
0100
0000
0000
0000
,
0001
0000
0000
0000
,
1000
0000
0000
0000
,
0100
0100
0000
0000
,
1000
1000
0000
0000
,
0001
0000
0100
0000
,
0010
0100
0001
1000
,
1001
0000
0001
0000
,
0100
0000
0010
0000
,
1001
0000
1000
0000
,
0100
0000
1000
0000
,
0010
0000
0100
0000
,
0001
0000
1000
0000
,
0100
0000
1000
0000
,
0010
0000
0100
0100
,
0010
0000
0100
0000
,
0001
0000
1000
0000
,
0100
0000
1000
0000
,
0010
0000
0100
0100
,
0010
0000
1000
0000
,
0001
0000
0100
0000
,
0010
0000
0000
0000
,
0100
0000
0000
0000
,
0001
0000
0100
0000
,
0010
0010
0100
0100
,
0010
0000
1000
0000
,
0001
0000
0000
0000
,
1000
0000
0100
0000
,
0010
0000
0100
0000
,
0010
0000
0001
0000
,
0010
0000
0000
0000
,
0001
0000
1000
0000
,
0010
0000
1000
0000
,
0010
0000
0010
0000
,
0010
0000
0000
0000
,
1001
0000
1001
0000
,
1001
0000
1001
0000
,
1001
0000
0001
0000
,
0001
0000
0000
0000
,
0100
0000
0010
0000
,
1000
0000
0010
0000
,
0100
0100
0100
0000
,
0010
0000
0000
0000
,
0010
1000
0010
0000
,
1000
0000
0000
0000
,
0001
0001
0001
0000
,
1000
0000
0000
0000
,
0100
0010
0100
0000
,
0010
0001
0010
0000
,
0001
0000
0100
0000
,
0010
0000
0000
0000
,
0110
0000
1001
0000
,
0110
0000
1001
0000
,
0001
1000
1000
0000
,
0001
0000
0100
0000
,
0010
0000
0100
0000
,
0001
0000
1000
0000
,
1001
0000
0000
0000
;
