#TITLE:deep blue sunrise;
#SUBTITLE:;
#ARTIST:Xacla;
#TITLETRANSLIT:;
#SUBTITLETRANSLIT:;
#ARTISTTRANSLIT:;
#CREDIT:;
#BANNER:deep blue sunrise.png;
#BACKGROUND:deep blue sunrise.png-backgruond;
#JACKET:deep blue sunrise-jacket.png;
#LYRICSPATH:;
#CDTITLE:;
#MUSIC:deep blue sunrise.mp3;
#OFFSET:-0.054;
#SAMPLESTART:85.380;
#SAMPLELENGTH:12.000;
#SELECTABLE:YES;
#BPMS:0.000=135.000;
#STOPS:;
#BGCHANGES:;

//---------------dance-single - ----------------
#NOTES:
     dance-single:
     :
     Hard:
     7:
     0.430,0.457,0.091,0.232,0.066: // measure 1
0000
0000
0000
0000
,  // measure 2
0000
0000
0000
0000
,  // measure 3
0000
0000
0000
0000
,  // measure 4
0000
0000
0000
0000
,  // measure 5
0001
0100
0010
2000
0002
3003
0000
0000
,  // measure 6
0001
0010
0100
0020
0002
0033
0000
0000
,  // measure 7
1000
0010
0001
0020
0200
0330
0000
0000
,  // measure 8
0100
0000
1000
0000
0100
0000
0002
0000
0013
0000
0000
0001
0000
0000
1000
0000
,  // measure 9
0101
0000
0000
0002
0023
0030
0000
0000
,  // measure 10
0100
0000
0000
0020
0230
1300
0000
0000
,  // measure 11
1100
0000
0000
0020
0032
0003
0000
0000
,  // measure 12
0001
0000
0000
0200
0302
1003
0000
0000
,  // measure 13
0110
0000
0000
0020
2030
3000
0000
0000
,  // measure 14
1010
0000
0000
0002
2003
3000
0000
0000
,  // measure 15
1100
0000
0000
2000
3002
0003
0000
0000
,  // measure 16
0110
0000
0000
0000
0000
0000
0200
0000
0320
0000
0030
1000
0000
0000
0001
0000
,  // measure 17
0100
0010
0100
0001
0000
1000
0100
1000
,  // measure 18
0000
0000
0000
0100
0010
0100
1000
0000
,  // measure 19
0001
0100
0001
1000
0000
0100
0010
0100
,  // measure 20
0000
1000
0010
0001
0000
0001
0000
1000
,  // measure 21
0001
0000
0010
0100
0000
0010
0001
1000
,  // measure 22
0100
1000
0001
0100
0000
0001
0010
0100
,  // measure 23
0010
0000
0000
0000
0000
0000
0100
0010
,  // measure 24
0001
1000
0010
1000
0001
0010
0100
0000
,  // measure 25
1000
0100
1000
0001
0000
0010
1000
0010
,  // measure 26
0000
0000
0000
1000
0100
1000
0010
0000
,  // measure 27
0001
1000
0001
0010
0000
1000
0100
1000
,  // measure 28
0000
0010
0100
0001
0000
0001
0000
0010
,  // measure 29
0001
0000
0100
1000
0000
0100
0001
0010
,  // measure 30
1000
0010
0001
1000
0000
0001
0100
1000
,  // measure 31
0100
0000
0000
0010
0000
0000
0010
0100
,  // measure 32
0001
0010
0100
1000
0100
0010
0001
0000
,  // measure 33
1001
0001
0100
0100
,  // measure 34
0001
1000
0100
0100
,  // measure 35
1000
0001
0100
0100
,  // measure 36
0001
1000
0100
0100
,  // measure 37
1000
0001
0010
0010
,  // measure 38
0001
1000
0010
0010
,  // measure 39
1000
0001
0010
0010
,  // measure 40
0001
1000
0010
0010
,  // measure 41
1000
0000
0000
0100
0000
0000
1000
0000
0000
0010
0000
0000
0100
0000
0010
0000
,  // measure 42
1000
0000
0000
0001
0000
0000
0010
0000
0000
0001
0000
0000
1000
0000
0001
0000
,  // measure 43
0100
0000
0000
0001
0000
0000
1000
0000
0000
0100
0000
0000
1000
0000
0001
0000
,  // measure 44
0100
0000
0000
0001
0000
0000
0010
0000
0000
0100
0000
0000
0010
0000
0001
0000
,  // measure 45
0100
0000
0000
0010
0000
0000
1000
0000
0000
0010
0000
0000
0100
0000
0010
0000
,  // measure 46
1000
0000
0000
0001
0000
0000
0010
0000
0000
1000
0000
0000
0010
0000
0100
0000
,  // measure 47
1000
0000
0000
0100
0000
0000
0001
0000
0000
0100
0000
0000
0010
0000
0001
0000
,  // measure 48
0100
0010
0100
0010
2002
0000
0000
3003
,  // measure 49
0101
0100
1000
0100
0000
0010
1000
0001
,  // measure 50
0000
0001
1000
0010
0100
0001
0010
0100
,  // measure 51
0010
0001
1000
0010
0000
0100
0001
0010
,  // measure 52
0000
0100
1000
0010
0000
0100
0001
0010
,  // measure 53
0100
0010
0001
1000
0000
0001
0100
0001
,  // measure 54
0010
0100
1000
0100
0000
0010
0001
0100
,  // measure 55
0001
0000
0000
0000
0000
0000
0010
0001
,  // measure 56
0100
0010
1000
0001
0100
1000
0100
0000
,  // measure 57
1010
1000
0010
0100
0000
0010
1000
0100
,  // measure 58
0000
0010
0100
0010
0001
0010
1000
0010
,  // measure 59
0100
1000
0010
1000
0000
0001
0100
1000
,  // measure 60
0000
0100
0001
1000
0000
0001
0010
0100
,  // measure 61
1000
0001
0100
1000
0000
0100
0010
1000
,  // measure 62
0010
0100
0010
1000
0000
0001
0100
0010
,  // measure 63
0200
0000
0000
0000
0000
0000
0301
1000
,  // measure 64
0010
0100
0010
1000
0010
1000
0100
0000
,  // measure 65
0022
0000
0000
0000
,  // measure 66
0033
0000
0000
0000
;

//---------------dance-single - ----------------
#NOTES:
     dance-single:
     :
     Medium:
     5:
     0.306,0.403,0.248,0.041,0.000: // measure 1
0000
0000
0000
0000
,  // measure 2
0000
0000
0000
0000
,  // measure 3
0000
0000
0000
0000
,  // measure 4
0000
0000
0000
0000
,  // measure 5
0001
0000
1000
0100
0010
0000
0000
0000
,  // measure 6
0001
0000
0001
0010
0100
0000
0000
0000
,  // measure 7
0010
0000
0001
0100
0010
0000
0000
0000
,  // measure 8
0100
0000
1000
0010
0100
0000
0000
0000
,  // measure 9
1001
0000
0000
0000
,  // measure 10
0101
0000
0000
0100
0000
0100
0000
0000
,  // measure 11
1010
0000
0000
0000
,  // measure 12
1100
0000
0000
1000
0000
1000
0000
0000
,  // measure 13
0011
0000
0000
0000
,  // measure 14
1100
0000
0000
0000
,  // measure 15
0101
0000
0000
0000
,  // measure 16
1010
0000
0101
0000
,  // measure 17
1001
0000
0001
0100
0000
0000
0001
0010
,  // measure 18
0000
0000
0000
0000
0100
0010
0001
0000
,  // measure 19
0010
0000
0100
1000
0000
0100
0010
0001
,  // measure 20
0000
1000
0001
0000
0000
0100
0000
0001
,  // measure 21
0010
0000
0010
0001
0000
0001
0100
0001
,  // measure 22
1000
0100
0010
0100
0000
0010
0001
1000
,  // measure 23
0001
0000
0000
0000
0000
0000
0001
1000
,  // measure 24
0000
0100
0000
1000
0000
0010
0100
0000
,  // measure 25
0101
0000
0000
1100
0000
0000
0100
1000
,  // measure 26
0000
0000
0000
0000
0010
0100
1000
0000
,  // measure 27
0010
0000
0000
0100
0000
0000
1000
0100
,  // measure 28
0000
0000
0010
0000
0000
0100
0000
0001
,  // measure 29
0010
0000
0000
1000
0000
0000
0010
0100
,  // measure 30
0010
0000
0000
0001
0000
0000
0100
0010
,  // measure 31
1000
0000
0000
0000
0000
0000
0001
0010
,  // measure 32
0100
1000
0100
0010
0000
0100
1000
0000
,  // measure 33
1001
0001
1000
0001
,  // measure 34
1000
0100
1000
0100
,  // measure 35
0010
0100
0010
0100
,  // measure 36
0010
0001
0010
0001
,  // measure 37
0100
0010
1000
0100
,  // measure 38
0010
0001
0100
0010
,  // measure 39
1000
0100
0001
0100
,  // measure 40
1000
0010
0001
0010
,  // measure 41
1010
0010
1000
1100
,  // measure 42
0100
0010
0001
0011
,  // measure 43
0001
0100
0010
1010
,  // measure 44
0010
0100
0001
0011
,  // measure 45
0001
1000
0100
1100
,  // measure 46
1000
0010
0100
0101
,  // measure 47
0001
0010
0100
1100
,  // measure 48
0101
0000
1100
0000
2002
0000
0000
3003
,  // measure 49
1001
0000
0001
0100
0000
0010
0100
0010
,  // measure 50
0000
0000
0000
0000
0100
1000
0010
0000
,  // measure 51
0100
0000
0001
0010
0000
1000
0010
0001
,  // measure 52
0000
0000
0010
0000
0000
0100
0000
0010
,  // measure 53
0001
0000
0000
0100
0000
0000
0001
1000
,  // measure 54
0100
0000
0000
1000
0000
0000
0100
0010
,  // measure 55
0001
0000
0000
0000
0000
0000
0001
0010
,  // measure 56
0000
0001
0000
0100
0000
0010
1000
0000
,  // measure 57
1010
0000
0000
0101
0000
0000
0001
1000
,  // measure 58
0000
0000
0000
0000
0100
0010
0001
0000
,  // measure 59
0011
0000
0000
0101
0000
0000
0100
0001
,  // measure 60
0000
0000
0100
0000
0000
0001
0000
1000
,  // measure 61
0100
0000
0000
1000
0000
0000
0010
0100
,  // measure 62
0000
0000
0000
0001
0000
1000
0100
0010
,  // measure 63
0002
0000
0000
0000
0000
0000
0013
0100
,  // measure 64
0000
0010
0000
0001
0000
1000
0010
0000
,  // measure 65
0202
0000
0000
0000
,  // measure 66
0303
0000
0000
0000
;

//---------------dance-single - ----------------
#NOTES:
     dance-single:
     :
     Easy:
     3:
     0.190,0.265,0.108,0.025,0.000: // measure 1
0000
0000
0000
0000
,  // measure 2
0000
0000
0000
0000
,  // measure 3
0000
0000
0000
0000
,  // measure 4
0000
0000
0000
0000
,  // measure 5
0001
1000
0010
0000
,  // measure 6
1000
0001
0010
0000
,  // measure 7
0001
1000
0010
0000
,  // measure 8
1000
0001
0010
0000
,  // measure 9
0110
0000
0000
0000
,  // measure 10
0100
0000
0001
0000
,  // measure 11
1001
0000
0000
0000
,  // measure 12
1000
0000
0100
0000
,  // measure 13
0110
0000
0000
0000
,  // measure 14
0011
0000
0000
0000
,  // measure 15
0101
0000
0000
0000
,  // measure 16
1001
0000
1100
0000
,  // measure 17
0110
0000
0010
0000
,  // measure 18
0001
0000
1000
0100
,  // measure 19
0010
0000
0100
0000
,  // measure 20
1000
0000
0001
0100
,  // measure 21
0001
0000
0100
0000
,  // measure 22
0010
0000
0100
0001
,  // measure 23
1000
0000
0000
0100
,  // measure 24
0010
0100
1000
0001
,  // measure 25
1001
0000
0001
0000
,  // measure 26
0100
0000
0001
0010
,  // measure 27
0100
0000
0010
0000
,  // measure 28
0100
0000
1000
0100
,  // measure 29
1000
0000
0010
0000
,  // measure 30
0100
0000
0001
0000
,  // measure 31
1000
0000
0000
0100
,  // measure 32
0010
0001
1000
0010
,  // measure 33
0100
0000
0000
0000
,  // measure 34
0001
0000
1000
0000
,  // measure 35
0100
0000
0000
0000
,  // measure 36
1000
0000
0010
0000
,  // measure 37
0100
0000
0000
0000
,  // measure 38
0010
0000
1000
0000
,  // measure 39
0001
0000
0000
0000
,  // measure 40
0010
0000
0100
0000
,  // measure 41
0010
0000
0000
0001
,  // measure 42
0100
0000
0000
0010
,  // measure 43
1000
0000
0000
0100
,  // measure 44
0010
0000
0000
0100
,  // measure 45
1000
0000
0000
0001
,  // measure 46
0100
0000
0000
0010
,  // measure 47
1000
0000
0000
0100
,  // measure 48
0010
0001
2002
3003
,  // measure 49
1001
0001
1000
0100
,  // measure 50
1000
0001
0100
0100
,  // measure 51
0001
0010
0100
0010
,  // measure 52
0000
0001
0000
1000
,  // measure 53
0100
1000
0010
0100
,  // measure 54
0001
0100
0001
0010
,  // measure 55
0100
0000
0000
0100
,  // measure 56
0010
0001
1000
0001
,  // measure 57
0101
0001
0100
0001
,  // measure 58
0000
0000
1000
0010
,  // measure 59
0100
0010
1000
0100
,  // measure 60
0000
0001
0000
0100
,  // measure 61
0010
0000
0001
0000
,  // measure 62
1000
0000
0010
0100
,  // measure 63
0020
0000
0030
0100
,  // measure 64
0001
0010
0100
1000
,  // measure 65
0110
0000
0000
0000
;

//---------------dance-single - ----------------
#NOTES:
     dance-single:
     :
     Beginner:
     1:
     0.106,0.159,0.058,0.000,0.000: // measure 1
0000
0000
0000
0000
,  // measure 2
0000
0000
0000
0000
,  // measure 3
0000
0000
0000
0000
,  // measure 4
0000
0000
0000
0000
,  // measure 5
0000
0000
0010
0000
,  // measure 6
0000
0000
0010
0000
,  // measure 7
0000
0000
0010
0000
,  // measure 8
0000
0000
0010
0000
,  // measure 9
1001
0000
0000
0000
,  // measure 10
0001
0000
0000
0000
,  // measure 11
1001
0000
0000
0000
,  // measure 12
1000
0000
0000
0000
,  // measure 13
0010
0000
0000
0000
,  // measure 14
1000
0000
0000
0000
,  // measure 15
0100
0000
0000
0000
,  // measure 16
1000
0000
0001
0000
,  // measure 17
0100
0000
0000
0000
,  // measure 18
0001
0000
0000
0000
,  // measure 19
1000
0000
0000
0000
,  // measure 20
0100
0000
1000
0000
,  // measure 21
0001
0000
0000
0000
,  // measure 22
0100
0000
0000
0000
,  // measure 23
0001
0000
0000
1000
,  // measure 24
0000
0001
0000
0100
,  // measure 25
0010
0000
0000
0100
,  // measure 26
0000
0000
0010
0010
,  // measure 27
1000
0000
0000
0100
,  // measure 28
0000
1000
0000
0000
,  // measure 29
0001
0000
0000
0000
,  // measure 30
0100
0000
0000
0000
,  // measure 31
0010
0000
0000
0000
,  // measure 32
0010
0000
0100
0000
,  // measure 33
1001
0000
0000
0000
,  // measure 34
0000
0000
0000
0000
,  // measure 35
0000
0000
0000
0000
,  // measure 36
0000
0000
0000
0000
,  // measure 37
1000
0000
0000
0000
,  // measure 38
0001
0000
1000
0000
,  // measure 39
0001
0000
0000
0000
,  // measure 40
1000
0000
0001
0000
,  // measure 41
0100
0000
0000
0000
,  // measure 42
0001
0000
0000
0000
,  // measure 43
1000
0000
0000
0000
,  // measure 44
0010
0000
0000
0000
,  // measure 45
0010
0000
0000
0000
,  // measure 46
0100
0000
0000
0000
,  // measure 47
0001
0000
0000
0000
,  // measure 48
1000
0000
1001
0000
,  // measure 49
0110
0000
0000
0100
,  // measure 50
0000
0000
0010
0010
,  // measure 51
0100
0000
0000
0001
,  // measure 52
0000
1000
0000
0000
,  // measure 53
1000
0000
0000
0100
,  // measure 54
0000
0000
1000
0000
,  // measure 55
0001
0000
0000
0100
,  // measure 56
0000
0010
0000
0100
,  // measure 57
1001
0000
0000
0000
,  // measure 58
0001
0000
1000
1000
,  // measure 59
0001
0000
0000
0100
,  // measure 60
0000
0001
0000
1000
,  // measure 61
1000
0000
0000
0100
,  // measure 62
0000
1000
0000
0010
,  // measure 63
0100
0000
0000
0010
,  // measure 64
0000
1000
0000
0001
,  // measure 65
1001
0000
0000
0000
;
