#TITLE:Ziggurat;
#SUBTITLE:;
#ARTIST:Alek Száhala;
#TITLETRANSLIT:;
#SUBTITLETRANSLIT:;
#ARTISTTRANSLIT:;
#CREDIT:;
#BANNER:Ziggurat.png;
#BACKGROUND:Ziggurat-background.png;
#JACKET:Ziggurat-jacket.png;
#LYRICSPATH:;
#CDTITLE:cdtitle.png;
#MUSIC:Ziggurat.mp3;
#OFFSET:-0.046;
#SAMPLESTART:54.060;
#SAMPLELENGTH:12.000;
#SELECTABLE:YES;
#BPMS:0.000=160.000;
#STOPS:64.000=5.664
;
#BGCHANGES:;

//---------------dance-single - ----------------
#NOTES:
     dance-single:
     :
     Hard:
     9:
     0.513,0.622,0.109,0.054,0.178: // measure 1
0000
0000
0000
0000
,  // measure 2
0000
0000
0000
0000
,  // measure 3
0000
0000
0000
0000
,  // measure 4
0000
0000
0000
0000
,  // measure 5
0000
0000
0000
0000
,  // measure 6
0000
0000
0000
0000
,  // measure 7
0000
0000
0000
0000
,  // measure 8
0000
0000
0000
0000
,  // measure 9
0002
0000
0000
0000
,  // measure 10
0000
0000
0000
0000
,  // measure 11
2003
0000
0000
0000
,  // measure 12
3200
0000
0000
0000
,  // measure 13
2300
0000
0000
0000
,  // measure 14
0000
0000
0000
0000
,  // measure 15
3020
0000
0000
0000
,  // measure 16
0230
0000
0000
0000
,  // measure 17
0301
0000
0000
0000
1001
0000
0101
0000
0011
0000
0010
0000
0100
0000
0000
1000
,  // measure 18
0000
0000
0001
0000
1000
0000
0001
0000
0010
0000
0100
0000
0010
0000
0000
0001
,  // measure 19
0000
0100
0010
0000
1000
0000
0010
0000
,  // measure 20
0001
0010
0100
0001
,  // measure 21
0010
0000
0000
0000
0001
0000
1000
0000
0010
0000
0100
0000
0001
0000
0000
0001
,  // measure 22
0000
0000
1000
0000
0100
0000
0010
0000
0100
0000
1000
0000
0001
0000
0000
0100
,  // measure 23
0000
0000
0001
0000
0010
0000
0000
0010
0000
0000
0001
0000
0100
0000
0000
0000
,  // measure 24
0010
0000
1000
0000
0001
0000
0010
0100
,  // measure 25
1000
0000
0001
0000
0100
0000
0100
0000
0100
0000
0010
0000
1000
0000
0000
0001
,  // measure 26
0000
0000
0010
0000
0100
0000
0100
0000
0100
0000
0010
0000
0001
0000
0000
1000
,  // measure 27
0000
0000
0100
0000
0001
0000
0000
0100
0000
0000
0010
0000
0001
0000
0000
1000
,  // measure 28
0000
0010
0100
0000
0001
0000
0010
0000
,  // measure 29
0100
0000
0000
0000
0010
0000
0001
0000
0100
0000
1000
0000
0100
0000
0000
0010
,  // measure 30
0000
0000
1000
0000
0100
0000
0001
0000
0100
0000
0010
0000
0001
0000
0000
0001
,  // measure 31
0000
0000
0100
0000
0010
0000
0000
0100
0000
0000
0100
0000
0001
0000
1000
0000
,  // measure 32
1000
0100
0010
0001
0010
0100
1100
0110
,  // measure 33
0011
0000
0101
0001
0100
0010
0100
0000
,  // measure 34
0001
1000
0000
0010
1000
0000
0010
0100
,  // measure 35
0010
1000
0100
0010
0001
0010
0100
0000
,  // measure 36
0100
1000
0010
0100
1000
0100
0010
0000
,  // measure 37
0010
1000
0100
1000
0100
1000
0001
0000
,  // measure 38
0100
0001
0000
0001
0010
0000
0010
0001
,  // measure 39
0100
1000
0100
0010
1000
0100
0001
0000
,  // measure 40
0001
0100
1000
0010
0001
0010
0100
0010
,  // measure 41
0001
1000
0100
0100
0000
0010
0010
0000
,  // measure 42
0001
0001
0000
1000
1000
0000
0001
0001
,  // measure 43
1000
1000
0010
0010
0000
0100
0100
0000
,  // measure 44
0001
0100
1000
0100
0010
1000
0100
0010
,  // measure 45
0001
0010
0001
0001
0000
1000
1000
0000
,  // measure 46
0010
0010
0000
0100
0100
0000
0100
1000
,  // measure 47
0100
0001
0010
0010
0000
0100
0100
0000
,  // measure 48
0010
0010
0001
0100
1000
0100
0010
0000
,  // measure 49
1000
0000
0100
0010
0001
1000
0001
0100
,  // measure 50
0001
0010
0100
0010
0001
1000
0010
0100
,  // measure 51
1000
0100
0010
1000
0010
0001
0010
0100
,  // measure 52
0010
1000
0001
0010
0100
0010
0001
0100
,  // measure 53
0001
1000
0100
1000
0010
0100
0001
0010
,  // measure 54
0100
0010
0001
0100
0100
0010
1000
0001
,  // measure 55
0010
0100
1000
0001
0100
0001
0100
1000
,  // measure 56
0100
0001
1000
0010
1000
0001
1001
1001
,  // measure 57
1001
0000
0001
0001
1000
0100
0100
0010
,  // measure 58
0001
0001
1000
0001
0001
0010
1000
1000
,  // measure 59
0010
0010
0001
0001
1000
0010
0010
0100
,  // measure 60
0010
1000
0001
0010
0100
1000
0001
0010
,  // measure 61
0100
0010
0001
0001
1000
0001
0001
0010
,  // measure 62
0100
0100
1000
0001
0001
1000
0010
0001
,  // measure 63
0010
1000
0100
0100
0010
0001
0001
1000
,  // measure 64
0100
0100
1000
0010
0001
0010
0100
0000
,  // measure 65
0100
0001
1001
0101
0011
0000
0001
0000
,  // measure 66
0001
0000
0001
0000
1000
0000
0100
0000
0010
0000
0000
0000
0010
0000
0000
0001
,  // measure 67
0000
0000
0100
0000
0001
0000
0000
1000
0000
0000
0100
0000
0010
0000
0000
0010
,  // measure 68
0000
0000
0100
0000
1000
0000
0000
1000
0000
0000
1000
0000
0001
0000
0000
0001
,  // measure 69
0000
0000
0001
0000
0100
0000
0010
0000
1000
0000
0100
0000
0010
0000
0000
0100
,  // measure 70
0000
0000
1000
0000
0001
0000
0100
0000
0001
0000
0010
0000
0100
0000
0000
0100
,  // measure 71
0000
0000
0010
0000
0001
0000
0000
1000
0000
0000
0010
0000
0010
0000
0000
0100
,  // measure 72
0000
0000
0001
0000
1000
0000
0000
0100
0000
0000
0010
0000
0001
0000
0000
0000
,  // measure 73
0200
0000
0000
0000
0310
1000
0000
0010
0000
0100
0000
0001
1000
0000
0000
0100
,  // measure 74
0000
0000
0010
0000
0001
0010
0000
0100
0000
1000
0000
0001
0100
0000
0000
0010
,  // measure 75
0000
0000
1000
0000
0100
0000
0000
0100
0000
0000
0010
0000
0001
0000
0000
0100
,  // measure 76
0000
0001
1000
0000
1000
0000
0001
0000
,  // measure 77
0001
0000
0000
0000
0001
0100
0000
1000
0000
0100
0000
0010
1000
0000
0000
0100
,  // measure 78
0000
0000
1000
0000
0001
0100
0000
1000
0000
0010
0000
1000
0010
0000
0000
0100
,  // measure 79
0000
0000
0001
0000
1000
0000
0000
0100
0000
0000
0010
0000
0100
0000
0000
1000
,  // measure 80
0000
0001
1000
0100
0010
0001
0010
0100
,  // measure 81
1000
1001
0000
0000
;

//---------------dance-single - ----------------
#NOTES:
     dance-single:
     :
     Medium:
     7:
     0.402,0.498,0.070,0.016,0.000:
0000
0000
0000
0000
,
0000
0000
0000
0000
,
0000
0000
0000
0000
,
0000
0000
0000
0000
,
0000
0000
0000
0000
,
0000
0000
0000
0000
,
0000
0000
0000
0000
,
0000
0000
0000
0000
,
0010
0000
0000
0000
,
0000
0000
0000
0000
,
0100
0000
0000
0000
,
0001
0000
0000
0000
,
1000
0000
0000
0000
,
0000
0000
0000
0000
,
0010
0000
0000
0000
,
0100
0000
0000
0000
,
1001
0000
0010
0010
0010
0000
0100
0000
,
0010
0000
1000
1000
1000
0000
0001
0000
,
1000
0100
1000
0100
,
1000
0100
0010
0001
,
0010
0000
0001
0001
0001
0000
0100
0000
,
0010
0000
0100
0100
0100
0000
0010
0000
,
1000
0001
1000
0100
,
1000
0100
0010
0001
,
0020
0000
0130
0100
0100
0000
0010
0000
,
0001
0000
1000
1000
1000
0000
0001
0000
,
0100
0001
1000
0100
,
1000
0100
0010
0001
,
0010
0000
0100
0100
0100
0000
1000
0000
,
0010
0000
0100
0100
0100
0000
0010
0000
,
1000
0001
0010
0100
,
1000
0000
0100
0000
0010
0000
0001
0010
,
0011
0000
0001
0100
0010
0000
0100
0010
,
1000
0000
0010
0100
0001
0000
0001
1000
,
0010
0100
0001
1000
0010
0000
0010
0100
,
0001
0000
0001
0010
0100
0000
0010
0100
,
1000
0000
0100
1000
0010
0000
0100
0010
,
1000
0000
0001
0010
0100
0000
0100
0010
,
0001
0000
0001
0100
0010
0000
0100
0010
,
1000
0000
0001
0100
0010
0000
0100
0001
,
0100
0001
0100
0010
1000
0000
0010
0100
,
0001
0000
0001
0100
0010
0000
0100
0010
,
1000
0000
0001
0010
0100
0000
0100
1000
,
0010
0000
0100
0010
1000
0000
0001
0010
,
0100
0000
0100
0010
0001
0000
0001
0100
,
0010
0000
0100
0010
1000
0000
0001
1000
,
0010
0000
0100
0001
1000
0000
0001
0100
,
0010
0000
0100
0010
1000
0001
0100
0100
,
0100
0000
0001
0100
0000
0010
1000
0000
,
0010
0100
0000
0001
1000
0000
1000
0100
,
0010
0001
0010
0001
0000
0001
0010
0000
,
0010
0100
1000
0100
1000
0100
0010
0000
,
0001
0010
0100
1000
0000
0100
0010
0000
,
0010
0001
0000
0001
0100
0000
0100
0010
,
0000
0010
0100
0010
0000
0010
0100
0000
,
0001
1000
0001
0100
0001
0100
0010
0000
,
0100
0001
1000
0001
0000
0001
0100
0000
,
0100
0010
0000
0010
1000
0000
1000
0100
,
0000
0010
0001
0010
0000
0001
0010
0000
,
0010
0100
1000
0100
1000
0100
1000
0000
,
0100
0010
0001
0010
0000
0001
0010
0000
,
0100
1000
0000
0010
0100
0000
0001
1000
,
0001
0100
0010
0100
0000
0010
0100
0000
,
0001
0100
1000
0000
0100
0000
0010
0000
,
1000
0000
0001
1000
1001
0000
0001
0000
,
0100
0000
0010
1000
0010
0000
0100
0000
,
0010
1000
0001
0010
,
0100
1000
0100
1000
,
0010
0000
0100
0001
0100
0000
0010
0000
,
1000
0000
0010
0100
0001
0000
1000
0000
,
0100
1000
0001
0100
,
0001
1000
0100
0010
,
0002
0000
0013
0100
1000
0100
1000
0000
,
1100
0000
1000
0100
0010
0001
0010
0000
,
0011
0001
0100
0010
,
1000
0001
0010
0100
,
0010
0000
0001
0010
0100
1000
0100
0000
,
1100
0000
1000
0010
0100
0001
1000
0000
,
1010
0010
0100
0010
,
1000
0000
0001
0000
0010
0000
1000
0001
,
1001
0110
0000
0000
;

//---------------dance-single - ----------------
#NOTES:
     dance-single:
     :
     Easy:
     6:
     0.339,0.405,0.016,0.000,0.000:
0000
0000
0000
0000
,
0000
0000
0000
0000
,
0000
0000
0000
0000
,
0000
0000
0000
0000
,
0000
0000
0000
0000
,
0000
0000
0000
0000
,
0000
0000
0000
0000
,
0000
0000
0000
0000
,
0010
0000
0000
0000
,
0000
0000
0000
0000
,
1000
0000
0000
0000
,
0001
0000
0000
0000
,
0100
0000
0000
0000
,
0000
0000
0000
0000
,
0001
0000
0000
0000
,
0010
0000
0000
0000
,
1100
0000
1000
0001
0100
0000
0001
0000
,
0100
0000
0010
0100
0010
0000
0100
0000
,
0010
1000
1000
0001
,
0001
0100
0001
0010
,
0100
0000
1000
0100
0010
0000
0100
0000
,
1000
0000
0010
0100
0001
0000
1000
0000
,
0001
0100
0001
1000
,
0100
1000
0010
0100
,
0001
0000
0001
0010
1000
0000
0010
0000
,
0100
0000
0010
0100
1000
0000
0100
0000
,
1000
0010
0010
0100
,
0001
1000
0100
1000
,
0010
0000
0100
0001
0010
0000
0100
0000
,
1000
0000
0100
1000
0010
0000
0100
0000
,
0001
1000
0100
0010
,
0100
0000
1000
0000
0001
0000
0100
0100
,
0100
0000
0001
0100
0010
0000
0100
0000
,
0010
0000
1000
0001
0010
0000
0100
0000
,
1000
0100
1000
0010
,
0100
0001
0010
0100
1000
0100
1000
0000
,
0100
0000
1000
0010
0100
0000
0001
0000
,
1000
0100
1000
0001
,
0100
0001
0010
0001
,
0100
0000
0010
0000
1000
0000
0001
0001
,
0001
0000
1000
0001
0100
0000
0010
0000
,
1000
0000
0010
0100
0001
0000
0010
0000
,
0100
0000
1000
0100
1000
0000
0100
0000
,
1000
0100
0010
0001
0010
0100
1000
0000
,
0001
0100
0010
0000
1000
0000
0001
0000
,
0100
0001
0010
0100
,
0010
0001
1000
0010
,
0001
0010
0100
0001
,
1000
0000
0001
0100
0010
0000
1000
0000
,
0010
0000
0100
0000
0001
0000
1000
0001
,
0010
0100
1000
0000
0100
0000
1000
0000
,
0010
0100
0001
0000
1000
0000
0100
0000
,
1000
0100
1000
0000
0100
0000
0010
0000
,
0001
0010
0001
0000
0010
0000
0100
0000
,
0010
0000
0001
0100
0001
0000
0100
0000
,
0010
1000
0001
0000
0100
0000
0001
0001
,
0001
0000
0001
0100
0010
0000
1000
0000
,
0100
0010
0100
0000
1000
0000
0100
1000
,
0010
0100
0001
0000
1000
0000
0001
0000
,
0100
0001
0100
0000
0100
0000
0010
0000
,
0010
0000
0100
0010
1000
0000
0001
0000
,
0010
0100
0000
0100
1000
0000
0100
1000
,
0000
0000
0100
1000
0010
0000
0100
0000
,
0001
0000
1000
0100
0010
0001
0010
0000
,
0001
0000
0100
0001
0100
0000
0010
0000
,
1000
0000
0010
0100
0010
0000
0100
0000
,
0001
1000
1000
0001
,
0001
0000
0000
0000
,
0000
0000
1000
0001
0100
0000
0010
0000
,
1000
0000
0010
0100
0010
0000
0100
0000
,
0001
1000
1000
0001
,
0001
0000
0000
0000
,
0010
0000
0100
1000
0100
0000
1000
0000
,
0010
0000
0001
0010
1000
0000
0010
0000
,
0100
0001
0001
0010
,
0010
0000
0000
0000
,
0000
0000
0010
0100
1000
0000
0100
0000
,
1000
0000
1000
0100
0001
0000
0100
0000
,
1000
0100
0010
0001
,
0100
0000
0010
0000
1000
0000
0001
1000
,
0001
1001
0000
0000
;

//---------------dance-single - ----------------
#NOTES:
     dance-single:
     :
     Challenge:
     11:
     0.718,0.788,0.109,0.186,1.000: // measure 1
0000
0000
0000
0000
,  // measure 2
0000
0000
0000
0000
,  // measure 3
0000
0000
0000
0000
,  // measure 4
0000
0000
0000
0000
,  // measure 5
0000
0000
0000
0000
,  // measure 6
0000
0000
0000
0000
,  // measure 7
0000
0000
0000
0000
,  // measure 8
0000
0000
0000
0000
,  // measure 9
2000
3100
0200
0310
,  // measure 10
0020
0031
0002
1003
,  // measure 11
0002
0013
0020
0130
,  // measure 12
0200
1300
2000
3010
,  // measure 13
0200
0310
0020
1030
,  // measure 14
2000
3100
0200
1300
,  // measure 15
2000
3001
0002
0103
,  // measure 16
0002
0203
2300
3200
,  // measure 17
0320
0030
0000
0000
0000
0000
0000
0000
0000
0000
0000
0000
0000
0000
0000
0000
0110
0000
0000
0000
0000
0000
0000
0000
1010
0000
0000
0000
0000
0000
0000
0000
1010
0000
0000
0000
0000
0000
0000
0000
1000
0000
0000
0000
0010
0000
0000
0000
0100
0000
0000
0000
0010
0000
0000
0000
0000
0000
0000
0000
0100
0000
0000
0000
,  // measure 18
0000
0100
0000
0001
0000
0010
0000
0100
0000
0100
1000
0100
0010
0001
0000
0100
,  // measure 19
0000
0001
0000
1000
0100
1000
0000
0100
0000
1000
0000
0100
1000
0100
0000
1000
,  // measure 20
0000
0100
0000
0100
0010
0000
0001
0000
0100
0000
0000
0000
0010
0000
0000
0000
,  // measure 21
1000
0000
0000
0000
0001
0100
0000
0100
0000
0001
0100
0001
0100
0010
0000
0100
,  // measure 22
0000
0010
0000
1000
0000
0100
0000
0010
0000
0010
0100
1000
0001
0100
0000
0001
,  // measure 23
0000
1000
0000
0100
0010
0001
0000
0010
0000
0100
0000
0100
1000
0010
0000
0100
,  // measure 24
0000
0010
0000
0010
1000
0000
0000
0000
0100
0000
0000
0000
0010
0000
0000
0000
,  // measure 25
0021
0000
0000
0000
0130
0010
0000
0001
0000
0001
1000
0100
1000
0010
0000
0100
,  // measure 26
0000
0100
0000
0010
0000
0010
0000
0010
0000
0100
0001
0010
0100
1000
0000
0100
,  // measure 27
0000
0010
0000
0010
0100
1000
0000
0010
0000
0100
0000
0001
0100
0001
0000
0010
,  // measure 28
0000
0100
0000
0100
1000
0000
0000
0000
0100
0000
0000
0000
0010
0000
0000
0000
,  // measure 29
0001
0000
0000
0000
1000
0010
0000
0010
0000
0010
0100
0001
1000
0100
0000
0010
,  // measure 30
0000
0010
0000
0100
0000
0100
0000
0100
0000
0100
1000
0010
0100
0001
0000
1000
,  // measure 31
0000
0001
0000
0001
0100
0010
0000
0100
0000
0010
0000
0010
1000
0010
0000
0100
,  // measure 32
0001
0010
0100
1000
0100
0010
0011
1100
,  // measure 33
1001
0000
0001
0100
0001
0100
0010
0100
,  // measure 34
0001
0100
0001
1000
0100
1000
0100
1000
,  // measure 35
0010
0100
0001
0100
0001
1000
0100
0000
,  // measure 36
0100
0010
0001
1000
0010
1000
0100
0000
,  // measure 37
1000
0010
0001
0010
0100
0001
1000
0100
,  // measure 38
1000
0001
0100
0001
0010
0100
0010
0010
,  // measure 39
0100
1000
0010
0010
0100
1000
0100
1000
,  // measure 40
0010
0100
0001
1000
0100
0001
0100
0000
,  // measure 41
0010
0100
1000
0100
0001
0100
1000
0010
,  // measure 42
0001
0010
0100
0010
1000
0001
1000
0100
,  // measure 43
1000
0001
0100
0100
0001
1000
1000
0001
,  // measure 44
0001
0100
1000
0100
0010
1000
0010
0000
,  // measure 45
0100
0001
1000
0100
1000
0001
0100
0100
,  // measure 46
0001
1000
0010
0100
0100
0010
1000
1000
,  // measure 47
0100
0010
0100
0100
1000
0010
0010
0100
,  // measure 48
0001
0010
0100
1000
0100
1000
0200
0000
,  // measure 49
1000
0000
1000
0000
1300
0001
0000
0100
0000
0001
0000
0001
0100
0010
0000
0010
,  // measure 50
0000
0010
0000
0100
0000
0001
0000
1000
0000
0100
0000
0010
0001
0100
0000
0010
,  // measure 51
0000
1000
0000
0001
0010
0100
0000
0100
0000
0010
1000
0001
1000
0010
0000
0100
,  // measure 52
0000
0100
0000
0001
1000
0100
0000
0010
0000
0010
0000
0010
0100
1000
0000
0001
,  // measure 53
0000
0001
0000
0100
0001
0100
0000
0001
0000
1000
0000
0001
0010
0100
0000
0100
,  // measure 54
0000
0100
0000
0010
0000
0001
0000
1000
0000
0001
0000
0001
0010
0100
0000
1000
,  // measure 55
0000
1000
0000
0010
0100
0010
0000
0100
0000
0100
0010
1000
0001
1000
0000
0100
,  // measure 56
0000
0100
0000
0010
0001
0010
0000
0100
0000
0010
0000
0001
1000
0100
0000
0010
,  // measure 57
0000
0000
0000
0001
0000
0000
0000
0000
0000
0001
0000
0000
0010
0000
0000
0100
0000
0000
0000
0000
0000
0100
0000
0000
0000
0000
0000
0100
0000
0000
1000
0000
0000
0100
0000
1000
0000
0100
0000
1000
0000
0000
0000
0000
0000
0100
0000
0000
,  // measure 58
0000
0000
0000
0010
0000
0000
0000
0000
0000
0001
0000
0000
0000
0000
0000
0100
0000
0000
0000
0000
0000
0010
0000
0000
0000
0000
0000
0100
0000
0000
0010
0000
0000
1000
0000
0001
0000
1000
0000
0001
0000
0000
0000
0000
0000
1000
0000
0000
,  // measure 59
0000
0000
0000
0001
0000
0000
0000
0000
0000
0100
0000
0000
0001
0000
0000
0100
0000
0000
0000
0000
0000
0010
0000
0000
0000
0000
0000
1000
0000
0000
0100
0000
0000
1000
0000
0100
0000
1000
0000
0100
0000
0000
0000
0000
0000
1000
0000
0000
,  // measure 60
0000
0000
0000
0001
0000
0000
0000
0000
0000
0100
0000
0000
0001
0000
0000
0100
0000
0000
0000
0000
0000
0100
0000
0000
0000
0000
0000
0100
0000
0000
0010
0000
0000
1000
0000
0001
0000
1000
0000
0001
0000
0000
0000
0000
0000
0010
0000
0000
,  // measure 61
0000
0000
0000
0010
0000
0000
0000
0000
0000
0010
0000
0000
0100
0000
0000
1000
0000
0000
0000
0000
0000
0100
0000
0000
0000
0000
0000
0010
0000
0000
0001
0000
1000
0000
0001
0000
1000
0000
0000
0001
0000
0000
0000
0000
0000
0100
0000
0000
,  // measure 62
0000
0000
0000
0001
0000
0000
0000
0000
0000
0010
0000
0000
0000
0000
0000
0010
0000
0000
0000
0000
0000
0100
0000
0000
0000
0000
0000
0100
0000
0000
1000
0000
0000
0001
0000
0100
0000
0001
0000
0100
0000
0000
0000
0000
0000
0001
0000
0000
,  // measure 63
0000
0010
0000
0010
0100
1000
0000
0010
0000
0100
0000
0010
1000
0001
0000
0010
,  // measure 64
0000
0100
0000
0100
1000
0000
0001
0000
0100
0000
0001
0000
0010
0000
0000
0000
,  // measure 65
0100
0000
0010
0000
1001
0000
1001
0000
1001
0000
0001
0100
0001
0100
0000
0010
,  // measure 66
0000
1000
0000
0100
0000
0010
0000
0010
0000
0010
0100
1000
0001
0100
0000
0010
,  // measure 67
0000
1000
0000
0010
0100
0001
0000
0010
0000
0100
0000
1000
0100
1000
0000
0100
,  // measure 68
0000
0100
0000
0010
0001
0010
0000
0010
0000
0010
0000
0000
0000
0000
0000
0000
,  // measure 69
0000
0000
0000
0000
0010
0001
0000
0100
0000
0010
1000
0010
1000
0001
0000
1000
,  // measure 70
0000
0100
0000
0010
0000
0010
0000
0010
0000
0010
0001
0100
0010
1000
0000
0010
,  // measure 71
0000
0001
0000
0010
0100
0001
0000
1000
0000
0100
0000
0010
0001
0010
0000
0100
,  // measure 72
0000
0100
0000
0000
0000
0000
0000
0000
0000
0000
0000
0000
0000
0000
0000
0000
,  // measure 73
2000
0000
0000
0000
0000
0000
0000
0000
0000
0000
0000
0000
3001
0000
0000
0100
0000
0000
0000
0000
0000
0001
0000
0000
0000
0000
0000
0001
0000
1000
0000
0001
0000
1000
0000
0001
0000
1000
0000
0001
0000
0000
0000
0000
0000
0100
0000
0000
,  // measure 74
0000
0000
0000
0100
0000
0000
0000
0000
0000
0010
0000
0000
0000
0000
0000
1000
0000
0000
0000
0000
0000
0010
0000
0000
0000
0000
0000
0100
0000
0001
0000
0100
0000
0001
0000
0100
0000
0001
0000
0100
0000
0000
0000
0000
0000
0010
0000
0000
,  // measure 75
0000
0100
0000
0010
1000
0010
0000
0100
0000
0100
0000
0010
1000
0001
0000
0010
,  // measure 76
0000
0100
0000
0100
0010
0000
0000
0000
0000
0000
0000
0000
0000
0000
0000
0000
,  // measure 77
0000
0000
0000
0000
0000
0000
0000
0000
0000
0000
0000
0000
0001
0000
0000
0100
0000
0000
0000
0000
0000
0100
0000
0000
0000
0000
0000
0010
0000
0100
0000
0010
0000
0100
0000
0010
0000
0100
0000
0010
0000
0000
0000
0000
0000
0100
0000
0000
,  // measure 78
0000
0000
0000
0001
0000
0000
0000
0000
0000
1000
0000
0000
0000
0000
0000
1000
0000
0000
0000
0000
0000
1000
0000
0000
0000
0000
0000
0001
0000
0100
0000
0001
0000
0100
0000
0001
0000
0100
0000
0001
0000
0000
0000
0000
0000
0100
0000
0000
,  // measure 79
0000
0010
0000
0010
0100
0010
0000
1000
0000
0001
0000
0001
0010
0100
0000
0100
,  // measure 80
1000
0100
0001
0100
0010
0001
0101
1010
,  // measure 81
0101
2200
0000
0000
,  // measure 82
0000
3300
0000
0000
;

//---------------dance-single - ----------------
#NOTES:
     dance-single:
     :
     Beginner:
     2:
     0.147,0.187,0.039,0.000,0.000:
0000
0000
0000
0000
,
0000
0000
0000
0000
,
0000
0000
0000
0000
,
0000
0000
0000
0000
,
0000
0000
0000
0000
,
0000
0000
0000
0000
,
0000
0000
0000
0000
,
0000
0000
0000
0000
,
0001
0000
0000
0000
,
0000
0000
0000
0000
,
1000
0000
0000
0000
,
0100
0000
0000
0000
,
1000
0000
0000
0000
,
0000
0000
0000
0000
,
0001
0000
0000
0000
,
0100
0000
0000
0000
,
0110
0001
0000
0000
,
0000
1000
0000
0000
,
0000
0010
0000
0010
,
0000
0010
0000
0000
,
0000
0100
0000
0000
,
0000
0001
0000
0000
,
0000
1000
0000
1000
,
0000
1000
0000
0000
,
0000
0001
0000
0000
,
0000
1000
0000
0000
,
0000
0100
0000
0100
,
0000
0100
0000
0000
,
0000
1000
0000
0000
,
0000
0010
0000
0000
,
0000
0100
0000
0100
,
0000
0100
0000
0000
,
0000
1001
0000
0001
,
0000
1000
0000
0001
,
0000
0100
0000
0001
,
0000
1000
1000
1000
,
0000
0001
0000
1000
,
0000
0100
0000
1000
,
0000
0010
0000
0100
,
0000
0001
0001
0001
,
0000
0100
0000
0001
,
0000
1000
0000
0100
,
0000
1000
0000
0010
,
0000
0100
0100
0100
,
0000
0001
0000
1000
,
0000
0100
0000
1000
,
0000
0001
0000
0100
,
0000
0001
0001
0001
,
0000
1000
0000
0001
,
0000
0100
0000
0001
,
0000
0010
0000
0100
,
0000
0010
0010
0001
,
0010
0001
0000
1000
,
0000
0010
0000
0100
,
0000
0001
0000
1000
,
0000
0100
0100
0010
,
0010
0100
0000
1000
,
0000
0001
0000
0100
,
0000
0001
0000
1000
,
0000
0100
0100
1000
,
1000
0001
0000
1000
,
0000
0010
0000
1000
,
0000
0100
0000
0010
,
0000
0001
0001
0010
,
0001
1001
0000
0001
,
0000
0100
0000
0001
,
0000
0001
0000
0001
,
0000
0000
0000
0000
,
0000
1000
0000
0010
,
0000
0100
0000
0010
,
0000
0010
0000
0010
,
0000
0000
0000
0000
,
0000
0110
0000
0010
,
0000
0100
0000
0010
,
0000
0010
0000
0010
,
0000
0000
0000
0000
,
0000
1000
0000
0001
,
0000
1000
0000
1000
,
0000
0001
0000
0001
,
0000
0000
0000
0000
,
0000
1001
0000
0000
;
