#TITLE:ZED;
#SUBTITLE:;
#ARTIST:USAO;
#TITLETRANSLIT:;
#SUBTITLETRANSLIT:;
#ARTISTTRANSLIT:;
#GENRE:;
#CREDIT:;
#BANNER:ZED.png;
#BACKGROUND:ZED-bg.png;
#LYRICSPATH:;
#CDTITLE:cdtitle.png;
#MUSIC:ZED.mp3;
#OFFSET:-10.805997;
#SAMPLESTART:10.796999;
#SAMPLELENGTH:12.000000;
#SELECTABLE:NO;
#BPMS:0.000000=190.000000
,76.000000=95.000000
,77.000000=190.000000
;
#STOPS:77.000000=0.316000,
252.000000=0.300000
;
#BGCHANGES:;
#KEYSOUNDS:;
#ATTACKS:;

//---------------dance-single - ----------------
#NOTES:
     dance-single:
     :
     Hard:
     10:
     0.686139,0.827860,0.237379,0.269030,0.352113,543.000000,30.000000,34.000000,0.000000,0.000000,0.000000,0.686139,0.827860,0.237379,0.269030,0.352113,543.000000,30.000000,34.000000,0.000000,0.000000,0.000000:
0010
0000
1001
0001
,
0100
0000
0000
0010
0000
0000
1000
0000
0001
0000
0000
0000
0000
0000
0000
0000
,
1000
0000
0000
0010
1010
0000
1000
0000
,
0001
0000
0000
1000
0000
0000
0001
0100
0001
0000
0000
0000
0000
0000
0000
0000
,
1001
0000
0000
0001
0100
0000
0010
0000
,
1000
0000
0000
0010
0000
0000
1000
0001
0010
0000
0000
0000
0000
0000
0000
0000
,
0010
0000
0000
0100
0010
0000
0001
0000
,
1000
0000
0000
1000
0000
0000
0001
0100
0001
0000
1000
0000
0010
0000
0000
0000
,
2000
0000
0000
3200
0000
0000
0020
0000
,
0000
0000
0000
0330
,
0020
0000
0000
0032
0000
0000
2000
0000
,
0000
0000
0000
3003
,
1002
0000
0000
0100
0000
0000
0020
0000
,
0000
0000
0000
0033
,
1001
0000
0001
0100
0000
0100
0010
0000
,
0010
1000
0000
1000
0100
0000
1001
0000
,
1000
0010
1000
0100
0010
0001
0010
0100
,
1000
0001
1000
0100
0010
0010
0001
0010
,
0010
0001
0100
0010
1000
0100
0010
0001
0010
0100
1000
0001
0100
0010
1000
0002
,
2000
0000
3003
0000
2002
0000
3003
1000
,
0001
0000
0000
0000
0000
0000
0001
0000
0000
0000
0000
0000
0100
0000
0000
0000
1000
0000
0000
0000
0100
0000
0000
0000
0010
0000
0000
0000
0000
0000
0000
0000
0000
0100
0000
0000
0000
0000
0000
0000
0000
0000
0100
0000
0000
0010
0000
0000
,
0100
0000
0001
0000
2000
0000
0000
0000
3100
0000
0000
0010
0000
0010
0001
0010
,
0200
0000
0000
0310
0100
1000
0001
0100
0001
0020
0000
0030
,
0010
0000
0100
0000
0010
0000
0002
0000
0000
0000
0000
0000
2003
0000
0000
0000
0000
0000
0000
0000
0000
0001
0000
0000
,
3002
0000
0000
0000
0000
0000
0000
0000
0000
0000
0000
0000
0103
0000
0000
0000
0010
0000
0000
0000
1000
0000
0000
0000
0010
0000
0000
0000
0000
0000
0000
0000
0000
0110
0000
0000
0000
0000
0000
0000
0000
0000
0010
0000
0000
1000
0000
0000
,
0100
0010
0100
0000
0100
0010
0001
0100
,
0010
1000
0001
0010
1000
0010
0001
0100
,
0010
1000
0001
1000
0200
0000
0000
0300
,
0110
0000
0000
0000
0000
0000
0110
0000
0000
0000
0000
0000
0010
0000
0000
0000
0001
0000
0000
0000
1000
0000
0000
0000
0001
0000
0000
0000
0000
0000
0000
0000
0000
0101
0000
0000
0000
0000
0000
0000
0000
0000
0001
0000
0000
0100
0000
0000
,
0010
0000
0100
0000
0100
0000
0000
0000
0110
0000
0000
1010
0000
0000
1000
0001
,
0020
0000
0000
0130
1000
0001
0100
0010
1000
0010
0000
0000
,
0100
0000
0000
0000
0001
0000
0000
0000
0100
0000
0000
0000
0010
0000
0000
0000
0000
0000
0000
0000
0000
0000
0000
0000
0100
0000
0000
0010
0000
0000
1000
0000
0000
0001
0000
0000
0100
0000
0000
0010
0000
0000
1000
0000
0000
0001
0000
0000
,
0100
0010
1000
0001
1000
0000
0000
0000
0101
0000
0000
1010
0000
0000
0010
1000
,
0010
0100
0002
0000
1003
0100
0010
0100
,
1000
0010
0100
0001
0010
0100
0010
0001
,
1000
0001
0100
0010
2002
0000
0000
3003
,
0001
0000
0000
0000
0000
0000
0100
0000
0000
0000
0000
0000
1000
0000
0000
0000
0100
0000
0000
0000
0010
0000
0000
0000
0100
0000
0000
0000
0000
0000
0000
0000
0000
0100
0000
0000
0000
0000
0000
0000
0000
0000
0010
0000
0000
0100
0000
0000
,
0010
0000
1000
0000
0100
0000
0000
0000
1001
0000
0000
1000
0000
0000
1000
0100
,
0020
0000
0000
0030
0000
0000
0010
0000
0001
0000
0010
0000
0100
0000
1000
0000
0001
0000
0100
0000
0000
0000
0000
0000
,
0100
0000
0010
0000
1000
0000
0020
0000
0000
0000
0030
0000
0202
0000
0000
0000
0000
0000
0303
0000
0000
0100
0000
0000
,
1010
0000
0000
0000
0000
0000
0010
0000
0000
0000
0000
0000
0100
0000
0000
0000
0010
0000
0000
0000
1000
0000
0000
0000
0001
0000
0000
0000
0000
0000
0000
0000
0000
0001
0000
0000
0000
0000
0000
0000
0000
0000
0001
0000
0000
1000
0000
0000
,
0010
1000
0100
0000
0010
0001
0010
0100
,
1000
0100
0010
0001
1000
0010
0100
0010
,
0100
0001
0010
0100
1000
0000
0000
1000
,
0000
0000
0000
0000
0001
0000
0000
1000
,
0000
0001
0100
1000
0100
0000
0000
0100
,
0000
0000
0000
0000
0010
0000
0000
0010
,
0000
0000
0100
0000
0001
0000
0000
1000
,
0000
0000
0000
0000
1000
0000
0000
0100
,
0000
0010
0001
0010
0001
0000
0000
0010
,
0000
0000
0000
0000
0100
0000
0000
1000
,
0000
0000
1000
1100
,
1000
0010
0100
0000
0010
0000
0110
0000
,
0010
1000
0001
0000
0010
0000
0100
1000
,
0000
1000
0010
0000
0110
0000
0100
0010
,
0000
0100
0010
0000
1000
0000
0110
0000
,
0010
1000
0010
1000
0010
0000
0110
0000
,
0001
0100
0001
0100
0001
0000
0001
0100
,
0000
0010
1000
0000
1000
0100
0000
0010
,
0001
0000
0010
0000
0001
0100
0010
1000
,
0100
0010
0100
1000
0001
0100
0001
0010
,
0100
1000
0100
0010
0100
1000
0001
0100
,
0001
0000
0010
0000
0100
0000
1000
0000
0001
0100
0001
0100
0001
0100
0001
0100
,
0020
0000
0130
0010
1000
1000
0100
0001
,
0100
0000
0000
0010
0000
0000
0001
0000
0010
0000
0001
0000
0100
0000
0000
0010
0000
0000
0100
0000
0001
0000
1000
0000
,
0002
0000
1003
0001
0100
1000
0200
0000
,
0310
0000
1000
0000
0010
0000
1000
0000
0100
0000
0010
0000
0001
0000
0000
0010
0000
0000
0001
0000
0010
0000
0100
0000
,
2000
0000
3002
0100
0203
0010
0320
1000
,
1030
0000
0000
0001
0000
0000
0100
0000
0000
0000
0000
0000
0010
0000
0000
0000
0000
0000
0100
0000
0000
0000
0000
0000
0001
0000
0000
0000
0000
0000
1000
0000
0000
0000
0000
0000
0001
0000
0000
0000
0010
0000
0000
0000
0100
0000
0000
0000
,
1000
0000
0001
1000
0100
1000
0001
0100
,
0001
0010
0001
1000
0010
1000
0001
0010
,
0100
1000
1001
0000
1000
0100
0000
0100
,
0010
0000
0010
0000
0100
0010
0000
0100
,
1000
0001
0100
0000
0010
1000
0000
0010
,
0100
0000
0010
0000
1000
0100
0000
0100
,
0010
0001
0010
0000
0001
0100
0000
0100
,
0010
0000
0100
0000
0010
1000
0000
0010
,
0100
0100
0010
0000
0100
0001
0000
0001
,
1000
0000
0100
0000
1000
0100
0000
0010
,
0001
0000
0001
0100
0010
1000
0001
0010
,
0100
0000
0100
0010
0001
0100
0010
1000
,
0100
0001
0100
1000
0010
0100
0001
1000
,
0001
0000
0001
0010
0100
0010
0001
1000
,
0100
0010
0001
1000
0001
0010
0100
1000
,
0100
0010
0100
1000
0001
1000
0001
0010
,
0100
1000
1010
1000
1100
0100
0110
0010
,
0011
0000
0001
0000
1001
0000
0000
0000
0000
0000
0000
0000
1000
0010
0100
0001
,
0010
0100
1000
0100
0000
0000
0000
0000
0000
0000
0000
0000
0000
0000
0000
0000
;

//---------------dance-single - ----------------
#NOTES:
     dance-single:
     :
     Medium:
     8:
     0.487193,0.552303,0.276943,0.276943,0.000000,361.000000,35.000000,35.000000,0.000000,0.000000,0.000000,0.487193,0.552303,0.276943,0.276943,0.000000,361.000000,35.000000,35.000000,0.000000,0.000000,0.000000:
1000
0000
0000
1000
0000
0000
2000
0000
,
0000
0000
0000
3000
,
0001
0000
0000
0001
0000
0000
0002
0000
,
0000
0000
0000
0003
,
0100
0000
0000
0100
0000
0000
0200
0000
,
0000
0000
0000
0300
,
0010
0000
0000
0010
0000
0000
0020
0000
,
0000
0000
0000
0000
0130
0010
1000
0000
,
0001
0000
0000
1000
0000
0000
0020
0000
,
0000
0000
0000
0030
,
0100
0000
0000
0001
0000
0000
0020
0000
,
0000
0000
0000
0030
,
0010
0100
1000
0001
,
0100
0010
0100
0001
,
1000
0000
0001
0100
0010
0000
0110
0000
,
0010
0000
0100
0010
1000
0000
0001
0000
,
1001
0000
0001
1000
0010
0000
0100
0001
,
0010
0000
0100
1000
0010
0000
0100
0010
,
1000
0001
0100
0001
1000
0100
1000
0001
,
0100
0000
0000
0000
0110
0000
0000
0010
,
1000
0010
0100
0000
0010
0000
1001
0000
,
0001
0010
0100
0000
0100
0000
1000
0010
,
0100
0000
0010
1000
0001
0001
0100
0000
,
0100
0100
0010
0000
1001
0000
0000
0010
,
1001
0000
0001
0001
0100
0000
0010
0000
,
0100
0001
1000
0000
2000
0000
0000
3200
,
0000
0020
0000
0000
,
0000
0330
0100
0000
,
0100
0100
0010
0001
0010
0000
0001
0000
,
0001
0010
1000
0000
0010
0100
0100
1000
,
0010
0100
0001
0010
1000
0010
0100
0000
,
0100
0010
0001
0000
2002
0000
0000
0000
,
0000
3003
0110
0000
1001
0000
0110
0000
,
0001
0100
0010
0000
0200
0000
0000
0302
,
0000
2000
0000
0000
,
0000
0000
3003
0000
0202
0000
0000
0303
,
0001
0001
0100
0010
1000
0000
0010
0000
,
0100
0001
1000
0000
1000
0100
0001
0100
,
0010
0001
0010
1000
0010
0100
1000
0000
,
1000
0100
0010
0000
2200
0000
0000
3300
,
1000
1000
0100
0100
1000
0000
0010
0000
,
0100
0001
1000
0000
0002
0000
0000
0023
,
0000
0200
0000
0000
,
0000
0000
0330
0000
0001
0000
0000
1000
,
0000
0000
0000
0000
0010
0000
0000
0100
,
0000
0001
0100
0010
0100
0000
0000
0100
,
0000
0000
0000
0000
0001
0000
0000
0001
,
0000
1000
1001
0001
,
1000
0100
0001
1000
,
0010
0000
0100
0010
0100
0000
0010
0000
,
1000
0001
0010
0100
,
1000
0000
0100
0000
0010
0010
0001
0000
,
0010
0000
0100
0000
1000
1000
0100
0000
,
1000
0000
0010
0000
0100
0100
0010
0000
,
0100
0000
0001
0000
1000
0000
0001
0100
,
0000
1000
0100
0000
1000
0000
1100
0000
,
1000
0100
0010
0001
0010
0000
0011
0000
,
0001
0010
0100
1000
0100
0000
0000
0010
,
0000
0000
0001
0000
0000
0100
0000
0000
,
0010
0000
0100
0000
0001
0000
0000
1000
,
0000
0000
0010
0000
0000
0100
0000
0000
,
0001
0000
0000
1000
0000
0000
0100
0000
,
0010
0000
0001
0000
0001
0010
0100
1000
,
1001
0000
0001
0100
0010
0000
0100
0010
,
0110
0000
0010
0010
0100
0001
1000
0100
,
0110
0000
0100
1000
0010
0100
0010
0000
,
0100
0100
0001
1000
1100
0000
1000
0001
,
0101
1001
0110
1001
,
0110
0000
0100
0100
0100
0010
0010
0010
,
1001
0000
0102
0000
0000
0100
0000
0000
,
0200
0000
0000
0000
0000
0000
0000
0303
,
0000
0000
0210
0000
0000
0310
0000
0000
,
0000
0000
1002
0000
0000
1003
0000
1000
,
0100
0010
0021
0000
0000
0031
0000
0000
,
0000
0000
0012
0000
0000
0103
0000
1000
,
0100
0000
2100
0000
0000
3010
0000
0000
,
0000
0000
0210
0000
0000
0301
0000
0001
,
0010
0100
2100
0000
0000
3100
0000
0000
,
0000
0000
0120
0000
0000
0130
0000
0000
,
1000
0000
1001
0000
0001
0100
0000
0100
,
0010
0000
0100
0000
0010
1000
0000
1000
,
0100
0001
0100
0000
0100
0010
0000
0010
,
0001
0000
0001
0000
0001
0100
0000
0100
,
0010
0000
0100
0010
1000
0000
0001
0010
,
0100
0000
0100
0010
0001
0000
0001
0100
,
0010
0000
0100
0001
1000
0010
1000
0100
,
0010
0001
0010
1000
0010
0100
2000
3200
,
0320
0230
0300
0000
0000
0000
0000
0000
;

//---------------dance-single - ----------------
#NOTES:
     dance-single:
     :
     Easy:
     6:
     0.360591,0.517042,0.126602,0.237379,0.000000,273.000000,16.000000,30.000000,0.000000,0.000000,0.000000,0.360591,0.517042,0.126602,0.237379,0.000000,273.000000,16.000000,30.000000,0.000000,0.000000,0.000000:
1000
0000
0000
0001
0000
0000
0200
0000
,
0000
0000
0000
0300
,
0001
0000
0000
1000
0000
0000
2000
0000
,
0000
0000
3000
0000
,
0010
0000
0000
1000
0000
0000
0020
0000
,
0000
0000
0030
0000
,
0100
0000
0000
0001
0000
0000
0020
0000
,
0000
0000
0030
0000
,
0100
0000
0000
0100
0000
0000
0200
0000
,
0000
0000
0000
0000
,
0010
0000
0000
0010
0000
0000
0020
0000
,
0000
0000
0000
0330
,
0010
0001
1000
0010
,
1000
0010
0100
0001
,
1000
0000
0000
1000
0000
0000
0001
0000
,
0000
1000
0000
0000
0010
0000
0100
0000
,
0001
0001
1000
1000
,
0100
0100
0010
0010
,
0011
1100
0101
1010
,
2002
3003
1002
0000
,
1003
0100
0010
0100
,
1000
0100
1000
0000
0100
0000
0010
0000
,
0001
0000
0010
0000
0100
0010
0100
0000
,
0010
0100
0010
0000
0011
0000
0000
0000
,
0001
0000
0100
0010
0100
0000
0010
0000
,
1000
0010
1000
0000
2000
0000
0000
0100
,
0000
0200
0000
0000
,
0000
3300
0101
0000
,
0001
1000
0010
0100
,
0001
0100
0001
0000
0001
0000
0100
0000
,
0020
0000
0130
0000
0001
1000
0010
0000
,
1000
0010
0100
0000
0020
0000
0000
0000
,
0000
0030
0100
0010
,
1000
0000
0002
0000
1003
0000
0000
0100
,
0000
0020
0000
0000
,
0000
0000
0030
0000
2002
0000
0000
3003
,
0001
0100
0010
1000
,
0010
1000
0010
0000
0100
0000
0001
0000
,
1001
0000
0001
0000
0001
0010
0100
0000
,
0010
0100
1000
0000
2200
0000
3300
0000
,
1000
0100
0100
1000
,
0010
0100
0001
0000
2000
0000
0000
3002
,
0000
0200
0000
0000
,
0000
0000
0303
0000
0001
0000
0000
0001
,
0000
0000
0000
0000
1000
0000
0000
1000
,
0000
0000
0010
0000
0100
0000
0000
0100
,
0000
0000
0000
0000
0010
0000
0000
0010
,
0000
0000
1000
0000
0002
0000
0000
1003
,
0000
0000
0000
0000
2000
0000
0000
3100
,
0000
0000
1000
0000
0010
0000
0000
0100
,
0000
0000
0000
0000
0010
0000
0000
0100
,
0000
0000
0002
0000
,
0000
0003
0200
0000
,
0300
0000
0000
0000
0020
0000
0000
0130
,
0000
0000
0000
0000
0200
0000
0000
0310
,
0000
0000
0010
1000
,
0100
1000
0010
0100
,
0001
0000
1000
0000
0001
0000
0000
0001
,
0000
0000
1000
0000
0000
1000
0000
0000
,
0010
0100
0010
1000
,
0010
0001
0010
0100
,
0010
1000
0001
0010
,
0100
0000
1000
0000
0001
0100
0001
0100
,
0001
0001
0100
0010
,
1000
0000
0010
0100
0001
0000
0001
0100
,
0010
1000
0010
0101
,
0001
0000
0001
0010
0100
0000
0010
0100
,
1000
1100
1100
1100
,
1100
0000
1000
0000
0010
0000
0100
0010
,
1000
0001
1000
0100
,
1000
0001
0100
0001
,
1000
0000
0001
0000
0000
0100
0000
0000
,
0000
0000
0010
0000
0000
0100
0000
0010
,
1000
0000
0010
0000
0000
0100
0000
0000
,
0000
0000
0010
0000
0000
1000
0000
0000
,
0100
0000
0010
0000
0000
0001
0000
0000
,
0000
0000
0001
0000
0000
0010
0000
0010
,
0100
1000
0100
0000
0000
0100
0000
0000
,
0000
0000
1000
0000
0000
0010
0000
0000
,
0100
0000
0001
0000
0001
0100
0000
0100
,
0020
0000
0000
0000
,
0030
0000
0010
0000
0010
1000
0000
1000
,
0200
0000
0000
0000
,
0300
1000
0100
0010
,
0001
0010
0100
1000
,
0001
1000
0010
0100
,
0001
0000
1000
0000
0000
0000
0001
0100
,
1000
0100
0000
0000
0000
0000
0000
0000
;

//---------------dance-single - ----------------
#NOTES:
     dance-single:
     :
     Beginner:
     3:
     0.179730,0.310244,0.110777,0.047476,0.000000,139.000000,14.000000,6.000000,0.000000,0.000000,0.000000,0.179730,0.310244,0.110777,0.047476,0.000000,139.000000,14.000000,6.000000,0.000000,0.000000,0.000000:
1000
0000
0000
0000
,
0000
0000
0000
0000
,
0001
0000
0000
0000
,
0000
0000
0000
0000
,
1000
0000
0000
0000
,
0000
0000
0000
0000
,
0001
0000
0000
0000
,
0000
0000
0000
0000
,
0100
0000
0000
0000
,
0100
0000
0000
0000
,
0010
0000
0000
0000
,
0010
0000
0000
0000
,
0100
0000
0000
0000
,
0001
0000
0000
0000
,
1000
0000
0000
0000
,
0001
0000
0000
0000
,
1000
0000
1000
0000
,
1000
0000
1000
0000
,
0001
0001
0001
0001
,
0001
0000
1001
0000
,
0010
0000
0100
0000
,
0010
0010
0100
0000
,
0001
0000
1000
0000
,
0001
0001
1001
0000
,
1000
0000
0010
0000
,
0100
0000
0020
0000
,
0000
0000
0000
0000
,
0000
0030
1001
0000
,
0001
0000
1000
1000
,
1000
0000
0010
0000
,
0110
0000
0100
0100
,
0100
0000
2002
0000
,
0000
3003
0001
0000
,
1001
0000
0001
0000
,
1000
0000
0010
0010
,
0010
0000
0110
0000
,
0010
0000
0100
0100
,
0100
0000
0001
0000
,
1000
0000
0100
0100
,
0100
0000
1001
0000
,
0001
0000
1000
1000
,
1000
0000
0020
0000
,
0000
0000
0000
0000
,
0000
0030
0100
0000
,
0000
0000
0100
0000
,
0000
0000
0001
0000
,
0000
0000
0001
0000
,
0000
0000
1000
0000
,
0000
0000
1000
0000
,
0000
0000
0001
0000
,
0000
0000
0001
0000
,
0000
0000
1001
0000
,
0000
0000
0010
0000
,
0000
0000
0100
0000
,
0000
0000
0100
0000
,
0000
0000
0010
0000
,
0000
0000
0010
0000
,
0000
0000
1000
0000
,
0000
0000
0001
0000
,
0000
0000
0100
0000
,
0010
0000
1000
0000
,
0001
0000
1000
1000
,
1000
1000
0002
0000
,
0003
1001
0000
0001
,
0000
0100
0100
0100
,
0000
0001
0000
1001
,
0000
1000
1000
1000
,
0100
1000
0000
0100
,
0000
1000
1000
1000
,
0000
0010
0000
0010
,
0000
0100
0000
0100
,
0000
1001
0000
0000
,
0000
0001
0000
0000
,
1000
1000
0000
0000
,
0000
0100
0000
0000
,
0000
1000
0000
0000
,
0000
0001
0000
0000
,
0001
0010
0000
0000
,
0000
0001
0000
0000
,
0000
0100
0000
0100
,
0000
0010
0000
0010
,
0000
0100
0000
0100
,
0000
0001
0000
0001
,
0000
1001
0000
0000
,
0000
0110
0000
0000
,
0000
0010
0000
0010
,
0000
0010
0000
0200
,
0000
0000
0000
0000
0000
0000
0000
0000
0000
0000
0000
0000
0000
0000
0000
0000
0000
0000
0000
0000
0000
0000
0000
0000
0000
0300
0000
0000
0000
0000
0000
0000
0000
0000
0000
0000
0000
0000
0000
0000
0000
0000
0000
0000
0000
0000
0000
0000
0000
0000
0000
0000
0000
0000
0000
0000
0000
0000
0000
0000
0000
0000
0000
0000
0000
0000
0000
0000
0000
0000
0000
0000
0000
0000
0000
0000
0000
0000
0000
0000
0000
0000
0000
0000
0000
0000
0000
0000
0000
0000
0000
0000
0000
0000
0000
0000
0000
0000
0000
0000
0000
0000
0000
0000
0000
0000
0000
0000
0000
0000
0000
0000
0000
0000
0000
0000
0000
0000
0000
0000
0000
0000
0000
0000
0000
0000
0000
0000
0000
0000
0000
0000
0000
0000
0000
0000
0000
0000
0000
0000
0000
0000
0000
0000
0000
0000
0000
0000
0000
0000
0000
0000
0000
0000
0000
0000
0000
0000
0000
0000
0000
0000
0000
0000
0000
0000
0000
0000
0000
0000
0000
0000
0000
0000
0000
0000
0000
0000
0000
0000
0000
0000
0000
0000
0000
0000
0000
0000
0000
0000
0000
0000
;

//---------------dance-single - ----------------
#NOTES:
     dance-single:
     :
     Challenge:
     12:
     0.896390,1.000000,0.474759,0.443108,0.763570,677.000000,60.000000,56.000000,0.000000,0.000000,0.000000,0.896390,1.000000,0.474759,0.443108,0.763570,677.000000,60.000000,56.000000,0.000000,0.000000,0.000000:
// measure 0
0101
0000
0001
0010
1100
0000
0011
0000
,  // measure 1
1001
0000
0000
0010
0000
0000
0100
0000
1001
0000
0000
0000
0000
0000
0000
0000
,  // measure 2
1010
0000
0010
0100
0101
0000
0011
0000
,  // measure 3
0110
0000
0000
1100
0000
0000
1000
0001
1001
0000
0000
0000
0000
0000
0000
0000
,  // measure 4
0101
0000
0100
0010
1010
0000
0011
0000
,  // measure 5
0110
0000
0000
1100
0000
0000
0110
0000
0010
0001
0010
0100
1000
0010
0100
0001
,  // measure 6
1000
0000
0001
0010
1100
0000
0011
0000
,  // measure 7
0101
0000
0000
1010
0000
0000
1000
0001
0020
0130
0020
0130
2000
0000
0000
0000
,  // measure 8
3002
0000
0000
0203
0000
0000
2000
0000
,  // measure 9
0000
0000
0000
3300
,  // measure 10
2000
0000
0000
3200
0000
0000
0020
0000
,  // measure 11
0000
0000
0000
0330
,  // measure 12
0110
0010
1000
0010
,  // measure 13
0110
0100
0001
0010
,  // measure 14
0110
0000
0010
0001
0000
0010
0100
0000
,  // measure 15
0100
1000
0000
1000
0100
0000
1000
0000
,  // measure 16
0001
0100
0010
1000
0001
0010
0100
0010
,  // measure 17
0001
0001
0100
0100
0010
1000
1000
0001
,  // measure 18
0001
0010
0100
1000
0100
0010
0001
0100
0010
1000
0001
1000
0100
0010
0001
0010
,  // measure 19
0100
0000
1000
0010
0202
0000
0303
0000
0101
0000
0021
0000
0000
0000
0130
0000
,  // measure 20
1000
0000
1000
0000
0001
1000
0100
0010
0001
0000
0000
0011
0000
0000
0010
0100
,  // measure 21
1000
0000
0010
0000
0200
0000
0000
0000
0310
0000
1000
0010
0000
0100
0001
0010
,  // measure 22
0200
0000
0000
0000
0000
0000
0310
0000
0000
0100
0000
0000
1000
0000
0000
0000
0001
0000
0000
0000
0100
0000
0000
0000
0010
0000
0000
0000
0100
0000
0000
0000
0001
0000
0000
0000
0010
0000
0000
0000
0100
0000
0000
0000
1000
0000
0000
0000
,  // measure 23
0010
0000
0100
0000
0001
0000
2000
0000
0000
0000
0000
0000
3001
0000
0000
1020
0000
0000
0000
0000
0000
0130
0000
0000
,  // measure 24
0001
0000
0000
0000
0000
0000
0010
0000
0000
0000
0000
0000
1000
0000
0000
0000
0010
0000
0000
0000
0001
0000
0000
0000
1000
0000
0000
0000
0000
0000
0000
0000
0000
0011
0000
0000
0000
0000
0000
0000
0000
0000
0001
0000
0000
0100
0000
0000
,  // measure 25
0010
0000
1000
0000
0001
0000
0000
0000
1000
0000
0010
0100
0010
0000
1000
0000
,  // measure 26
0001
0010
0001
0000
0100
0000
1000
0100
1000
0000
0010
0000
0001
0010
0001
0000
,  // measure 27
1000
0000
0001
0100
0010
1000
0100
0010
0002
0000
0000
0000
0000
0000
1003
0000
,  // measure 28
0010
0000
0000
0000
0000
0000
0010
0000
0000
0000
0000
0000
0100
0000
0000
0000
0100
0000
0000
0000
0010
0000
0000
0000
0100
0000
0000
0000
0000
0000
0000
0000
0000
1001
0000
0000
0000
0000
0000
0000
0000
0000
0001
0000
0000
0010
0000
0000
,  // measure 29
0100
0000
1000
0000
0020
0000
0000
0000
0130
0000
0001
0100
0000
0100
0010
1000
,  // measure 30
0002
0000
0000
0000
0000
0000
0013
0000
0100
0000
0010
0000
0100
0000
1000
0000
0100
0000
0010
0000
0000
0001
0000
0000
,  // measure 31
0010
0000
0000
0000
0100
0000
0000
0000
1000
0000
0000
0000
0002
0000
0000
0000
0000
0000
0003
0000
0000
0000
0000
0000
1000
0000
0000
0010
0000
0000
1000
0000
0000
0010
0000
0000
1000
0000
0000
0010
0000
0000
1000
0000
0000
0010
0000
0000
,  // measure 32
1000
0000
0010
0000
1000
0000
0010
0000
1000
0000
0010
0000
1000
0000
0000
0000
0000
0000
0001
0000
0000
0000
0000
0000
0011
0000
0000
0000
0000
0000
0000
0000
0000
0011
0000
0000
0000
0000
0000
0000
0000
0000
0010
0000
0000
0100
0000
0000
,  // measure 33
1100
0000
1000
0000
0002
0000
0000
0000
1003
0000
0001
0100
0001
0000
0100
0000
,  // measure 34
0010
1000
0010
0000
0100
0000
0001
0010
0001
0000
0010
0000
0100
1000
0100
0000
,  // measure 35
0010
0000
0001
0010
0100
1000
0010
0000
2002
0000
0000
0000
0000
0000
3003
0000
,  // measure 36
0001
0000
0000
0000
0000
0000
0100
0000
0000
0000
0000
0000
1000
0000
0000
0000
0100
0000
0000
0000
0001
0000
0000
0000
1000
0000
0000
0000
0000
0000
0000
0000
0000
0101
0000
0000
0000
0000
0000
0000
0000
0000
0001
0000
0000
0100
0000
0000
,  // measure 37
0010
0000
1000
0000
0002
0000
0000
0000
1003
0000
0100
0010
0000
0010
0001
1000
,  // measure 38
0020
0000
0000
0000
0000
0000
0130
0000
0001
0000
0100
0000
0001
0000
0010
0000
0100
0000
1000
0000
0000
0001
0000
0000
,  // measure 39
1000
0010
0100
0001
0000
0000
2002
0000
0000
0000
3003
0000
,  // measure 40
1000
0000
0000
0000
0000
0000
0010
0000
0000
0000
0000
0000
0100
0000
0000
0000
0010
0000
0000
0000
1000
0000
0000
0000
0001
0000
0000
0000
0000
0000
0000
0000
0000
1100
0000
0000
0000
0000
0000
0000
0000
0000
0100
0000
0000
0010
0000
0000
,  // measure 41
0001
0000
1000
0000
0200
0000
0000
0000
0310
0000
0001
0100
0010
0000
1000
0000
,  // measure 42
0010
0100
0001
0000
1000
0000
0010
0100
1000
0000
0100
0000
0010
1000
0001
0000
,  // measure 43
0010
0100
1000
0010
0100
0001
0010
0100
1000
0000
0000
0000
0000
0000
0001
0000
,  // measure 44
0000
0000
0000
0000
0100
0000
0000
0010
,  // measure 45
0000
0000
0100
0001
1000
0010
1000
0001
0010
0000
0000
0000
0000
0000
0100
0000
,  // measure 46
0000
0000
0000
0000
0010
0000
0000
0100
,  // measure 47
0000
0000
1000
0000
1001
0000
0000
0101
,  // measure 48
0000
0000
0000
0000
1001
0000
0000
1100
,  // measure 49
0000
0000
0100
0010
0001
0100
0010
1000
0001
0000
0000
0000
0000
0000
1100
0000
,  // measure 50
0000
2002
0000
0000
,  // measure 51
0000
0000
0000
0000
3003
0000
0000
0000
0001
0000
0100
0010
1000
0000
0010
0000
,  // measure 52
0100
0010
1000
0000
0001
0000
0010
0000
0100
1000
0100
0000
0010
0000
0001
0100
,  // measure 53
0010
0000
0010
0001
1000
0010
0100
0001
1000
0000
0010
0100
0001
0000
0100
0000
,  // measure 54
0010
0100
0001
0000
1000
0000
0100
0000
0010
0001
0010
0000
0100
0000
1000
0010
,  // measure 55
0100
0000
0100
1000
0001
0100
0010
1000
0001
0000
0000
0000
0101
0000
0000
0000
,  // measure 56
0001
0001
0100
0100
0010
0000
1010
0000
,  // measure 57
1000
1000
0010
0010
0110
0000
0010
0000
,  // measure 58
0100
0100
0010
0010
1000
0000
1001
0000
,  // measure 59
0001
0001
0010
0010
0200
0000
0000
0020
,  // measure 60
0000
0000
0000
0300
0002
0000
0000
0000
0000
0030
2000
0000
0000
0000
0000
0003
,  // measure 61
0020
0000
0000
0000
0000
0000
0000
0000
0000
0000
0000
0000
0000
0000
0000
3000
0000
0000
0200
0000
0000
0000
0000
0000
0000
0000
0000
0030
0000
0000
0020
0000
0000
0000
0000
0000
0000
0000
0000
0300
2000
0000
0000
0000
0030
0000
0000
0000
,  // measure 62
0002
0000
0000
0000
3000
0000
0000
0000
0020
0000
0000
0000
0003
0000
0000
0000
0200
0000
0000
0000
0030
0000
0000
0000
2300
0000
0000
3200
0000
0000
0320
0000
0000
0032
0000
0000
2003
0000
0000
3200
0000
0000
0320
0000
0000
0032
0000
0000
,  // measure 63
2000
3003
0000
0000
0120
0000
0000
0000
0100
0000
0000
0000
0130
0001
0010
0000
,  // measure 64
0100
0000
0000
1000
0000
0000
0010
0000
0000
1000
0000
0000
0001
0000
0000
0000
0000
0000
1000
0000
0000
0000
0000
0000
0010
0000
0000
0000
0000
0000
1000
0000
0000
0000
0000
0000
0001
0000
0000
0000
0010
0000
0000
0000
0100
0000
0000
0000
,  // measure 65
2000
0000
0000
0000
3100
0010
0100
0000
0010
0001
0010
0000
0001
0000
0100
0000
,  // measure 66
1000
0000
0000
0100
0000
0000
0010
0000
0000
1000
0000
0000
0001
0000
0000
0000
0010
0000
0000
0000
0100
0000
0000
0000
1000
0000
0000
0000
0010
0000
0000
0000
0001
0000
0000
0000
0100
0000
0000
0000
1000
0000
0000
0000
0100
0000
0000
0000
,  // measure 67
0020
0000
0000
0000
0030
0000
0102
0000
0000
0000
0000
0000
0013
0000
0000
0000
0000
0000
2010
0000
0000
0010
0000
0000
,  // measure 68
3010
0100
1000
0001
1000
0010
0100
0010
1000
0001
0010
0100
,  // measure 69
2000
0000
3001
0100
0010
1000
0100
0010
,  // measure 70
0001
0000
0010
0000
0100
0000
1000
0000
0010
0000
0100
0000
0001
0100
0010
1000
,  // measure 71
0001
0100
0010
1000
0001
0000
0000
0000
1100
0000
0000
0000
0100
0000
0010
0000
,  // measure 72
0001
0000
1000
0000
1010
0000
0000
0000
0101
0000
0000
0000
0110
0000
0000
0100
,  // measure 73
0001
0000
0010
0000
0110
0000
0000
0000
1100
0000
0000
0000
0100
0010
0000
0010
,  // measure 74
0001
0000
1000
0001
0100
0000
0000
0000
0110
0000
0000
0000
0100
0010
0000
0100
,  // measure 75
0010
1000
1001
1000
0100
0010
0001
0100
,  // measure 76
0101
0000
0000
0000
0100
0000
0010
0000
1000
0000
0001
0000
0010
0000
0100
1000
,  // measure 77
0010
1000
0100
0010
0001
0000
0010
0000
0100
0000
1000
0000
0010
0000
0100
0001
,  // measure 78
0000
0100
0010
0000
0100
0010
1000
0000
0001
0000
1000
0000
0100
0010
0001
0100
,  // measure 79
0010
1000
0001
0010
0100
0000
0010
0000
0001
0000
0100
0000
0010
0000
1000
0000
,  // measure 80
0001
0000
0010
0000
0100
0000
1000
0000
0010
0000
0100
0000
0001
0000
0010
0100
,  // measure 81
1000
0100
0010
0001
0010
0000
0001
0000
1000
0000
0100
0000
0010
0000
0001
0000
,  // measure 82
0100
0000
0010
0000
1000
0000
0001
0000
0010
0000
0100
0000
0010
0001
0000
0100
,  // measure 83
1000
0010
0100
0100
0010
0010
1000
1000
,  // measure 84
0001
0001
0010
0010
0100
0100
1000
1000
,  // measure 85
0001
0000
0001
0000
0100
0010
1000
0001
0010
0100
1000
0100
0010
0001
0100
0010
,  // measure 86
1000
0001
0010
0001
0010
0100
0010
0100
1000
0100
1000
0010
0100
0001
0010
1000
,  // measure 87
0010
0001
1000
0010
0000
0000
0000
0000
0000
0000
0000
0000
0000
0000
0000
0000
;
