#TITLE:White Eve;
#SUBTITLE:;
#ARTIST:Sana;
#TITLETRANSLIT:;
#SUBTITLETRANSLIT:;
#ARTISTTRANSLIT:;
#CREDIT:;
#BANNER:White Eve.png;
#BACKGROUND:White Eve-background.png;
#JACKET:White Eve-jacket.png;
#LYRICSPATH:;
#CDTITLE:cdtitle.png;
#MUSIC:White Eve.mp3;
#OFFSET:-0.967;
#SAMPLESTART:0.480;
#SAMPLELENGTH:12.000;
#SELECTABLE:YES;
#BPMS:0.000=125.000;
#STOPS:;
#BGCHANGES:;

//---------------dance-single - ----------------
#NOTES:
     dance-single:
     :
     Hard:
     6:
     0.329,0.354,0.035,0.168,0.000:
0000
0000
0000
0000
,
0000
0000
0000
0000
,
0000
0000
0000
0000
,
0000
0000
0000
0000
0000
0000
1000
0100
,
1000
0000
0000
0001
0100
0000
0000
0010
,
1000
0000
0000
0010
0100
0000
0010
1000
,
0001
1000
1000
0001
,
0100
0000
0001
0000
0001
0000
0100
0010
,
1000
0000
0000
0100
0010
0000
0000
0100
,
1000
0000
0000
0100
0010
0000
0000
0100
,
1000
0000
0000
1000
0010
0000
0000
0100
,
0001
1000
0001
1000
0000
0000
1000
0100
,
0010
0000
0000
0100
1000
0000
0000
0001
,
0100
0000
0000
0001
0010
0000
0000
0100
,
1000
0000
0000
0000
,
0202
0000
0000
0303
,
0020
0000
0000
0030
,
0001
1000
0100
1000
0001
0100
0001
0010
,
0200
0000
0300
0000
0010
0001
1000
0010
,
2000
0000
0000
0000
3000
0000
0001
0100
,
0010
0200
0000
0000
0000
0000
0310
1000
,
0001
0020
0000
0000
0000
0030
0000
0100
,
1000
0000
0000
0000
0000
0001
0000
0020
,
0200
0000
0000
0330
,
1001
0000
0010
0100
0001
0000
1000
0001
,
0000
1000
0000
0010
0000
0000
0000
0100
,
0001
0000
0001
0010
0000
0000
0000
0010
,
0100
1000
0001
0100
0001
1000
0100
0010
,
0001
0010
0100
1000
0001
0000
0001
1000
,
0000
1000
0000
1000
0000
0000
0000
0000
,
0010
0000
0100
0001
0000
0010
0000
0100
,
1000
0100
0010
0001
0010
0100
1000
0001
,
0100
0000
0100
0000
0100
0010
1000
0001
,
0010
0000
0010
0100
0010
0100
1000
0100
,
0010
0000
0100
0010
0001
1000
0001
0100
,
0001
0000
1000
0020
0000
1000
0000
1000
,
0030
0000
0000
0100
0010
1000
0010
1000
,
0010
0000
0000
0100
0001
0010
0001
0010
,
0001
0000
0000
0001
1000
0100
1000
0100
,
0010
0000
0001
0100
0000
0000
0000
0000
,
1001
0000
0000
0000
0000
0000
0001
0100
,
1000
0000
0000
0100
0100
0000
0000
0010
,
1000
0000
0000
0100
0100
0000
0000
0100
,
0010
0000
0000
0001
0001
0000
0000
0001
,
1000
0100
1000
0100
0000
0000
1000
0010
,
0001
0000
0000
0010
0010
0000
0000
0010
,
0100
0000
0000
0100
1000
0000
1000
0001
,
0200
0001
0010
1000
,
0010
0000
0001
0000
0310
0000
0010
0100
,
0002
0000
0000
1000
1003
0000
0000
1000
,
0020
0000
0000
0100
0130
0000
0000
0100
,
0002
0000
0000
0010
0013
0000
0000
0010
,
0100
1000
0100
0001
0000
0000
0001
0100
,
0020
0000
0000
0100
0130
0000
0000
0100
,
2000
0000
0000
3010
0200
0000
0000
0301
,
1000
0100
0001
0100
,
1000
0000
0010
0000
0100
0000
0001
2002
,
0000
0000
0000
3003
0000
0000
0000
0000
;

//---------------dance-single - ----------------
#NOTES:
     dance-single:
     :
     Medium:
     4:
     0.252,0.301,0.106,0.194,0.000:
0000
0000
0000
0000
,
0000
0000
0000
0000
,
0000
0000
0000
0000
,
0000
0000
0000
0000
,
1000
0000
0000
0001
0100
0000
0000
0100
,
0010
0000
0000
0010
1000
0000
1000
0100
,
0020
0000
0000
0000
,
0030
0000
0000
0000
0000
0000
0100
0010
,
0001
0000
0000
0000
1001
0000
0000
0001
,
0100
0000
0000
0000
0110
0000
0000
0010
,
1000
0000
0000
0000
1010
0000
0000
1000
,
0100
0010
0100
0010
0000
0000
0010
0001
,
0010
0000
0100
0000
,
1000
0000
0000
0000
0001
0000
0100
0010
,
2000
0000
0000
0000
,
0002
0000
0000
3003
,
0020
0000
0000
0030
,
0100
0001
1000
0100
,
2000
0000
0000
0000
3100
1000
0010
0100
,
0002
0000
0000
1003
,
0001
0200
0000
0000
0300
0000
0001
0000
,
1000
0200
0000
0000
0000
0000
0300
0000
,
0020
0000
0000
0130
,
1001
0000
0000
0000
,
0001
0100
0001
1000
,
0100
1000
0010
0100
,
0001
0100
0010
0100
,
0001
0000
1000
0000
0100
0010
0100
0010
,
0100
1000
0010
0001
,
0100
0001
0010
0100
,
0010
0001
1000
0010
,
0100
0001
0010
0000
0100
1000
0010
0000
,
1001
1001
1001
0001
,
1000
0100
1000
0010
,
0100
0001
0010
0001
,
1000
0001
0100
0001
,
0110
0110
0110
0010
,
0100
0010
0001
1000
,
0010
1000
0100
0001
,
0100
1000
0010
0100
,
2002
0000
0000
3003
,
0020
0000
0130
0000
,
0200
0000
0301
0000
,
0002
0000
1003
0000
,
1000
0100
0010
0001
0000
0000
0001
1000
,
0200
0000
1300
0000
,
2000
0000
3010
0000
,
0020
0000
0000
0000
,
0200
0000
0000
0000
0330
0000
0100
0010
,
2000
0000
0001
0000
,
0100
0000
3010
0000
,
0002
0000
0100
0000
,
0013
0001
0010
0100
0000
0000
0100
0010
,
0002
0000
1000
0000
,
0100
0000
0010
0000
,
0023
0000
0000
0030
,
0010
0000
0001
0000
1000
0000
0010
1001
;

//---------------dance-single - ----------------
#NOTES:
     dance-single:
     :
     Easy:
     2:
     0.178,0.251,0.071,0.079,0.000:
0000
0000
0000
0000
,
0000
0000
0000
0000
,
0000
0000
0000
0000
,
0000
0000
0000
0000
,
1000
0000
0001
0000
,
0100
0000
0001
1000
,
1000
0000
0000
0000
,
1001
0000
0000
0010
,
0100
0000
0001
0000
,
1000
0000
0100
0000
,
1000
0000
0001
0000
,
0100
0100
0000
0010
,
1000
0000
0010
0000
,
0100
0000
0001
0000
,
1000
0000
0000
0000
,
0000
0000
0000
0000
,
0200
0000
0000
0300
,
1000
0001
0100
0001
,
2000
0000
3001
1000
,
0200
0000
0300
0100
,
0020
0000
0030
0001
,
0020
0000
0000
0030
,
0002
0000
0000
1000
,
2000
0000
0000
3003
,
1001
0000
0001
0100
,
0001
0000
1000
0100
,
1000
0000
0010
0000
,
0100
1000
0010
0001
,
0010
0000
0100
0001
,
1000
0000
1000
0001
,
0010
0000
0100
0000
,
0010
0010
0001
0001
,
1001
0000
0001
1000
,
0010
0000
1000
0001
,
0010
0000
0001
1000
,
0010
0100
0010
1000
,
1001
1001
0001
1000
,
0100
0000
1000
0001
,
0100
0000
0001
1000
,
0100
0100
0000
0000
,
0220
0000
0000
0330
,
1001
0000
0001
0000
,
1000
0000
0010
0000
,
0100
0000
0010
0000
,
1000
1000
1000
0000
,
0001
0000
0100
0000
,
0001
0000
1000
0000
,
0100
1000
0010
0001
,
0010
0100
0001
1000
,
0001
0000
1000
0000
,
0100
0000
1000
0000
,
0010
0000
0100
0000
,
0001
0001
0000
1000
,
0100
0000
0010
0000
,
0100
0000
1000
0000
,
0001
0000
0000
0000
,
0000
0000
0000
0000
0000
0000
0000
0110
;

//---------------dance-single - ----------------
#NOTES:
     dance-single:
     :
     Beginner:
     1:
     0.095,0.151,0.071,0.000,0.000: // measure 1
0000
0000
0000
0000
,  // measure 2
0000
0000
0000
0000
,  // measure 3
0000
0000
0000
0000
,  // measure 4
0000
0000
0000
0000
,  // measure 5
0001
0000
0000
0000
,  // measure 6
1000
0000
0000
0000
,  // measure 7
0100
0000
0000
0000
,  // measure 8
0000
0000
0000
1000
,  // measure 9
1000
0000
0000
0000
,  // measure 10
0001
0000
0000
0000
,  // measure 11
0100
0000
0000
0000
,  // measure 12
0001
0000
0000
0000
,  // measure 13
1000
0000
0000
0000
,  // measure 14
0001
0000
0000
0000
,  // measure 15
0100
0000
0000
0000
,  // measure 16
0000
0000
0000
0000
,  // measure 17
1001
0000
0000
0000
,  // measure 18
0010
0000
0010
0000
,  // measure 19
0100
0000
0001
0001
,  // measure 20
0001
0000
0000
0000
,  // measure 21
1001
0000
0000
0000
,  // measure 22
0110
0000
0000
0000
,  // measure 23
0010
0000
0000
0000
,  // measure 24
0100
0000
0000
0000
,  // measure 25
0001
0000
0000
0000
,  // measure 26
1000
0000
0000
0000
,  // measure 27
0001
0000
0100
0000
,  // measure 28
0001
0000
1000
0000
,  // measure 29
0100
0000
0000
0000
,  // measure 30
1000
0000
0000
0000
,  // measure 31
0001
0000
0100
0000
,  // measure 32
0001
0000
0000
1000
,  // measure 33
1001
0000
0001
0000
,  // measure 34
0001
0000
1000
0000
,  // measure 35
1000
0000
0001
0000
,  // measure 36
0001
0000
0000
0000
,  // measure 37
0100
1001
0000
0000
,  // measure 38
0001
0000
1000
0000
,  // measure 39
0001
0000
0100
0000
,  // measure 40
0010
0000
0000
0000
,  // measure 41
0110
0000
0000
0000
,  // measure 42
0100
0000
0000
0000
,  // measure 43
0001
0000
0000
0000
,  // measure 44
1000
0000
0000
0000
,  // measure 45
0100
0100
0000
0000
,  // measure 46
0010
0000
0000
0000
,  // measure 47
0100
0000
0000
0000
,  // measure 48
1000
0000
0000
0000
,  // measure 49
1001
0000
0000
0001
,  // measure 50
0001
0000
0000
0000
,  // measure 51
0100
0000
0000
0000
,  // measure 52
0001
0000
0000
0000
,  // measure 53
1000
0000
0000
0000
,  // measure 54
0100
0000
0000
0000
,  // measure 55
1000
0000
0000
0000
,  // measure 56
0010
0000
0000
0000
,  // measure 57
0000
0000
0000
0000
0000
0000
0000
1001
;
