#TITLE:Weekend;
#SUBTITLE:;
#ARTIST:Mirrored Theory;
#TITLETRANSLIT:;
#SUBTITLETRANSLIT:;
#ARTISTTRANSLIT:;
#GENRE:;
#CREDIT:;
#BANNER:Weekend.png;
#BACKGROUND:Weekend-bg.png;
#LYRICSPATH:;
#CDTITLE:cdtitle.png;
#MUSIC:Weekend.mp3;
#OFFSET:-11.212003;
#SAMPLESTART:22.500000;
#SAMPLELENGTH:12.000000;
#SELECTABLE:YES;
#BPMS:0.000000=170.000000
,284.000000=85.000000
,300.000000=170.000000
;
#STOPS:28.000000=0.176000,
28.500000=0.176000,
29.000000=0.176000,
29.500000=0.176000,
154.000000=0.176000,
154.500000=0.176000,
155.000000=0.176000,
155.500000=0.176000
;
#BGCHANGES:;
#KEYSOUNDS:;
#ATTACKS:;

//---------------dance-single - ----------------
#NOTES:
     dance-single:
     :
     Hard:
     11:
     0.851094,1.000000,0.643073,1.000000,0.358494,535.000000,87.000000,184.000000,0.000000,0.000000,0.000000,0.851094,1.000000,0.643073,1.000000,0.358494,535.000000,87.000000,184.000000,0.000000,0.000000,0.000000:
// measure 0
0102
0103
0010
2010
0000
0001
0000
3000
,  // measure 1
0120
0130
0010
2010
0000
0001
0000
3000
,  // measure 2
0021
0130
1000
1002
0000
0010
0000
0003
,  // measure 3
0011
0010
0110
2001
0000
0010
0000
0001
,  // measure 4
3100
1000
0010
0210
0000
0302
0000
0000
,  // measure 5
0013
1010
0010
0012
0000
1000
0000
0000
,  // measure 6
1003
0100
0001
0100
0010
0001
0100
1000
,  // measure 7
1100
0101
0011
1001
1020
0000
1000
0000
,  // measure 8
1000
0000
0000
0000
0000
0000
0000
0030
0020
0000
0000
0000
0000
0000
0000
0000
1000
0000
0000
0000
0000
0000
0000
0000
0000
0000
0000
0000
0000
0000
0000
0000
0100
0000
0000
0000
0000
0000
0000
0000
0000
0000
0000
0000
0000
0000
0000
0000
0001
0000
0000
0000
0000
0000
0000
0000
0000
0000
0000
0000
0000
0000
0000
0030
,  // measure 9
0020
0000
0230
0302
1000
0000
0100
0000
,  // measure 10
1000
0000
0000
0000
0000
0000
0000
0003
0002
0000
0000
0000
0000
0000
0000
0000
0010
0000
0000
0000
0000
0000
0000
0000
0000
0000
0000
0000
0000
0000
0000
0000
0023
0000
0000
0000
0000
0000
0000
0000
0000
0000
0000
0000
0000
0000
0000
0000
0001
0000
0000
0000
0000
0000
0000
0000
0000
0000
0000
0000
0000
0000
0000
0030
,  // measure 11
0120
0100
0100
0000
0230
0000
1000
0000
,  // measure 12
0010
0000
0000
0000
0000
0000
0000
0300
0200
0000
0000
0000
0000
0000
0000
0000
1000
0000
0000
0000
0000
0000
0000
0000
0000
0000
0000
0000
0000
0000
0000
0000
0302
0000
0000
0000
0000
0000
0000
0000
0000
0000
0000
0000
0000
0000
0000
0000
0100
0000
0000
0000
0000
0000
0000
0000
0000
0000
0000
0000
0000
0000
0000
0000
,  // measure 13
0100
0000
0000
0000
0010
0000
0000
0003
0002
0000
0000
0000
2003
0000
0000
0000
0010
0000
0000
0000
0000
0000
0000
0000
0010
0000
0000
0000
0000
0000
0000
0000
,  // measure 14
0001
0000
0000
0000
0000
0000
0000
0000
0001
0000
0000
0000
0000
0000
0000
3000
2001
0000
0000
0000
0000
0000
0000
0000
0000
0000
0000
0000
0000
0000
3000
0000
0120
0000
0000
0000
0000
0000
0000
0000
0000
0000
0000
0000
0000
0000
0000
0000
0100
0000
0000
0000
0000
0000
0000
0000
0000
0000
0000
0000
0000
0000
0000
0030
,  // measure 15
0210
0000
0000
0000
0000
0000
0000
0000
0000
0000
0000
0000
0000
0000
0000
0000
0010
0000
0000
0000
0000
0000
0000
0000
0000
0000
0000
0000
0000
0000
0000
0300
0201
0000
0000
0000
0000
0000
0000
0000
0000
0000
0000
0000
0000
0000
0000
0000
0001
0000
0000
0000
0000
0000
0000
0000
0000
0000
0000
0000
0000
0000
0000
0000
,  // measure 16
0001
0000
0000
0000
0000
0000
0000
0300
0200
0000
0000
0000
0000
0000
0000
0000
0001
0000
0000
0000
0000
0000
0000
0000
0000
0000
0000
0000
0000
0000
0000
0000
0010
0000
0000
0000
0000
0000
0000
0000
0000
0000
0000
0000
0000
0000
0000
0000
1000
0000
0000
0000
0000
0000
0000
0000
0000
0000
0000
0000
0000
0000
0000
0300
,  // measure 17
0200
0000
0320
2030
0001
0000
0010
0000
,  // measure 18
0001
0000
0000
0000
0000
0000
0000
3000
2000
0000
0000
0000
0000
0000
0000
0000
0100
0000
0000
0000
0000
0000
0000
0000
0000
0000
0000
0000
0000
0000
0000
0000
3200
0000
0000
0000
0000
0000
0000
0000
0000
0000
0000
0000
0000
0000
0000
0000
1000
0000
0000
0000
0000
0000
0000
0000
0000
0000
0000
0000
0000
0000
0000
0300
,  // measure 19
0210
0010
0010
0000
0320
0000
0001
0000
,  // measure 20
0100
0000
0000
0000
0000
0000
0000
0030
0020
0000
0000
0000
0000
0000
0000
0000
0001
0000
0000
0000
0000
0000
0000
0000
0000
0000
0000
0000
0000
0000
0000
0000
0230
0000
0000
0000
0000
0000
0000
0000
0000
0000
0000
0000
0000
0000
0000
0000
1000
0000
0000
0000
0000
0000
0000
0000
0000
0000
0000
0000
0000
0000
0000
0000
,  // measure 21
0001
0000
0000
0000
0000
0000
0000
0300
0200
0000
0000
0000
0000
0000
0000
0000
0010
0000
0000
0000
0000
0000
0000
0300
0200
0000
0000
0000
0000
0000
0000
0000
2300
0000
0000
0000
0000
0000
0000
0000
0000
0000
0000
0000
0000
0000
0000
3000
2001
3000
0000
0000
0000
0000
0000
0000
0000
0000
0000
0000
0000
0000
0000
0000
,  // measure 22
0000
0000
0000
0000
0000
0000
0000
0000
0220
0000
0000
0000
0000
0000
0000
0330
0220
0330
0000
0000
0000
0000
0000
0000
0000
0000
0000
0000
0000
0000
0000
0000
0102
0000
0000
0000
0000
0000
0000
0000
0000
0000
0000
0000
0000
0000
0000
0003
1002
0000
0000
0000
0000
0000
0000
0000
0000
0000
0000
0000
0000
0000
0000
0003
,  // measure 23
0012
0000
1000
0000
1003
0000
0000
0000
0001
0000
0100
0001
0100
0000
0010
0000
,  // measure 24
1000
0000
0000
0000
0000
0000
0000
0000
0010
0000
0000
0000
2000
0000
0000
0000
0000
0000
0000
0000
0010
0000
0000
3000
2000
0000
0000
0000
0000
0000
0000
0000
3001
0000
0000
0000
0000
0000
0000
0000
1000
0000
0000
0000
0100
0000
0000
0000
1000
0000
0000
0000
0000
0000
0000
0000
0010
0000
0000
0000
0000
0000
0000
0000
,  // measure 25
0100
0000
0000
0000
0000
0000
0000
0000
0001
0000
0000
0000
0200
0000
0000
0000
0000
0000
0000
0000
0001
0000
0000
0300
0200
0000
0000
0000
0000
0000
0000
0000
0310
0000
0000
0000
0000
0000
0000
0000
0100
0000
0000
0000
0001
0000
0000
0000
0100
0000
0000
0000
0000
0000
0000
0000
0001
0000
0000
0000
0000
0000
0000
0000
,  // measure 26
0010
0000
0100
0010
0000
0100
0010
0000
0200
1000
0310
0000
0100
0000
0110
0000
,  // measure 27
0020
1000
0031
0000
1000
0000
0001
0000
1000
0000
0010
1000
0010
0000
0100
0000
,  // measure 28
0001
0000
0000
0000
0000
0000
0000
0000
0100
0000
0000
0000
0002
0000
0000
0000
0000
0000
0000
0000
0100
0000
0000
0003
0002
0000
0000
0000
0000
0000
0000
0000
1003
0000
0000
0000
0000
0000
0000
0000
0001
0000
0000
0000
0010
0000
0000
0000
0001
0000
0000
0000
0000
0000
0000
0000
0100
0000
0000
0000
0000
0000
0000
0000
,  // measure 29
0010
0000
0000
0000
0000
0000
0000
0000
1000
0000
0000
0000
0020
0000
0000
0000
0000
0000
0000
0000
1000
0000
0000
0030
0020
0000
0000
0000
0000
0000
0000
0000
0130
0000
0000
0000
0000
0000
0000
0000
0010
0000
0000
0000
1000
0000
0000
0000
0010
0000
0000
0000
0000
0000
0000
0000
1000
0000
0000
0000
0000
0000
0000
0000
,  // measure 30
0100
0000
0010
0100
0000
0010
0100
0000
0020
0001
0130
0000
0010
0000
0110
0000
,  // measure 31
0200
0010
1300
0000
1001
0000
0000
0000
0101
0000
1010
0000
1001
0000
0101
0000
,  // measure 32
0000
0000
0010
0000
1001
0000
0000
0000
0101
0000
0100
0010
1000
0000
0010
0100
,  // measure 33
0001
0000
1000
0001
0000
0001
0100
0000
0010
0000
1000
0010
0100
0000
0100
0010
,  // measure 34
1000
0000
0001
0010
0000
0100
1000
0000
0001
0000
0100
0010
1000
0000
0001
0100
,  // measure 35
0010
0000
1000
0100
0000
0010
0001
0000
1000
0000
0001
0010
0100
0000
0010
0001
,  // measure 36
0100
0000
0010
1000
0000
0010
0100
0000
0010
0000
0100
0010
1000
0000
0001
1000
,  // measure 37
0100
0000
0010
0001
0000
0010
0100
0000
0010
0000
0001
0100
0010
0000
1000
0001
,  // measure 38
0100
0000
0010
0100
0000
0010
0100
0000
0101
0000
1100
0000
0101
0000
1100
0000
,  // measure 39
0201
0310
0102
1003
,  // measure 40
2100
0000
0000
3001
0000
0000
0001
0010
0100
1000
0000
0000
,  // measure 41
2001
0000
0000
3010
0000
0000
0100
0010
1000
0001
0000
0000
,  // measure 42
2100
0000
0000
0000
3010
0000
0000
0000
0001
0100
0010
0000
1001
0000
0000
0000
,  // measure 43
2001
3010
0200
0301
,  // measure 44
0021
0000
0000
0130
0000
0000
0010
0001
0100
1010
0000
0000
,  // measure 45
0210
0000
0000
0310
0000
0000
0100
0001
0010
1100
0000
0000
,  // measure 46
2001
0000
0000
0000
3100
0000
0000
0000
0100
0010
0001
0000
1010
0000
0000
0001
,  // measure 47
0200
0000
0000
0000
0000
0000
0000
0000
0000
0000
0000
0300
0100
0000
0000
0000
0020
0000
0000
0000
0000
0000
0000
0000
0000
0000
0000
0030
0010
0000
0000
0000
2000
0000
0000
0000
0000
0000
0000
0000
0000
0000
0000
3000
1000
0000
0000
0000
0200
0000
0000
0000
0000
0000
0000
0000
0000
0000
0000
0300
0100
0000
0000
0000
,  // measure 48
0020
0000
0000
0000
0000
0000
0000
0000
0000
0000
0000
0030
0010
0000
0000
0000
0002
0000
0000
0000
0000
0000
0000
0000
0000
0000
0000
0003
0001
0000
0000
0000
2000
0000
0000
0000
0000
0000
0000
0000
0000
0000
0000
3000
1000
0000
0000
0000
0020
0000
0000
0000
0000
0000
0000
0000
0000
0000
0000
0030
0010
0000
0000
0000
,  // measure 49
0200
0000
0000
0000
0000
0000
0000
0000
0000
0000
0000
0300
0100
0000
0000
0000
0002
0000
0000
0000
0000
0000
0000
0000
0000
0000
0000
0003
0001
0000
0000
0000
0020
0000
0000
0000
0000
0000
0000
0000
0000
0000
0000
0030
0010
0000
0000
0000
0200
0000
0000
0000
0000
0000
0000
0000
0000
0000
0000
0300
0100
0000
0000
0000
,  // measure 50
2000
0000
0000
0000
0000
0000
0000
0000
0000
0000
0000
3000
1000
0000
0000
0000
0002
0000
0000
0000
0000
0000
0000
0000
0000
0000
0000
0003
0001
0000
0000
0000
0200
0000
0000
0000
0000
0000
0000
0000
0000
0000
0000
0300
0100
0000
0000
0000
0020
0000
0000
0000
0000
0000
0000
0000
0000
0000
0000
0030
0010
0000
0000
0000
,  // measure 51
0200
0000
0000
0000
0000
0000
0000
0000
0000
0000
0000
0300
0100
0000
0000
0000
0020
0000
0000
0000
0000
0000
0000
0000
0000
0000
0000
0030
0010
0000
0000
0000
2000
0000
0000
0000
0000
0000
0000
0000
0000
0000
0000
3000
1000
0000
0000
0000
0200
0000
0000
0000
0000
0000
0000
0000
0000
0000
0000
0300
0100
0000
0000
0000
,  // measure 52
0020
0000
0000
0000
0000
0000
0000
0000
0000
0000
0000
0030
0010
0000
0000
0000
0002
0000
0000
0000
0000
0000
0000
0000
0000
0000
0000
0003
0001
0000
0000
0000
2000
0000
0000
0000
0000
0000
0000
0000
0000
0000
0000
3000
1000
0000
0000
0000
0020
0000
0000
0000
0000
0000
0000
0000
0000
0000
0000
0030
0010
0000
0000
0000
,  // measure 53
0200
0000
0000
0000
0000
0000
0000
0000
0000
0000
0000
0300
0100
0000
0000
0000
0002
0000
0000
0000
0000
0000
0000
0000
0000
0000
0000
0003
0001
0000
0000
0000
0020
0000
0000
0000
0000
0000
0000
0000
0000
0000
0000
0030
0010
0000
0000
0000
0200
0000
0000
0000
0000
0000
0000
0000
0000
0000
0000
0300
0100
0000
0000
0000
,  // measure 54
2000
0000
0000
0000
0000
0000
0000
0000
0000
0000
0000
3000
1000
0000
0000
0000
0002
0000
0000
0000
0000
0000
0000
0000
0000
0000
0000
0003
0001
0000
0000
0000
0200
0000
0000
0000
0000
0000
0000
0000
0000
0000
0000
0300
0100
0000
0000
0000
0020
0000
0000
0000
0000
0000
0000
0000
0000
0000
0000
0030
0010
0000
0000
0000
,  // measure 55
2000
0000
0000
0000
0000
0000
0000
0000
0001
0000
0000
0000
0000
0000
0000
3000
2000
0000
0000
0000
0000
0000
0000
0000
0010
0000
0000
0000
0000
0000
0000
3000
2000
0000
0000
0000
0000
0000
0000
0000
0001
0000
0000
0000
0000
0000
0000
3000
2000
0000
0000
0000
0000
0000
0000
0000
0010
0000
0000
0000
0000
0000
0000
3000
,  // measure 56
0200
0000
0000
0000
0000
0000
0000
0000
0010
0000
0000
0000
0000
0000
0000
0300
0200
0000
0000
0000
0000
0000
0000
0000
1000
0000
0000
0000
0000
0000
0000
0300
0200
0000
0000
0000
0000
0000
0000
0000
0010
0000
0000
0000
0000
0000
0000
0300
0200
0000
0000
0000
0000
0000
0000
0000
1000
0000
0000
0000
0000
0000
0000
0300
,  // measure 57
0002
0000
0000
0000
0000
0000
0000
0000
0100
0000
0000
0000
0000
0000
0000
0003
0002
0000
0000
0000
0000
0000
0000
0000
1000
0000
0000
0000
0000
0000
0000
0003
0002
0000
0000
0000
0000
0000
0000
0000
0010
0000
0000
0000
0000
0000
0000
0003
0002
0000
0000
0000
0000
0000
0000
0000
1000
0000
0000
0000
0000
0000
0000
0003
,  // measure 58
0020
0000
0000
0000
0000
0000
0000
0000
0100
0000
0000
0000
0000
0000
0000
0030
0020
0000
0000
0000
0000
0000
0000
0000
0100
0000
0000
0000
0000
0000
0000
0030
2000
0000
0000
0000
0000
0000
0000
0000
0100
0000
0000
0000
0000
0000
0000
3000
2000
0000
0000
0000
0000
0000
0000
0000
0100
0000
0000
0000
0000
0000
0000
3000
,  // measure 59
0020
0000
0000
0000
0000
0000
0000
0000
0001
0000
0000
0000
0000
0000
0000
0030
0020
0000
0000
0000
0000
0000
0000
0000
0100
0000
0000
0000
0000
0000
0000
0030
0020
0000
0000
0000
0000
0000
0000
0000
0001
0000
0000
0000
0000
0000
0000
0030
0020
0000
0000
0000
0000
0000
0000
0000
0100
0000
0000
0000
0000
0000
0000
0030
,  // measure 60
2000
0000
0000
0000
0000
0000
0000
0000
0010
0000
0000
0000
0000
0000
0000
3000
2000
0000
0000
0000
0000
0000
0000
0000
0100
0000
0000
0000
0000
0000
0000
3000
0020
0000
0000
0000
0000
0000
0000
0000
0031
0000
0000
0000
0000
0000
0000
0000
0200
0000
0000
0000
0000
0000
0000
0000
0002
0000
0000
0000
0000
0000
0000
0300
,  // measure 61
1000
0000
0000
0000
0000
0000
0000
0003
0002
0000
0000
0000
0000
0000
0000
0000
0010
0000
0000
0000
0000
0000
0000
0003
0002
0000
0000
0000
0000
0000
0000
0000
1000
0000
0000
0000
0000
0000
0000
0003
0002
0000
0000
0000
0000
0000
0000
0000
0100
0000
0000
0000
0000
0000
0000
0003
0001
0000
0000
0000
0000
0000
0000
0000
,  // measure 62
2002
0000
0000
0000
0000
0000
0000
0000
0000
0000
0000
0000
0000
0000
0000
0000
0000
0000
0000
0000
0000
0000
0000
0000
0000
0000
0000
0000
0000
0000
0000
3003
2002
0000
0000
0000
0000
0000
0000
0000
0000
0000
0000
0000
0000
0000
0000
0000
0000
0000
0000
0000
0000
0000
0000
0000
0000
0000
0000
0000
0000
0000
0000
3003
,  // measure 63
0002
0000
0000
0000
0000
0000
0000
0000
1000
0000
0000
0000
0000
0000
0000
0003
0002
0000
0000
0000
0000
0000
0000
0000
0100
0000
0000
0000
0000
0000
0000
0003
0002
0000
0000
0000
0000
0000
0000
0000
1000
0000
0000
0000
0000
0000
0000
0003
0002
0000
0000
0000
0000
0000
0000
0000
0100
0000
0000
0000
0000
0000
0000
0003
,  // measure 64
0020
0000
0000
0000
0000
0000
0000
0000
0100
0000
0000
0000
0000
0000
0000
0030
0020
0000
0000
0000
0000
0000
0000
0000
0001
0000
0000
0000
0000
0000
0000
0030
0020
0000
0000
0000
0000
0000
0000
0000
0100
0000
0000
0000
0000
0000
0000
0030
0020
0000
0000
0000
0000
0000
0000
0000
0001
0000
0000
0000
0000
0000
0000
0030
,  // measure 65
2000
0000
0000
0000
0000
0000
0000
0000
0010
0000
0000
0000
0000
0000
0000
3000
2000
0000
0000
0000
0000
0000
0000
0000
0001
0000
0000
0000
0000
0000
0000
3000
2000
0000
0000
0000
0000
0000
0000
0000
0100
0000
0000
0000
0000
0000
0000
3000
2000
0000
0000
0000
0000
0000
0000
0000
0001
0000
0000
0000
0000
0000
0000
3000
,  // measure 66
0200
0000
0000
0000
0000
0000
0000
0000
0010
0000
0000
0000
0000
0000
0000
0300
0200
0000
0000
0000
0000
0000
0000
0000
0010
0000
0000
0000
0000
0000
0000
0300
0002
0000
0000
0000
0000
0000
0000
0000
0010
0000
0000
0000
0000
0000
0000
0003
0002
0000
0000
0000
0000
0000
0000
0000
0010
0000
0000
0000
0000
0000
0000
0003
,  // measure 67
0200
0000
0000
0000
0000
0000
0000
0000
1000
0000
0000
0000
0000
0000
0000
0300
0200
0000
0000
0000
0000
0000
0000
0000
0010
0000
0000
0000
0000
0000
0000
0300
0200
0000
0000
0000
0000
0000
0000
0000
1000
0000
0000
0000
0000
0000
0000
0300
0200
0000
0000
0000
0000
0000
0000
0000
0010
0000
0000
0000
0000
0000
0000
0300
,  // measure 68
0002
0000
0000
0000
0000
0000
0000
0000
0100
0000
0000
0000
0000
0000
0000
0003
0002
0000
0000
0000
0000
0000
0000
0000
0010
0000
0000
0000
0000
0000
0000
0003
0200
0000
0000
0000
0000
0000
0000
0000
1300
0000
0000
0000
0000
0000
0000
0000
0020
0000
0000
0000
0000
0000
0000
0000
2000
0000
0000
0000
0000
0000
0000
0030
,  // measure 69
0001
0000
0000
0000
0000
0000
0000
3000
2000
0000
0000
0000
0000
0000
0000
0000
0100
0000
0000
0000
0000
0000
0000
3000
2000
0000
0000
0000
0000
0000
0000
0000
0001
0000
0000
0000
0000
0000
0000
3000
2000
0000
0000
0000
0000
0000
0000
0000
0010
0000
0000
0000
0000
0000
0000
3000
1000
0000
0000
0000
0000
0000
0000
0000
,  // measure 70
1001
0000
0110
0000
0110
0100
1001
0000
,  // measure 71
0101
0102
0000
0000
0013
0000
0000
0000
0210
0000
0000
0000
1300
0000
1100
0110
,  // measure 72
1001
0000
0000
0000
0000
0000
0000
0000
0000
0000
0000
0000
0201
0000
0000
0000
0000
0000
0000
0000
0000
0000
0000
0000
0000
0000
0000
0000
0000
0000
0000
0000
0000
0000
0000
0000
0000
0000
0000
0000
0000
0000
0000
0000
0000
0000
0000
0000
1000
0000
0000
0000
0000
0000
0000
0000
0000
0000
0000
0000
0000
0000
0000
0000
0000
0000
0000
0000
0000
0000
0000
0000
0000
0000
0000
0000
0000
0000
0000
0000
0000
0000
0000
0000
0300
0000
0000
0000
0000
0000
0000
0000
0000
0000
0000
0000
0220
0000
0000
0000
0000
0000
0000
0000
0000
0000
0000
0000
0000
0000
0000
0000
0000
0000
0000
0000
0000
0000
0000
0000
0000
0000
0000
0000
0000
0000
0000
0000
0000
0000
0000
0000
0000
0000
0000
0000
0000
0000
0000
0000
0000
0000
0330
0000
0220
0000
0000
0000
0000
0000
0000
0000
0000
0000
0000
0000
0000
0000
0000
0000
0000
0000
0000
0000
0000
0000
0330
0000
0220
0330
0000
0000
0000
0000
0000
0000
0000
0000
0000
0000
0220
0330
0000
0000
0000
0000
0000
0000
0000
0000
0000
0000
,  // measure 73
2002
3003
0000
0000
0000
0000
0000
0000
0000
0000
0000
0000
0220
0330
0000
0000
0000
0000
0000
0000
0000
0000
0000
0000
0000
0000
0000
0000
0000
0000
0000
0000
0000
0000
0000
0000
0000
0000
0000
0000
0000
0000
0000
0000
0000
0000
0000
0000
0101
0000
0000
0000
0000
0000
0000
0000
0000
0000
0000
0000
0000
0000
0000
0000
0000
0000
0000
0000
0000
0000
0000
0000
0000
0000
0000
0000
0000
0000
0000
0000
0000
0000
0000
0000
0000
0000
0000
0000
0000
0000
0000
0000
0000
0000
0000
0000
1020
0000
0000
0000
0000
0000
0000
0000
0000
0000
0000
0000
0000
0000
0000
0000
0000
0000
0000
0000
0000
0000
0000
0000
0000
0000
0000
0000
0000
0000
0000
0000
0000
0000
0000
0000
0030
0000
0000
0000
0000
0000
0000
0000
0000
0000
0000
0000
0201
0000
0000
0000
0000
0000
0000
0000
0000
0000
0000
0000
0000
0000
0000
0000
0000
0000
0300
0000
0000
0000
0000
0000
0011
0000
0000
0000
0000
0000
0000
0000
0000
0000
0000
0000
0110
0000
0000
0000
0000
0000
0000
0000
0000
0000
0000
0000
,  // measure 74
1100
0000
0000
0000
0000
0000
0000
0000
0000
0000
0000
0000
2002
0000
0000
0000
0000
0000
0000
0000
0000
0000
0000
0000
0000
0000
0000
0000
0000
0000
0000
0000
0000
0000
0000
0000
0000
0000
0000
0000
0000
0000
0000
0000
0000
0000
3003
0000
0110
0000
0000
0000
0000
0000
0000
0000
0000
0000
0000
0000
0000
0000
0000
0000
0000
0000
0000
0000
0000
0000
0000
0000
0000
0000
0000
0000
0000
0000
0000
0000
0000
0000
0000
0000
0000
0000
0000
0000
0000
0000
0000
0000
0000
0000
0000
0000
2002
0000
0000
0000
0000
0000
0000
0000
0000
0000
0000
0000
0000
0000
0000
0000
0000
0000
0000
0000
0000
0000
0000
0000
0000
0000
0000
0000
0000
0000
0000
0000
0000
0000
0000
0000
0000
0000
0000
0000
0000
0000
0000
0000
0000
0000
3003
0000
1001
0000
0000
0000
0000
0000
0000
0000
0000
0000
0000
0000
0000
0000
0000
0000
0000
0000
0000
0000
0000
0000
0000
0000
0110
0000
0000
0000
0000
0000
0000
0000
0000
0000
0000
0000
1001
0000
0000
0000
0000
0000
0000
0000
0000
0000
0000
0000
,  // measure 75
0120
0000
0000
0000
,  // measure 76
0000
0000
0000
0000
,  // measure 77
0000
0000
0000
0000
,  // measure 78
0000
0000
0000
0000
,  // measure 79
0030
0000
0000
0000
;

//---------------dance-single - ----------------
#NOTES:
     dance-single:
     :
     Medium:
     7:
     0.565988,0.613136,0.524806,0.709597,0.029567,369.000000,71.000000,96.000000,0.000000,0.000000,0.000000,0.565988,0.613136,0.524806,0.709597,0.029567,369.000000,71.000000,96.000000,0.000000,0.000000,0.000000:
1001
0000
0010
1001
0000
1001
0000
0000
,
0100
0000
0100
1001
0000
1001
0000
0000
,
0010
0000
0100
1010
0000
1010
0000
0000
,
0010
0000
0100
0101
0000
0101
0000
0000
,
0001
0000
0010
0100
0000
1100
0000
0000
,
1100
0000
0100
0010
0000
0011
0000
0000
,
0101
0000
0010
1001
0000
0110
0000
0000
,
0101
1100
0101
1100
1001
0000
0101
0000
,
0001
0100
0010
0000
1000
0000
1010
0000
,
0010
0100
0001
1000
0100
0000
0110
0000
,
0100
0010
0001
0000
0012
0000
0103
0000
,
1002
0103
1002
1003
,
1000
0100
0010
0000
0120
0000
0130
0000
,
0100
0001
0100
1000
0100
0000
0110
0000
,
0010
0100
0001
0000
0102
0000
1003
0000
,
2100
3100
1100
0100
,
0010
0001
0100
0000
1000
0000
1100
0000
,
0100
0010
1000
0001
0010
0000
0110
0000
,
0100
1000
0010
0000
0102
0000
0013
0000
,
0120
0130
1002
0103
,
0010
1000
0100
0000
0012
0000
0013
0000
,
0001
0010
0001
1000
1010
0000
0101
0000
,
0000
0101
1010
0000
0001
0000
0100
0000
,
0010
1000
0001
0000
1000
0100
0010
0001
,
0010
0100
0010
0000
0010
0001
0100
1000
,
0100
0010
0100
0000
0010
1000
0001
0010
,
0100
0010
0001
0000
0102
0000
0103
0000
,
1002
0000
1003
0000
0011
0010
0001
0010
,
0100
1000
0100
0000
0100
1000
0010
0100
,
0010
1000
0001
0010
0100
0010
0001
0100
,
1000
0100
0010
0000
0120
0000
0130
0000
,
0210
0000
0310
0000
0100
0100
0010
0100
,
0000
0010
0100
0000
0010
0000
1000
0000
,
0100
0010
0001
0000
0010
0000
0100
0000
,
0010
0001
0100
0000
0010
1000
0001
1000
,
0010
1000
0100
0010
0100
0000
1000
0000
,
0100
0010
0001
0000
0100
0000
0010
0000
,
0100
0001
0100
0001
1000
0000
0010
0000
,
0000
0100
0010
0000
1001
0110
1001
0110
,
1002
0203
0320
1030
,
1020
2030
3200
0310
,
0210
2300
3020
0130
,
0210
0320
2030
3001
,
0021
0230
2300
3100
,
1200
0320
0032
1003
,
0102
0203
0320
1030
,
0210
0320
2030
3001
,
0200
0320
2030
3020
,
0230
0302
0203
0320
,
2030
3020
0230
0302
,
2003
3200
0302
0023
,
2030
3002
0023
0230
,
0320
0032
0203
0320
,
2030
3200
2300
3020
,
0230
0320
2030
3200
,
0320
0001
0100
0001
,
0230
0000
1000
0000
0010
0000
1300
0200
,
0000
0000
0000
0000
,
0320
0031
0020
0130
,
0200
1000
0010
1000
,
2300
0000
0010
0000
3100
0010
0001
0010
,
0020
0100
0001
0100
,
0032
0103
0002
1003
,
1001
0001
0100
0001
0000
0100
0010
0000
,
0200
0000
0010
0000
0010
0000
0010
1300
,
0200
0010
0010
0010
,
0320
0031
0020
0130
,
0200
1000
0010
1000
,
0320
0000
0032
0000
0013
0001
0010
0100
,
2000
0000
0100
0000
0000
0100
3100
0000
,
1100
0000
0011
0000
1100
0100
1001
0000
,
0101
0001
0000
0000
0100
0000
0000
0000
0010
0000
0000
0000
0100
0000
0010
0010
,
1000
0010
0000
0000
0110
0000
0000
0000
1002
0000
0000
0000
0203
0000
0010
0010
,
0310
0100
0000
0000
1010
0000
0000
0000
0201
0000
0000
0000
0310
0000
1000
0100
,
0001
0100
0000
0000
0110
0000
0000
0000
0102
0000
0203
0000
2300
0000
3100
0010
,
2002
0000
0000
0000
,
0000
0000
0000
0000
,
0000
0000
0000
0000
,
0000
0000
0000
0000
,
3003
0000
0000
0000
;

//---------------dance-single - ----------------
#NOTES:
     dance-single:
     :
     Easy:
     6:
     0.379085,0.471217,0.221749,0.561765,0.029567,253.000000,30.000000,76.000000,0.000000,0.000000,0.000000,0.379085,0.471217,0.221749,0.561765,0.029567,253.000000,30.000000,76.000000,0.000000,0.000000,0.000000:
1001
0000
0000
1001
0000
0000
0000
0000
,
0110
0000
0000
0110
0000
0000
0000
0000
,
1010
0000
0000
1010
0000
0000
0000
0000
,
0101
0000
0000
0101
0000
0000
0000
0000
,
0011
0000
0000
1100
0000
0000
0000
0000
,
1010
0000
0000
0101
0000
0000
0000
0000
,
1001
0000
0000
0110
0000
0000
0000
0000
,
0001
0100
0001
0100
0020
0000
0000
0000
,
0000
0000
0000
0000
,
0230
0000
0310
2000
0000
0000
0000
0000
,
0000
0000
3200
0000
,
2300
0000
3020
0000
,
0000
0000
0230
0000
,
0320
0000
0130
0002
0000
0000
0000
0000
,
0000
0000
0023
0000
,
0230
0000
0320
0000
,
0000
0000
0000
0000
,
0032
0000
0103
2000
0000
0000
0000
0000
,
0000
0000
3200
0000
,
0320
0000
2030
0000
,
0000
0000
3020
0000
,
0230
0000
0010
2300
0000
0000
0000
0000
,
0000
0000
3002
0000
,
0023
0000
0230
0010
,
0010
0010
0320
0100
,
0100
0000
0100
0200
0000
0000
0000
0000
,
0000
0330
0200
0000
,
2300
0000
3020
0100
,
0000
0100
0230
0000
,
0001
0000
0301
2000
0100
0000
0100
0000
,
0000
0100
3200
0000
,
0320
0000
0000
0000
0031
0010
0100
1000
,
0000
1000
0100
0000
2000
0000
0000
0000
,
0000
0000
0000
0002
0000
0000
0000
0000
,
0000
3000
0200
0003
,
0020
0300
2000
0000
,
0000
0000
0030
0000
0200
3000
0000
0000
,
0320
0000
0031
0010
0200
0000
0010
0000
,
0000
0010
0010
0300
0010
0001
0100
0010
,
2000
3100
0010
0011
,
0002
0103
0010
1000
,
0020
0130
0010
1010
,
0020
0130
0001
1001
,
2000
3100
0010
0011
,
0002
0013
0100
1100
,
2000
3010
0100
0110
,
0020
0130
0010
1000
,
0002
0203
0302
2003
,
3002
0023
0031
1001
,
2000
3200
2300
3002
,
2003
3020
1030
1001
,
0002
0203
2300
3200
,
0302
0203
2300
3200
,
0320
0032
0023
2030
,
3020
0032
0023
0230
,
0310
1000
1000
0010
0000
0100
0010
0000
,
0100
0000
0010
0000
0000
0100
0001
0000
,
1000
0000
0100
0000
0000
0010
0001
0000
,
0010
0000
0100
0000
0000
0010
0001
0100
,
0010
0000
1000
0000
0000
0010
0100
0000
,
0001
0000
1000
0000
0000
0100
1000
0000
,
0010
0000
0100
0000
0000
0010
1000
0000
,
0001
0000
0100
0000
0000
0010
1000
0000
,
0001
0100
0010
1000
0000
0010
0100
0000
,
0010
0000
0100
0000
0000
0001
0010
0000
,
0100
0000
0010
0000
0000
0100
1000
0000
,
0010
0000
0100
0000
0000
0001
0100
0000
,
0010
0000
1000
0000
0000
0010
0100
0000
,
0001
0000
1000
0000
0000
0100
1000
0000
,
1010
0000
0101
0000
0000
0010
0100
0000
,
0110
0000
0110
0000
1001
1001
1001
0000
,
0001
0001
0000
0000
0100
0000
0000
0000
0010
0000
0000
0000
0100
0000
0010
1000
,
1000
1000
0000
0000
0100
0000
0000
0000
0010
0000
0000
0000
0001
0000
0010
0001
,
0100
0100
0000
0000
0010
0000
0000
0000
0100
0000
0000
0000
0010
0000
1000
0001
,
0001
0100
0000
0000
0001
0000
0000
0000
0010
0000
0000
0000
0100
0000
1000
0001
,
0110
0000
0000
0000
;

//---------------dance-single - ----------------
#NOTES:
     dance-single:
     :
     Beginner:
     2:
     0.134105,0.166312,0.155224,0.000000,0.000000,106.000000,21.000000,0.000000,0.000000,0.000000,0.000000,0.134105,0.166312,0.155224,0.000000,0.000000,106.000000,21.000000,0.000000,0.000000,0.000000,0.000000:
1001
0000
0000
0000
,
0010
0000
0000
0000
,
0100
0000
0000
0000
,
0100
0000
0000
0000
,
1001
0000
0000
0000
,
1000
0000
0000
0000
,
0001
0000
0000
0000
,
1001
0000
0010
0000
,
0000
0000
0000
0000
,
0100
0000
0001
0000
,
0000
0000
1000
0000
,
0100
0000
0010
0000
,
0000
0000
0010
0000
,
0100
0000
1000
0000
,
0000
0000
0001
0000
,
1000
0000
0100
0000
,
0000
0000
0000
0000
,
0100
0000
1000
0000
,
0000
0000
0010
0000
,
0100
0000
0001
0000
,
0000
0000
0010
0000
,
0100
0000
1000
0000
,
0000
0000
0001
0000
,
0100
0000
0010
0000
,
0000
0000
0100
0000
,
0000
0000
0001
0000
,
0000
0000
1000
0000
,
0100
0000
0010
0000
,
0000
0000
0100
0000
,
1000
0001
1000
0000
,
0000
0000
0010
0000
,
0100
0000
0001
0000
,
0000
0000
0010
0000
,
0000
0000
0100
0000
,
0000
0000
0010
0000
,
0001
0000
1000
0000
,
0000
0000
0010
0000
,
0100
0000
0001
0000
,
0000
0000
0000
0000
,
1001
0000
0000
0000
,
0110
0000
0000
0000
,
0110
0000
0000
0000
,
1001
0000
0000
0000
,
1001
0000
0000
0000
,
1001
0000
0000
0000
,
0110
0000
0000
0000
,
0110
0000
0000
0000
,
0001
0000
0100
0000
,
0010
0000
0100
0000
,
0001
0000
1000
0000
,
0100
0000
0000
1000
,
0010
0000
0100
0000
,
0010
0000
1000
0000
,
1001
0000
0000
0000
,
0110
0000
0000
0000
,
1001
0000
0000
0000
,
0110
0000
0000
0000
,
0110
0000
0000
0000
,
0010
0000
0100
0000
,
1001
0000
0000
0000
,
0110
0000
0000
0000
,
1001
0000
0000
0000
,
0001
0000
0010
0000
,
0110
0000
0000
0010
,
0100
0000
0000
0000
,
0100
0000
0000
0000
,
0010
0000
0001
0000
,
1000
0000
0000
0000
,
0010
0000
0100
0000
,
0001
0000
0000
0000
,
1000
0000
0001
0000
,
0100
0000
0001
0000
,
1000
0000
0010
0100
,
0001
0000
1000
0001
,
0100
0000
0010
0000
,
1001
0000
0000
0000
;
