#TITLE:Watch Out!! Pt.2;
#SUBTITLE:;
#ARTIST:DJ Mass MAD Izm* vs. DJ Yoshitaka;
#TITLETRANSLIT:;
#SUBTITLETRANSLIT:;
#ARTISTTRANSLIT:;
#CREDIT:;
#BANNER:Watch Out!! Pt.2.png;
#BACKGROUND:Watch Out!! Pt.2-background.png;
#JACKET:Watch Out!! Pt.2-jacket.png;
#LYRICSPATH:;
#CDTITLE:;
#MUSIC:1.32. Watch Out Pt.2.mp3;
#OFFSET:1.240;
#SAMPLESTART:6.840;
#SAMPLELENGTH:12.000;
#SELECTABLE:YES;
#BPMS:0.000=148.000;
#STOPS:184.000=0.405
;
#BGCHANGES:0.000=Watch Out Pt2 _ DJ Mass MAD Izm vs DJ Yoshitaka.avi=1.000=0=0=1,
99999=-nosongbg-=1.000=0=0=0 // don't automatically add -songbackground-
;

//---------------dance-single - ----------------
#NOTES:
     dance-single:
     :
     Hard:
     9:
     0.685,0.967,0.444,0.081,0.425: // measure 1
0000
0000
0000
0000
,  // measure 2
0000
0000
0000
0000
,  // measure 3
0000
0000
0000
0000
,  // measure 4
0000
0000
0000
0000
,  // measure 5
0000
0000
0000
0000
,  // measure 6
0001
0000
0101
0000
0100
0000
0101
0001
,  // measure 7
0100
1000
0100
0100
0010
1000
0001
0010
,  // measure 8
0100
1100
1000
1100
,  // measure 9
0100
0001
0100
0010
0001
0100
1000
0001
,  // measure 10
1000
0000
1001
0000
0001
0000
1001
0001
,  // measure 11
0001
0100
0001
0001
1000
0100
0010
0100
,  // measure 12
0100
1100
1000
1100
,  // measure 13
0100
0010
1000
0010
0100
0010
0001
1000
,  // measure 14
0010
0000
1000
0000
0001
0000
0100
0000
0010
1000
0000
1001
0000
0000
0000
0000
,  // measure 15
0001
0000
0100
0010
0000
0010
1000
0000
1000
0000
0001
0000
0010
0000
0000
0000
,  // measure 16
0100
0000
0010
0000
0001
0000
0100
0000
0010
1000
0000
1100
0000
0000
0100
1000
,  // measure 17
0100
0001
0100
0010
0001
0100
0110
0000
,  // measure 18
0010
0000
0100
0000
0001
0000
1000
0000
0001
0010
0000
0110
0000
0000
0000
0000
,  // measure 19
0100
0010
0001
0000
0100
0000
0010
0000
1000
0010
0100
0000
0001
0000
0000
0000
,  // measure 20
0001
0000
0100
0000
1000
0000
0100
0000
0010
1000
0000
1100
0000
0000
0000
0000
,  // measure 21
1000
0100
0010
0001
0010
0100
1000
0001
,  // measure 22
1000
0100
0001
0100
1000
0010
0001
0010
,  // measure 23
1000
0100
0001
0100
1000
0010
0001
0010
,  // measure 24
1000
0100
0001
0100
1000
0010
0001
0010
,  // measure 25
1000
0100
0001
0100
1000
0010
0001
0010
,  // measure 26
1000
0010
0001
0010
1000
0100
0001
0100
,  // measure 27
1000
0010
0001
0010
1000
0100
0001
0100
,  // measure 28
1000
0010
1000
0010
1000
0010
1000
0010
,  // measure 29
0100
0100
0100
0100
0100
0100
0100
0100
,  // measure 30
1001
0110
1001
0110
,  // measure 31
1001
0110
1001
1001
0000
0220
0000
0330
,  // measure 32
0100
0000
0000
0101
0000
0000
1010
0000
0000
0000
0000
0000
0000
0000
1001
0000
,  // measure 33
0000
0101
0000
0000
1010
0000
0000
1100
0000
0000
0000
0000
0000
0000
0011
0000
,  // measure 34
0000
0011
0000
0000
1100
0000
0000
0101
0000
0000
0000
0000
0000
0000
0101
0000
,  // measure 35
0000
1100
0000
0000
1001
0000
0000
0101
0000
0000
0001
0000
0000
0000
0100
0000
,  // measure 36
0010
1000
0100
0010
0100
1000
0010
0000
,  // measure 37
0100
0001
1000
0100
0010
0100
1000
0000
,  // measure 38
1000
0001
0100
0001
0010
0100
1000
0000
,  // measure 39
0100
0000
0100
0000
0010
0100
0010
0000
0100
0010
0100
0000
0010
0000
0001
0000
,  // measure 40
1000
0000
0000
0000
0000
0000
0101
0000
0000
1010
0000
0000
0000
0000
1001
0000
,  // measure 41
0001
0100
0001
0100
0001
0000
0100
0000
1000
0000
0100
0000
0010
0000
0000
0000
,  // measure 42
0110
0000
0000
0000
0000
0000
1010
0000
0000
0101
0000
0000
0000
0000
1001
0000
,  // measure 43
1000
0100
1000
0100
1000
0000
0100
0000
0001
0000
0100
0000
0010
0000
0000
0000
,  // measure 44
0110
0000
0000
0000
0000
0000
0110
0000
0000
1100
0000
0000
0000
0000
1001
0000
,  // measure 45
0001
0100
0001
0100
0001
0100
0001
0000
0000
0100
0000
0000
0010
0000
0000
1000
0000
0000
0010
0000
0000
0000
0000
0000
,  // measure 46
0100
0010
0100
0010
0100
0010
0100
0010
0100
0010
0100
0010
0100
0010
0100
0010
,  // measure 47
0100
0000
0000
0000
0000
0000
0100
0000
0010
0000
1000
0000
1001
0000
0000
0000
0000
0000
0000
0000
0000
0001
0000
0000
,  // measure 48
0100
0000
1000
0000
0000
0000
1000
0000
0100
0000
0010
0000
0100
0001
0000
1000
,  // measure 49
0000
0100
0000
1000
0000
0000
0010
0000
0100
0000
0000
0000
0001
0000
0100
0000
,  // measure 50
0001
0000
0000
0100
0000
0000
0000
0000
0000
0010
0000
0000
0000
0000
0000
1000
0000
0000
0000
0000
0000
0010
0000
0000
0100
0000
0000
0000
0000
0000
0001
0000
0000
0000
0000
0000
1000
0000
0000
0000
0100
0000
0000
0000
1000
0000
0000
0000
,  // measure 51
0010
0000
0000
0000
0100
0000
0000
0000
0001
0000
0000
0000
0010
0000
0000
0001
0000
0000
0100
0000
0000
0001
0000
0000
1000
0000
0000
0000
0000
0000
0000
0000
0000
0000
0000
0000
0000
0000
0000
0000
0000
0000
0001
0000
0000
0000
0000
0000
,  // measure 52
0100
0000
0100
0000
0000
0000
0010
0000
1000
0000
1000
0000
0001
0100
0000
0100
,  // measure 53
0000
0100
0000
0100
0000
0000
0100
0000
0010
0000
0000
0000
1000
0000
0010
0000
,  // measure 54
1000
0010
0000
1000
0000
0010
0000
1000
0010
0000
1000
0000
0010
0100
0010
0100
,  // measure 55
0010
0000
0000
0100
0000
0000
0010
0000
0000
0100
0000
0000
0001
0000
0000
0000
1000
0000
0000
0000
0001
0000
0000
0000
1000
0000
0000
0000
0000
0000
0000
0000
0000
0000
0000
0000
0000
0000
0000
0000
0000
0000
0010
0000
0000
0000
0000
0000
,  // measure 56
0100
0100
0010
0100
0100
0000
0000
0010
,  // measure 57
1000
1000
0010
1000
1000
0000
1000
0100
,  // measure 58
0001
0100
0010
0001
0010
0010
0001
0100
,  // measure 59
1000
0100
0100
0010
0010
0100
0001
0000
,  // measure 60
0010
1000
0010
0001
0100
0010
0100
0010
,  // measure 61
0001
0010
1000
0100
0001
0100
0010
0001
,  // measure 62
0010
0100
1000
0100
0001
0100
1000
0010
,  // measure 63
0100
0000
0001
0000
0010
0000
0100
0000
1001
0000
0000
0000
0001
0010
0000
0010
,  // measure 64
0100
1000
0100
0010
0001
1000
0010
0100
0000
0010
0100
0001
1000
0010
0100
0010
,  // measure 65
1000
0001
1000
0100
0010
0001
0010
0100
1000
0001
0100
0000
0001
0100
0001
0100
,  // measure 66
0010
1000
0010
0100
0010
1000
0001
0010
0100
1000
0001
0100
0002
0000
0203
0000
,  // measure 67
2300
3020
0032
2003
0002
0000
3003
0000
;

//---------------dance-single - ----------------
#NOTES:
     dance-single:
     :
     Medium:
     7:
     0.463,0.514,0.263,0.027,0.014:
0000
0000
0000
0000
,
0000
0000
0000
0000
,
0000
0000
0000
0000
,
0000
0000
0000
0000
,
0000
0000
0000
0000
,
0001
1000
0010
0100
,
0001
0100
0010
0100
0010
1000
0001
0010
,
0100
0010
0001
1000
,
0001
0100
0010
1000
0001
0010
0100
1000
,
0100
0000
1000
0000
0010
0000
0100
0100
,
0010
1000
0010
0100
0010
1000
0010
0100
,
0001
0010
0001
0100
,
0001
1000
0001
1000
0001
1000
0010
0000
,
0100
0010
1000
0001
,
0010
0100
1000
0100
0010
0100
1100
0000
,
1000
0010
0001
0010
,
0100
0010
1000
0001
0010
0100
0110
0000
,
0010
0100
1000
0001
,
1000
0001
0100
0001
1000
0100
0100
0000
,
0010
0100
1000
0010
,
0100
0001
0100
0010
1000
0001
0100
0000
,
0010
0110
0001
1001
,
1000
1100
0100
0110
,
0010
0011
0001
0101
,
0100
0110
0010
1010
,
1000
1001
0001
0011
,
0010
0110
0100
1100
,
0100
1000
0100
1000
0100
1000
0100
1000
,
0100
0010
0100
0010
0100
0010
0100
0010
,
0100
0100
0100
0100
,
0100
0100
0100
0000
0000
0110
0000
0000
,
0010
0001
1000
0000
,
1000
0001
0100
0000
,
0001
1000
0010
0000
,
1000
0010
0100
0000
,
0010
0100
0001
0100
,
1000
0100
0001
0100
,
1000
0010
0001
0010
,
0100
1000
0100
0010
0001
1000
0010
0100
,
0001
0000
0000
0000
0000
0000
0001
0000
0000
1000
0000
0000
0000
0000
0000
0000
,
1000
0000
0100
0000
0010
0100
0110
0000
,
0100
0000
0000
0000
0000
0000
1000
0000
0000
0100
0000
0000
0000
0000
0000
0000
,
0010
0001
0010
0100
1000
0100
1100
0000
,
1000
0000
0000
0000
0000
0000
0001
0000
0000
0100
0000
0000
0000
0000
0000
0000
,
0010
0100
0001
1000
0010
0100
0001
0000
,
1000
0001
1000
0001
1000
0001
1000
0001
,
1001
0000
0020
0000
0130
0000
0000
0100
,
0010
0000
0000
0100
0010
0000
0100
0000
,
0001
1000
0100
1000
,
0010
0100
0001
0101
,
1100
0000
1000
0100
0110
0000
0100
0000
,
1000
0100
0001
0100
,
0010
0000
0100
1000
1001
0000
0001
0000
,
0100
0000
1000
0000
0100
0000
0010
0100
,
0010
0100
0010
0100
0010
0000
0000
0100
,
0001
0000
0001
0000
1001
0000
0000
1000
,
0100
0000
0100
0000
1100
0000
0000
0100
,
0010
0010
0100
0110
,
1001
0000
0101
0000
1001
0000
0001
0100
,
0010
1000
0001
0100
0010
1000
0001
0100
,
0010
1000
0001
0100
0010
1000
0001
0010
,
0100
1000
0001
0010
0100
1000
0100
0010
,
0001
0010
0100
1000
0001
0000
0001
0100
,
1000
0100
0010
1000
0010
0001
0010
0100
,
0010
0001
0100
1000
0100
0100
0010
1000
,
0001
0010
0100
0010
0001
1000
0001
0001
,
1000
1000
0010
0010
0220
0000
0330
0000
;

//---------------dance-single - ----------------
#NOTES:
     dance-single:
     :
     Easy:
     4:
     0.308,0.423,0.263,0.118,0.000:
0000
0000
0000
0000
,
0000
0000
0000
0000
,
0000
0000
0000
0000
,
0000
0000
0000
0000
,
0000
0000
0000
0000
,
1000
0100
0010
0001
,
0020
0000
0000
0030
,
0001
0100
0010
1000
,
0200
0000
0000
0300
,
1000
0010
0100
0020
,
0000
0000
0000
0030
,
0100
0001
1000
0200
,
0000
0000
0000
0300
,
1000
0100
0010
0001
,
1000
1000
1000
0001
,
0100
0001
1000
0100
,
1000
1000
1000
0010
,
0100
0010
1000
0001
,
0010
0001
0100
0001
,
1000
0100
0010
0001
,
0010
0001
0010
0001
,
0100
0100
0100
0100
,
0100
0100
0100
0100
,
0100
0100
0100
0100
,
0100
0100
0100
0100
,
0010
0010
0010
0010
,
0010
0010
0010
0010
,
1000
1000
1000
1000
,
0001
0001
0001
0001
,
1001
1001
1001
1001
,
0110
1001
0000
0000
,
0102
0000
0000
0003
,
0000
0000
0000
0000
0000
0000
0000
0100
,
0020
0000
0000
0030
0000
0000
0000
0000
,
0000
0000
0000
0000
0000
0000
0000
0100
,
0002
0000
0000
0003
0000
0000
0000
0000
,
0000
0000
0000
0000
0000
0000
0000
1000
,
0200
0000
0000
0000
0000
0300
0000
0000
,
1000
0100
0010
0001
,
1000
0000
0001
0000
,
0100
0001
0100
0110
,
0100
0000
0001
0000
,
1000
0100
0010
1100
,
0100
0000
1000
0000
,
1000
0010
0100
0101
,
0002
0023
0230
2300
,
3001
1001
0000
0000
,
0001
0000
1000
0010
,
0010
1000
0100
1000
,
0010
0100
0001
0101
,
0101
0101
0011
0000
,
0001
0000
1000
0100
,
1000
0010
0100
0010
,
0010
0100
0100
0001
,
0010
0100
1100
0000
,
0100
0010
0011
0000
,
0001
0010
0110
0000
,
0100
1000
1010
0010
,
0110
0100
0100
0010
,
1001
0100
0100
1001
,
0100
0100
1001
0101
,
0001
0101
0100
0110
,
0110
0110
1001
0001
,
1000
0100
0001
0100
,
0010
0001
0010
1000
,
0100
1000
0010
1000
,
0100
0001
0020
0030
;

//---------------dance-single - ----------------
#NOTES:
     dance-single:
     :
     Beginner:
     1:
     0.128,0.211,0.072,0.000,0.000:
0000
0000
0000
0000
,
0000
0000
0000
0000
,
0000
0000
0000
0000
,
0000
0000
0000
0000
,
0000
0000
0000
0000
,
1000
0000
0001
0000
,
0100
0000
0000
0000
,
0001
0000
1000
0000
,
0010
0000
0000
0000
,
1000
0000
0100
0000
,
0010
0000
0000
0000
,
0100
0000
0010
0000
,
0001
0000
0000
0000
,
1000
0000
1000
0000
,
0100
0000
0000
0100
,
0010
0000
0001
0000
,
1000
0000
0000
1000
,
1000
0000
0100
0000
,
0000
0000
0000
1000
,
0001
0000
0100
0000
,
0010
0000
0000
0000
,
0100
0000
0100
0000
,
0100
0000
0100
0000
,
0100
0000
0100
0000
,
0100
0000
0100
0000
,
0010
0000
0010
0000
,
0010
0000
0010
0000
,
1000
0000
1000
0000
,
0001
0000
0001
0000
,
1001
0000
0000
0000
,
0000
0000
0000
0000
,
0110
0000
0000
0000
,
0000
0000
0000
0000
,
0100
0000
0000
0000
,
0000
0000
0000
0000
,
0001
0000
0000
0000
,
0000
0000
0000
0000
,
1000
0000
0000
0000
,
0100
0000
1000
0000
,
0010
0000
0000
0000
,
0100
0000
0000
0000
,
0010
0000
0000
0000
,
1000
0000
0000
0000
,
0001
0000
0000
0000
,
1000
0000
0000
0000
,
0100
0000
0010
0000
,
1001
0000
0000
0000
,
0001
0000
0001
0001
,
0000
0000
0000
1000
,
0000
0000
0000
1001
,
0000
0110
0000
0000
,
0100
0000
0100
0010
,
0000
0000
0000
0100
,
0000
0000
0000
0001
,
0000
0000
0000
0000
,
1000
0000
0000
0000
,
0001
0000
0000
0000
,
1000
0000
0000
0001
,
0000
1000
0000
0000
,
0001
0000
0000
1000
,
0000
0000
0000
0001
,
0000
0001
0000
1000
,
0000
1000
0110
1001
,
0000
0001
0000
0100
,
0000
0010
0000
1000
,
0000
1000
0000
0001
,
0001
1000
1001
0000
;
