#TITLE:Universal Language;
#SUBTITLE:;
#ARTIST:Mike Foyle & ReFeel;
#TITLETRANSLIT:;
#SUBTITLETRANSLIT:;
#ARTISTTRANSLIT:;
#CREDIT:;
#BANNER:Universal Language.png;
#BACKGROUND:Universal Language-background.png;
#JACKET:Universal Language-jacket.png;
#LYRICSPATH:;
#CDTITLE:;
#MUSIC:Universal Language.mp3;
#OFFSET:-0.018;
#SAMPLESTART:85.320;
#SAMPLELENGTH:12.000;
#SELECTABLE:YES;
#BPMS:0.000=135.000,64.000=33.750,80.000=67.500,112.000=135.000;
#STOPS:;
#BGCHANGES:;

//---------------dance-single - ----------------
#NOTES:
     dance-single:
     :
     Hard:
     7:
     0.277,0.397,0.046,0.008,0.282:
0000
0000
0000
0000
,
0000
0000
0000
0000
,
0000
0000
0000
0000
,
0000
0000
0000
0000
,
0000
0000
0000
0000
,
0000
0000
0000
0000
,
0000
0000
0000
0000
,
0000
0000
0000
0000
,
1000
0000
0100
0000
0010
0100
0001
0000
,
0100
0000
1000
0000
0010
1000
0100
0000
,
1000
0000
0001
0000
0100
0010
0001
0000
,
0100
0000
0001
0000
0010
0100
1000
0000
,
0001
1000
0000
1000
0000
0001
0000
0001
,
0000
0100
0000
0100
0000
0001
0000
0001
,
0000
0100
0000
1000
0000
0100
0000
0001
,
0000
0010
0000
1000
0000
0010
0000
0100
,
1001
0000
0000
0000
0001
0000
0000
0000
0100
0000
0000
0000
0000
0000
0000
0001
,
0010
0000
0000
0000
0000
0000
0000
0000
0100
0000
0000
0000
0000
1000
0000
0000
0001
0000
0000
0000
0000
0000
0000
0000
0000
0000
0000
0000
0000
0000
1000
0000
,
0010
0000
0000
0000
0100
0000
0001
0000
0000
0000
0001
0000
0000
0000
0000
0000
0100
0000
0000
0000
0000
0000
0000
0000
0000
0000
0000
0000
0000
0000
0001
0010
0100
0000
0000
0000
0000
0000
0000
0000
0000
0000
0000
0000
0000
0000
0000
0000
0000
0000
0000
0000
0000
0000
0000
0000
0000
0000
0000
0000
0100
0000
0000
0000
,
0010
0000
0000
0000
0000
0000
0000
0000
0000
0000
0100
0000
0000
0100
1000
0000
0001
0000
0000
0000
0000
0100
0000
0000
0001
0000
0000
0000
0000
0100
0001
1000
,
0010
0000
0000
0000
1000
0000
0010
0000
0000
0000
0100
0000
0000
0000
0000
0000
0001
0000
0000
0000
0000
0000
0000
0000
0000
0000
0000
0000
0000
0000
1000
0001
,
0100
0000
0000
0001
0000
0000
0000
0000
0000
0000
0000
0000
0000
0000
0010
0100
,
1000
0000
0000
0001
0000
0000
0000
0000
0100
0000
0000
0010
0000
1000
0000
0000
,
0001
0000
0000
0000
0000
1000
0000
0001
0000
0010
0000
0100
0000
1000
0100
0010
,
0100
0000
0000
0000
0010
0000
0100
0000
0000
0000
0100
0000
0000
0000
0000
0000
0010
0000
0000
0000
0000
0000
0000
0000
0000
0000
0000
0000
0000
0000
0001
1000
,
0010
0000
0000
1000
0000
0000
0000
0000
0000
0000
0000
0000
0000
0000
0010
0000
,
1000
0000
0000
0001
0000
0100
0000
0000
0001
0000
0000
0000
0000
1000
0000
0000
,
0100
0000
0000
0000
0000
1000
0000
0000
0010
0000
0000
0000
0000
0100
0001
1000
,
0001
0000
0100
0001
0000
0010
0000
0100
,
1000
0000
0100
1000
0000
0010
0000
0100
,
0001
0000
1000
0010
0000
0100
0000
0010
,
1000
0000
0001
0010
0000
0001
1001
0000
,
0101
0000
0001
0010
0000
0100
0000
0010
,
0001
0000
1000
0010
0000
0100
0001
0000
,
1001
0000
0001
0010
0000
0001
0000
0100
,
0000
0100
0000
0100
0000
0100
0101
0000
,
1010
0000
0010
1000
0000
0000
0010
1000
0000
0000
0010
1000
0000
0000
0010
1000
,
0000
0000
0001
0100
0000
0000
0001
0100
0000
0000
0001
0100
0000
0000
0001
0100
,
0000
0000
0001
1000
0000
0000
0001
1000
0000
0000
0001
1000
0000
0000
0001
1000
,
0000
0000
1000
0100
0000
0000
1000
0100
0000
0000
1000
0100
0000
0000
1000
0100
,
0000
0000
0010
0001
0000
0000
0001
0100
0000
0000
0100
0010
0000
0000
0010
1000
,
0000
0000
1000
0001
0000
0000
0001
1000
0000
0000
1000
0001
0000
0000
0001
0100
,
0000
0000
0100
0010
0000
0000
0010
1000
0000
0000
1000
0100
0000
0000
0010
0001
,
0000
0000
0001
0010
0000
0000
0010
0100
0000
0000
0100
1000
0000
0000
0001
1000
,
0001
0000
1000
0100
0000
0010
0000
0001
,
0010
0000
0100
1000
0000
0100
0000
1000
,
0010
0000
0100
0010
0000
1000
0000
0001
,
0010
0000
0100
1000
0000
0010
0000
0100
,
0001
1000
0000
0100
0000
0001
0000
0100
,
0000
1000
0000
0100
0000
0010
0000
0001
,
0000
1000
0000
1000
0000
0001
0000
0000
,
0200
0000
0000
0000
,
0300
0000
0000
0000
;

//---------------dance-single - ----------------
#NOTES:
     dance-single:
     :
     Medium:
     4:
     0.194,0.218,0.008,0.015,0.053:
0000
0000
0000
0000
,
0000
0000
0000
0000
,
0000
0000
0000
0000
,
0000
0000
0000
0000
,
0000
0000
0000
0000
,
0000
0000
0000
0000
,
0000
0000
0000
0000
,
0000
0000
0000
0000
,
1000
0100
0000
0100
0000
0100
0000
0100
,
0000
0010
0000
0010
0000
0010
0000
0010
,
0000
0001
0000
0001
0000
0001
0000
0001
,
0000
1000
0000
1000
0000
1000
0000
1000
,
0000
0010
0000
0100
0000
0001
0000
1000
,
0000
0100
0000
0001
0000
0100
0000
0010
,
0000
0001
0000
0100
0000
1000
0000
0100
,
0000
0010
0000
1000
0000
0001
0000
0010
,
0100
0000
0000
0000
1000
0000
0000
0000
0001
0000
0000
0000
0000
0000
0000
0100
,
0001
0000
0000
0000
1000
0000
0000
0000
0100
0000
0000
0000
0000
0000
0000
0010
,
0001
0000
0000
0000
1000
0000
0000
0000
0110
0000
0000
0000
0000
0000
0000
0100
,
0001
0000
0000
0000
0000
0000
0000
1000
0001
0000
0000
0000
0100
0000
0000
0001
,
1000
0000
0100
0000
,
0010
0000
0000
0000
0000
0000
0000
0001
,
0100
0000
0000
0000
0000
0000
0000
0000
0010
0000
0000
0010
0000
0000
0000
0000
,
0100
0000
0000
0000
0000
0000
0000
0001
,
1000
0000
0000
0001
0000
0000
0000
0000
0100
0000
0000
0000
0000
0000
0000
0001
,
1000
0000
0000
0100
0000
0000
0000
0000
0000
0000
0000
0000
0000
0000
0010
0000
,
0100
0000
0000
1000
0000
0000
0000
0000
0010
0000
0000
0100
0000
0001
0000
0000
,
1000
0000
0000
0000
0000
0100
0000
0000
0010
0000
0000
0000
0000
0010
0001
0000
,
1000
0000
0001
0100
0000
0001
0000
0000
,
0100
0000
0010
1000
0000
0010
0000
0000
,
0100
0000
0010
1000
0000
0100
0000
0000
,
0010
0000
0001
0010
0000
0100
0010
0000
,
0001
0000
1000
0001
0000
0100
0000
0000
,
0010
0000
1000
0010
0000
0100
0010
0000
,
1000
0000
0001
1000
0000
0100
0000
0000
,
1000
0000
0010
0100
0000
0001
1000
0000
,
0100
0010
0000
0001
0000
0010
0000
0001
,
0000
0100
0000
0010
0000
0100
0000
0010
,
0000
1000
0000
0010
0000
1000
0000
0010
,
0000
0100
0000
0010
0000
0100
0000
0010
,
0000
1000
0000
0100
0000
0010
0000
0001
,
0000
1000
0000
0100
0000
0010
0000
0001
,
0000
0001
0000
0010
0000
0100
0000
1000
,
0000
0001
0000
0010
0000
0100
0000
1000
,
0001
0000
0100
0001
0000
0010
0000
0100
,
0010
0000
0001
1000
0000
0010
0000
0100
,
0100
0000
0010
1000
0000
0010
0000
0000
,
0100
0000
0001
1000
0000
0100
0010
0001
,
1000
0000
0001
0100
0000
0010
0000
0000
,
1000
0000
0010
0100
0000
0001
0000
0000
,
1000
0000
0000
0000
0000
0200
0000
0000
,
0020
0000
0000
0000
,
0330
0000
0000
0000
;

//---------------dance-single - ----------------
#NOTES:
     dance-single:
     :
     Easy:
     1:
     0.100,0.159,0.031,0.084,0.000:
0000
0000
0000
0000
,
0000
0000
0000
0000
,
0000
0000
0000
0000
,
0000
0000
0000
0000
,
0000
0000
0000
0000
,
0000
0000
0000
0000
,
0000
0000
0000
0000
,
0000
0000
0000
0000
,
0001
0000
0100
0000
,
0001
0000
1000
0000
,
0100
0000
1000
0000
,
0010
0000
0100
0000
,
0002
0000
0000
0003
,
2000
0000
0000
3000
,
0020
0000
0000
0030
,
0200
0000
0000
0300
,
1001
0001
0100
0000
,
0010
1000
0100
0000
,
0010
0001
0010
0000
,
0001
0000
0100
0010
,
1000
0000
0100
0000
,
0010
0000
0000
0000
0000
0000
0000
0100
,
1000
0000
0001
0000
,
0100
0000
0000
0000
0001
0000
0000
1000
,
0001
0000
0100
0000
,
0010
0000
0000
0000
0000
0000
0000
0100
,
0001
0000
1000
0000
,
0100
0000
0000
0000
0010
0000
0000
0100
,
1001
0000
0000
0000
,
0101
0000
0000
0000
,
1010
0000
0000
1000
,
0000
0000
0000
0010
,
0100
0000
0000
0000
,
0001
0000
0000
0000
0000
1000
0000
0000
,
1000
0000
0000
0000
,
0000
0000
0000
0100
,
0010
0000
0010
0000
,
0001
0000
0001
0000
,
1000
0000
1000
0000
,
0100
0000
0100
0000
,
1000
0000
0010
0000
,
0100
0000
0001
0000
,
1000
0000
0100
0000
,
0010
0000
0001
0000
,
2000
0000
0000
3000
,
0020
0000
0000
0030
,
0200
0000
0000
0000
,
0000
0000
0300
0010
,
0200
0000
0000
0300
,
0002
0000
0000
0003
,
2000
0000
0000
0001
,
0002
0000
0000
0000
,
3003
0000
0000
0000
;

//---------------dance-single - ----------------
#NOTES:
     dance-single:
     :
     Beginner:
     1:
     0.063,0.156,0.008,0.000,0.000: // measure 1
0000
0000
0000
0000
,  // measure 2
0000
0000
0000
0000
,  // measure 3
0000
0000
0000
0000
,  // measure 4
0000
0000
0000
0000
,  // measure 5
0000
0000
0000
0000
,  // measure 6
0000
0000
0000
0000
,  // measure 7
0000
0000
0000
0000
,  // measure 8
0000
0000
0000
0000
,  // measure 9
0001
0000
0000
0000
,  // measure 10
0001
0000
0000
0000
,  // measure 11
1000
0000
0000
0000
,  // measure 12
1000
0000
0000
0000
,  // measure 13
0100
0000
0000
0000
,  // measure 14
0100
0000
0000
0000
,  // measure 15
0010
0000
0000
0000
,  // measure 16
0010
0000
0000
0000
,  // measure 17
1001
0001
0100
0000
,  // measure 18
0010
1000
0001
0000
,  // measure 19
1000
0001
0100
0000
,  // measure 20
0001
0000
1000
0010
,  // measure 21
1000
0000
0001
0000
,  // measure 22
0010
0000
0000
0000
,  // measure 23
0100
0000
0100
0000
,  // measure 24
0010
0000
0000
0000
,  // measure 25
1000
0000
0100
0000
,  // measure 26
1000
0000
0000
0000
,  // measure 27
0001
0000
0100
0000
,  // measure 28
0001
0000
0000
0000
,  // measure 29
0001
0000
0000
0000
,  // measure 30
0100
0000
0000
0000
,  // measure 31
0010
0000
0000
0000
,  // measure 32
0000
0000
0000
1000
,  // measure 33
1000
0000
0000
0000
,  // measure 34
0100
0000
0000
0000
,  // measure 35
0010
0000
0000
0000
,  // measure 36
0000
0000
0000
0001
,  // measure 37
0001
0000
0000
0000
,  // measure 38
1000
0000
0000
0000
,  // measure 39
0010
0000
0000
0000
,  // measure 40
1000
0000
0000
0000
,  // measure 41
0100
0000
0000
0000
,  // measure 42
1000
0000
0000
0000
,  // measure 43
0001
0000
0000
0000
,  // measure 44
0100
0000
0000
0000
,  // measure 45
0001
0000
0000
0000
,  // measure 46
1000
0000
0000
0000
,  // measure 47
0100
0000
0000
0000
,  // measure 48
0010
0000
0000
0100
,  // measure 49
0100
0000
0000
0000
,  // measure 50
1000
0000
0000
0000
,  // measure 51
0001
0000
0000
0000
,  // measure 52
0010
0000
0000
0000
;
