#TITLE:Tubular Bells;
#SUBTITLE:;
#ARTIST:kors k;
#TITLETRANSLIT:;
#SUBTITLETRANSLIT:;
#ARTISTTRANSLIT:;
#GENRE:;
#CREDIT:;
#BANNER:Tubular Bells.png;
#BACKGROUND:Tubular Bells-bg.png;
#LYRICSPATH:;
#CDTITLE:cdtitle.png;
#MUSIC:Tubular Bells.mp3;
#OFFSET:0.003000;
#SAMPLESTART:60.340000;
#SAMPLELENGTH:12.000000;
#SELECTABLE:YES;
#BPMS:0.000000=175.000000
;
#STOPS:27.500000=1.395000,
164.000000=1.009000,
225.000000=1.714000
;
#BGCHANGES:;
#KEYSOUNDS:;
#ATTACKS:;

//---------------dance-single - ----------------
#NOTES:
     dance-single:
     :
     Hard:
     8:
     0.560486,0.561228,0.476351,0.008661,0.021652,397.000000,55.000000,1.000000,0.000000,0.000000,0.000000,0.560486,0.561228,0.476351,0.008661,0.021652,397.000000,55.000000,1.000000,0.000000,0.000000,0.000000:
0000
0000
0000
0000
,
0000
0000
0000
0000
,
0000
0000
0000
0000
,
0000
0000
0000
0000
,
0000
0000
0000
0000
,
0000
0000
0000
0000
,
0000
0000
0000
0000
,
1001
0000
0001
0100
0000
0010
1000
0001
,
0010
0000
0010
0000
0100
0010
0100
0000
,
0100
0000
0010
0001
0000
0001
0100
0010
,
0100
0000
0001
0000
0010
0100
0010
0001
,
1000
0000
1000
0001
0000
0010
1000
0100
,
1000
0000
0010
0000
0100
0010
1000
0000
,
0001
0000
1000
0001
0000
1000
0001
0010
,
0010
0000
0100
0000
1000
0001
1001
0000
,
0001
0100
0010
1000
0001
0100
0010
1000
,
0001
0100
0010
1000
0001
0100
0010
0000
,
1000
0100
0010
0001
0010
0100
1000
0100
,
0010
0001
0010
0100
1000
0010
0100
0000
,
0010
1000
0010
0100
0010
0100
0010
1000
,
0001
0010
0100
0010
0001
0100
1000
0100
,
0010
1000
0001
0010
0100
0010
0001
0100
,
1000
0100
0010
1000
0001
0010
1000
0010
,
0001
0000
0010
0000
0100
1000
0000
1000
,
0010
0000
0100
0000
0001
0010
0000
0010
,
0110
0000
0100
0000
1000
0100
0000
0100
,
0010
0000
0001
0000
0100
0001
0000
0100
,
0010
1000
0000
0001
0010
0100
0000
0010
,
0001
0100
0000
0010
1000
0100
0000
0010
,
0001
0100
0000
0010
1000
0100
0000
0010
,
0001
0100
0000
0010
1000
0001
0000
1000
,
0010
0000
0100
0000
0001
0001
0000
1000
,
0000
0100
0000
1000
0010
0000
0100
0000
,
0001
0000
0010
0000
0100
0010
0000
0100
,
0000
1000
0000
0100
1000
0000
0010
0000
,
0100
0000
0010
1000
0001
0000
0010
0100
,
1000
0000
0100
0001
0100
0000
0010
0001
,
0010
0100
1000
0100
,
0010
0001
0010
0100
,
1001
0110
1001
0110
,
0101
1100
0011
1010
,
1001
0000
0000
0000
0001
0000
0100
0000
0010
0000
1000
0001
0000
0000
0001
0000
,
0010
0100
0110
0000
1100
0000
1000
0001
,
0000
0101
0000
1010
0000
0010
1001
0000
,
0101
0000
0011
0000
0110
0000
0100
1000
,
0000
1010
0000
0101
0000
0001
0011
0000
,
1001
0000
1100
0000
1001
0000
0001
0100
,
0000
0110
0000
1001
0000
0001
0101
0000
,
1001
0000
1100
0000
0101
0000
0100
0010
,
0000
1010
0000
0011
0000
0010
0110
0000
,
1001
0000
0000
0000
0101
0000
0000
0000
1001
0000
0000
0000
0001
0100
0001
0000
,
0000
0000
1001
0000
0000
0000
1100
0000
0000
0000
0100
0010
0001
0000
0000
0000
,
0011
0000
0000
0000
0101
0000
0000
0000
1010
0000
0000
0000
0001
0100
0001
0000
,
0000
0000
0110
0000
0000
0000
1001
0000
0000
0000
0010
0100
0001
0000
0000
0000
,
1001
0000
0101
0000
1010
0000
1000
1100
,
0000
0011
0000
1100
0000
0010
0110
0000
,
1001
0000
0110
0000
1000
0001
1000
0001
,
1001
0000
1000
0000
0010
0000
0100
0010
,
1000
0000
1000
0001
0000
0001
0000
0010
,
0100
0000
0010
0000
0010
0000
0100
0010
,
0001
0000
0100
0010
0000
0100
0000
0010
,
0100
0000
0100
0000
0010
0000
0100
0010
,
1000
0000
0001
0010
0000
0001
0000
1000
,
0010
0000
0100
0000
0001
0000
1000
0001
,
0000
1000
0000
0001
0000
0100
0000
0010
,
0100
0000
0010
0000
1000
0000
0100
0010
,
0001
0000
0001
0010
0000
0100
0000
0010
,
0100
0000
0010
0000
0001
0000
0010
0100
,
1000
0000
0010
0100
0000
0010
0000
0100
,
0001
0000
0010
0000
0100
0000
0010
1000
,
0010
0000
0001
0010
0000
0010
0000
0100
,
0010
0000
0001
0000
1000
0000
1000
0100
,
0000
0001
0000
0100
0000
1000
0000
0010
,
0100
0100
0100
0100
,
0001
0001
0001
0001
,
1000
1000
1000
1000
,
0010
0010
0010
0010
,
0100
1000
0100
0010
0100
1000
0100
1000
,
0010
1000
0100
0010
0001
1000
0001
0010
,
0100
0010
0001
1000
0001
0100
0010
1000
,
0200
0000
0000
0000
,
0300
0000
0000
0000
;

//---------------dance-single - ----------------
#NOTES:
     dance-single:
     :
     Medium:
     6:
     0.475114,0.491075,0.407064,0.008661,0.000000,336.000000,47.000000,1.000000,0.000000,0.000000,0.000000,0.475114,0.491075,0.407064,0.008661,0.000000,336.000000,47.000000,1.000000,0.000000,0.000000,0.000000:
0000
0000
0000
0000
,
0000
0000
0000
0000
,
0000
0000
0000
0000
,
0000
0000
0000
0000
,
0000
0000
0000
0000
,
0000
0000
0000
0000
,
0000
0000
0000
0000
,
1001
0000
0001
0000
0100
0001
0000
0100
,
0000
0010
0000
0100
0010
0000
0100
0000
,
0010
0000
1000
0000
0010
0100
0000
0001
,
0000
1000
0000
0100
0010
0000
0100
0000
,
1000
0000
0010
0000
0100
0001
0000
0010
,
0000
0100
0000
0010
0001
0000
0100
0000
,
0010
0000
1000
0000
0001
0100
0000
0010
,
0000
1000
0000
0010
0100
0000
0001
0000
,
1001
0000
0001
0000
0100
0010
0000
1010
,
0000
0101
0000
0010
1000
0000
0010
0000
,
0100
0000
0010
0000
1000
0100
0000
0110
,
0000
0011
0000
0001
0010
0000
0100
0000
,
0110
0000
1001
0000
0001
0100
0000
1010
,
0000
0101
0000
0001
0100
0000
0010
0000
,
0110
0000
1001
0000
0010
0100
0000
0110
,
0000
1001
0000
0001
0100
0000
0010
0000
,
1000
0000
0100
0000
0010
0001
0000
0010
,
0001
0000
0010
0000
0100
1000
0000
1000
,
0100
0000
0010
0000
0001
0010
0000
0010
,
0001
0000
0010
0000
0100
1000
0000
0100
,
1000
0010
0000
0100
0010
0100
0000
0001
,
0100
0001
0000
0100
0010
0100
0000
0010
,
1000
0010
0000
0100
0010
0100
0000
0010
,
1000
0010
0000
1000
0001
1000
0000
0001
,
0010
0000
1000
0000
0010
0001
0000
0100
,
0000
1000
0000
0100
0010
0000
1001
0000
,
0001
0000
0010
0000
1000
0010
0000
0100
,
0000
1000
0000
0100
0001
0000
0100
0000
,
0110
0000
0010
0100
0010
0000
0100
1000
,
0100
0000
1000
0001
1000
0000
0001
0100
,
0001
0001
0100
0100
,
0010
0010
1000
1000
,
0001
1000
0001
1000
0001
1000
0001
1000
,
0001
1000
0001
1000
0001
1000
0001
1000
,
0001
0000
0000
0000
,
0000
0000
1001
0000
1001
0000
0001
0100
,
0000
0101
0000
1010
0000
0001
0100
0000
,
0010
0000
1010
0000
1010
0000
0010
0100
,
0000
1001
0000
1001
0000
0001
0100
0000
,
0010
0000
1100
0000
1100
0000
0100
0010
,
0000
0110
0000
1001
0000
0001
0100
0000
,
0010
0000
1010
0000
1010
0000
0010
0100
,
0000
0101
0000
1100
0000
1000
0100
0000
,
0010
0000
0011
0000
1100
0000
0100
0010
,
0000
0011
0000
1010
0000
1000
0010
0000
,
0101
0000
0011
0000
1100
0000
1000
0001
,
0000
0101
0000
0011
0000
0001
0100
0000
,
0010
0000
1010
0000
1100
0000
1000
0010
,
0000
0101
0000
0110
0000
1000
0001
0000
,
0100
1001
0000
0000
,
0001
0000
0000
0100
0000
0000
0010
0000
,
0000
0000
0000
1000
0010
0010
0010
0000
,
0100
0000
0000
0010
0000
0000
1000
0000
,
0000
0000
0000
0100
0010
0010
0010
0000
,
0100
0000
0000
0010
0000
0000
0001
0000
,
0000
0000
0000
1000
0010
0010
0010
0000
,
0100
0000
0000
0001
0000
0000
0010
0000
,
0000
0000
0000
0100
0010
0010
0010
0000
,
0001
0000
0010
0000
0100
0000
1000
0100
,
1000
0000
0010
0100
0000
0001
0000
1000
,
0001
0000
0100
0000
0010
0000
1000
0100
,
0001
0000
0100
0010
0000
0001
0000
0010
,
0001
0000
0010
0000
1000
0000
0010
0100
,
1000
0000
0100
0010
0000
0001
0000
0100
,
1000
0000
0100
0000
0010
0000
0100
0010
,
0000
1000
0000
0001
0000
0010
0000
0100
,
0010
0000
0001
0000
0100
0000
0001
0100
,
0001
0100
0010
1000
,
0010
0000
0100
0000
0001
0000
1000
0100
,
1000
0010
0100
0010
,
1001
0000
0001
0000
0100
0000
0010
0010
,
0100
0000
0001
0010
0000
1000
0000
0010
,
0100
0000
1000
0000
0010
0000
0100
0001
,
2000
0000
0000
0000
,
3000
0000
0000
0000
;

//---------------dance-single - ----------------
#NOTES:
     dance-single:
     :
     Easy:
     4:
     0.291997,0.315691,0.121253,0.008661,0.000000,221.000000,14.000000,1.000000,0.000000,0.000000,0.000000,0.291997,0.315691,0.121253,0.008661,0.000000,221.000000,14.000000,1.000000,0.000000,0.000000,0.000000:
0000
0000
0000
0000
,
0000
0000
0000
0000
,
0000
0000
0000
0000
,
0000
0000
0000
0000
,
0000
0000
0000
0000
,
0000
0000
0000
0000
,
0000
0000
0000
0000
,
0001
0100
0001
0000
,
0100
0010
0100
0100
,
0010
1000
0010
0000
,
1000
1000
0100
0000
,
1000
0010
0100
0000
,
0010
0100
0001
0000
,
1000
0001
0100
0000
,
0010
1000
0010
0000
,
0100
0001
1000
0000
,
0100
0010
0001
0001
,
0010
0100
0001
0000
,
0100
1000
0100
0010
,
1000
0001
0100
0000
,
0001
1000
0100
1000
,
0010
0100
0001
0000
,
1000
0100
0010
0001
,
0010
0010
0001
0000
,
0001
0001
0100
0000
,
0100
0100
0010
0000
,
0010
0010
1000
0000
,
0010
0000
0100
0000
,
0010
0000
0100
0000
,
0001
0000
1000
0000
,
0001
0000
1000
0000
,
0001
0001
1000
1000
,
0001
1000
0001
1001
,
0010
0010
0100
0010
,
0100
0100
0010
0110
,
0001
0000
0100
0000
,
0010
0000
1000
0000
,
0100
0000
0100
0000
,
0010
0000
0010
0000
,
0001
1000
0001
1000
,
0001
1000
0001
1000
,
1001
0000
0000
0000
,
0000
0001
0100
1000
,
0100
0010
1000
0010
,
0100
0010
1000
0001
,
0010
0100
0010
0001
,
0001
1000
0010
0001
,
0010
0100
0010
1000
,
0010
1000
0100
0001
,
0100
0010
0001
1000
,
1000
0001
0100
0010
,
1000
0100
0010
0100
,
0100
0010
0001
0010
,
0100
0010
0001
1000
,
1000
0001
0100
0010
,
1000
0010
0100
0001
,
0010
0000
0000
0000
,
0100
0000
0000
0010
0000
0000
0001
0000
,
0000
0000
1000
0001
,
0100
0000
0000
0001
0000
0000
0010
0000
,
0000
0000
0100
0000
,
0100
0000
0000
1000
0000
0000
0010
0000
,
0000
0000
0100
0010
,
0100
0000
0000
0100
0000
0000
0010
0000
,
0000
0000
1000
0001
,
1001
0000
0000
0001
0000
0000
0101
0000
,
0000
0000
0100
0001
,
1100
0000
0000
0110
0000
0000
0011
0000
,
0000
0000
0001
0000
,
1001
0000
0000
1010
0000
0000
1001
0000
,
0000
0000
0001
0001
,
1100
0000
0000
0110
0000
0000
0011
0000
,
0000
0001
0010
0000
,
0001
0000
0100
0000
,
0010
0000
1000
0000
,
0001
0000
0010
0000
,
0100
0000
1000
0000
,
0100
1000
0010
0100
,
0001
0010
0100
1000
,
0010
0100
0001
0100
,
0020
0000
0000
0000
,
0030
0000
0000
0000
;

//---------------dance-single - ----------------
#NOTES:
     dance-single:
     :
     Beginner:
     3:
     0.170744,0.415725,0.155897,0.000000,0.000000,120.000000,18.000000,0.000000,0.000000,0.000000,0.000000,0.170744,0.415725,0.155897,0.000000,0.000000,120.000000,18.000000,0.000000,0.000000,0.000000,0.000000:
// measure 0
0000
0000
0000
0000
,  // measure 1
0000
0000
0000
0000
,  // measure 2
0000
0000
0000
0000
,  // measure 3
0000
0000
0000
0000
,  // measure 4
0000
0000
0000
0000
,  // measure 5
0000
0000
0000
0000
,  // measure 6
0000
0000
0000
0000
,  // measure 7
0010
0000
0000
0000
,  // measure 8
0100
0000
0010
0000
,  // measure 9
1000
0000
0000
0000
,  // measure 10
0010
0000
0100
0000
,  // measure 11
0001
0000
0000
0000
,  // measure 12
1000
0000
0010
0000
,  // measure 13
1000
0000
0000
0000
,  // measure 14
0001
0000
1000
0000
,  // measure 15
1001
0000
0000
0000
,  // measure 16
0000
0000
0000
0000
,  // measure 17
1001
0000
0000
0000
,  // measure 18
0000
0000
0000
0000
,  // measure 19
0110
0000
0000
0000
,  // measure 20
0000
0000
0000
0000
,  // measure 21
0110
0000
0000
0000
,  // measure 22
0100
0000
0000
0000
,  // measure 23
0010
0000
0000
0000
,  // measure 24
0100
0000
0000
0000
,  // measure 25
0010
0000
0000
0000
,  // measure 26
1000
0000
0000
0000
,  // measure 27
0001
0000
0000
0000
,  // measure 28
1000
0000
0000
0000
,  // measure 29
0001
0000
1000
0000
,  // measure 30
0001
0000
1000
0000
,  // measure 31
0010
0010
0010
0000
,  // measure 32
0100
0000
0010
0000
,  // measure 33
0100
0100
0100
0000
,  // measure 34
0010
0000
0100
0000
,  // measure 35
0001
0000
1000
0000
,  // measure 36
0001
0000
1000
0000
,  // measure 37
0010
0010
0010
0010
,  // measure 38
0100
0100
0100
0100
,  // measure 39
1001
0110
1001
0110
,  // measure 40
1001
0110
1001
0110
,  // measure 41
0000
0010
0000
0000
,  // measure 42
0000
0100
0000
0010
,  // measure 43
0000
1000
1000
1000
,  // measure 44
0000
0010
0000
0100
,  // measure 45
0000
0001
0001
0001
,  // measure 46
0000
1000
0000
0010
,  // measure 47
0000
0100
0100
0100
,  // measure 48
0000
0010
0000
1000
,  // measure 49
0000
0001
0001
0001
,  // measure 50
0000
1001
0000
0010
,  // measure 51
0000
0100
0100
0100
,  // measure 52
0000
0010
0000
1000
,  // measure 53
0000
0001
0001
0001
,  // measure 54
0000
1001
0000
0000
,  // measure 55
0000
0110
0000
0110
,  // measure 56
0000
1001
0000
0000
,  // measure 57
0001
0000
0000
0000
,  // measure 58
0100
0000
0001
0000
,  // measure 59
1000
0000
0000
0000
,  // measure 60
0100
0000
0100
0000
,  // measure 61
1000
0000
0000
0000
,  // measure 62
0001
0000
0100
0000
,  // measure 63
0001
0000
0000
0000
,  // measure 64
1000
0000
0000
0000
,  // measure 65
0001
0000
0000
0000
,  // measure 66
0100
0000
0000
0000
,  // measure 67
0001
0000
0000
0000
,  // measure 68
0010
0000
0000
0000
,  // measure 69
0100
0000
0000
0000
,  // measure 70
0010
0000
0000
0000
,  // measure 71
0001
0000
0000
0000
,  // measure 72
1000
0000
0000
0000
,  // measure 73
0001
0000
0000
0000
,  // measure 74
1000
0000
0000
0000
,  // measure 75
0001
0000
0000
0000
,  // measure 76
1000
0000
0000
0000
,  // measure 77
0010
0000
0000
0000
,  // measure 78
0100
0000
0000
0000
,  // measure 79
0010
0000
0100
0000
,  // measure 80
1001
0000
0000
0000
;
