#TITLE:トルバドゥールの回想;
#SUBTITLE:;
#ARTIST:リシャール秋田;
#TITLETRANSLIT:Troubadour's Reminiscence;
#SUBTITLETRANSLIT:;
#ARTISTTRANSLIT:Richard Akita;
#GENRE:;
#CREDIT:;
#BANNER:Troubadour's Reminiscence.png;
#BACKGROUND:Troubadour's Reminiscence-bg.png;
#LYRICSPATH:;
#CDTITLE:cdtitle.png;
#MUSIC:Troubadour's Reminiscence.mp3;
#OFFSET:-2.044000;
#SAMPLESTART:16.080000;
#SAMPLELENGTH:12.000000;
#SELECTABLE:YES;
#BPMS:0.000000=205.000000
,234.000000=196.000000
,259.000000=200.000000
,280.000000=201.000000
,283.000000=202.000000
,307.000000=203.000000
;
#STOPS:258.500000=1.224000
;
#BGCHANGES:;
#KEYSOUNDS:;
#ATTACKS:;

//---------------dance-single - ----------------
#NOTES:
     dance-single:
     :
     Hard:
     8:
     0.552870,0.606922,0.297699,0.288096,0.000000,342.000000,31.000000,30.000000,0.000000,0.000000,0.000000,0.552870,0.606922,0.297699,0.288096,0.000000,342.000000,31.000000,30.000000,0.000000,0.000000,0.000000:
// measure 0
0000
0000
0000
0000
,  // measure 1
0000
0000
0000
0000
,  // measure 2
0000
0000
0000
0000
,  // measure 3
0001
0010
0000
0001
,  // measure 4
1000
0000
0001
0100
,  // measure 5
0000
0001
1000
0100
,  // measure 6
1000
0010
0000
0000
0010
0000
0000
0000
,  // measure 7
0100
0000
0000
0000
0000
0100
0000
0000
,  // measure 8
0010
0000
2000
0000
0000
0000
0000
3000
,  // measure 9
0010
1000
0000
0000
0001
0000
0000
0000
,  // measure 10
0100
0000
0000
0000
0000
0010
0000
0000
,  // measure 11
1000
0200
0000
0000
,  // measure 12
0310
0001
0010
0100
,  // measure 13
0010
0000
0000
0100
1000
0000
0100
0000
,  // measure 14
1000
0000
0001
0000
0000
0000
0100
0010
,  // measure 15
1000
0010
0100
0001
,  // measure 16
0010
0000
0000
0100
0020
0000
0000
0000
,  // measure 17
0130
0010
0001
1000
0001
0000
0100
0000
,  // measure 18
1000
0100
0001
2000
,  // measure 19
3001
1000
0010
1000
0100
0000
0010
0000
,  // measure 20
0100
2000
3000
0100
,  // measure 21
0020
0000
0000
0130
1000
0001
2000
0000
,  // measure 22
0000
3001
0010
0100
2000
0000
0000
3100
,  // measure 23
0010
0001
0100
0100
0010
0010
1000
1000
,  // measure 24
0000
0000
0001
0010
0100
0010
0002
0000
,  // measure 25
1000
0000
1000
0000
1003
0000
1000
0100
,  // measure 26
0010
0100
2000
0000
0001
0000
0001
0000
,  // measure 27
3001
0000
0001
0010
0100
0010
0001
0000
,  // measure 28
0100
0010
1010
1010
,  // measure 29
0011
0011
1100
0011
,  // measure 30
1002
0000
0000
1003
0100
0010
0002
0000
,  // measure 31
0000
0000
0003
0000
0020
0000
0000
0130
,  // measure 32
1000
0001
0020
0000
0000
0000
0000
0000
,  // measure 33
0130
0000
0000
0010
0001
0100
0010
1000
,  // measure 34
0001
0010
1000
0010
0001
0000
1000
0100
,  // measure 35
1000
0001
0200
0000
0000
0000
0300
0000
,  // measure 36
0010
1000
0010
0100
,  // measure 37
0001
0000
1000
0000
0110
0000
0000
0010
,  // measure 38
0100
0001
0000
0000
2000
0000
0000
3001
,  // measure 39
0010
0100
0010
0001
1000
0010
1010
0000
,  // measure 40
0200
0000
0000
0000
0310
0000
0100
0010
,  // measure 41
1000
0100
0001
0100
0010
0100
1000
0000
,  // measure 42
0100
0000
0010
0100
0001
0010
1000
0010
,  // measure 43
0100
0010
0001
0000
0001
0000
0100
0000
,  // measure 44
1000
0100
0010
1000
,  // measure 45
0010
0001
0000
0010
0000
0100
0010
0000
,  // measure 46
2000
0000
3001
1100
,  // measure 47
1100
0001
0101
0101
,  // measure 48
0020
1030
2000
3200
,  // measure 49
0301
0000
0000
0100
1000
0000
0110
0000
,  // measure 50
1001
0001
0110
0101
,  // measure 51
0101
1010
1100
0110
,  // measure 52
0011
0000
0020
0000
0130
0010
0001
0010
,  // measure 53
0001
0100
1000
0100
0010
1000
0100
0001
,  // measure 54
0100
0010
0001
0100
1000
0100
0010
1000
,  // measure 55
0001
0000
0000
1000
0010
0100
1000
0100
,  // measure 56
1000
0010
0001
0010
0100
0001
0010
1000
,  // measure 57
0010
0100
1000
0010
0001
0010
0100
0001
,  // measure 58
1000
0100
0010
0001
1000
0000
0100
0000
,  // measure 59
0100
1000
0010
0010
,  // measure 60
0100
0001
0001
1000
,  // measure 61
0100
0100
1000
0010
,  // measure 62
0010
0100
0001
0010
,  // measure 63
0100
0000
0010
2002
,  // measure 64
0000
0000
0000
0000
0000
3003
0101
0000
,  // measure 65
0101
0000
0001
0000
0010
0000
0100
0010
,  // measure 66
0001
0000
1001
0000
0101
0000
0001
1000
,  // measure 67
0100
0000
0010
0001
0100
0000
0110
0000
,  // measure 68
0010
0000
1000
0000
1001
0000
0001
1000
,  // measure 69
0010
1000
0002
0000
0000
0000
0013
0000
,  // measure 70
0000
0001
0010
0100
0010
0001
2000
0000
,  // measure 71
0000
0000
3010
0000
0000
0000
0100
0001
,  // measure 72
0010
0200
0000
0310
,  // measure 73
0000
0100
0010
0001
,  // measure 74
0100
0000
1000
0100
0010
0000
0010
0000
,  // measure 75
1000
0002
0000
0023
,  // measure 76
0200
0000
0000
0000
0330
0000
0010
0100
,  // measure 77
0010
0001
0100
1000
0100
0010
1000
0001
,  // measure 78
0010
0001
1001
0000
0000
1000
0010
0000
,  // measure 79
0101
0000
0000
0000
;

//---------------dance-single - ----------------
#NOTES:
     dance-single:
     :
     Medium:
     6:
     0.412937,0.455191,0.115238,0.182461,0.000000,270.000000,12.000000,19.000000,0.000000,0.000000,0.000000,0.412937,0.455191,0.115238,0.182461,0.000000,270.000000,12.000000,19.000000,0.000000,0.000000,0.000000:
0000
0000
0000
0000
,
0000
0000
0000
0000
,
0000
0000
0000
0000
,
0000
0000
0000
0000
,
0000
0000
0000
0000
,
0000
0000
0000
0000
,
0000
0001
0000
0000
0100
0000
0000
0000
,
0010
0000
0000
0000
0000
0100
0000
0000
,
0001
2000
0000
3000
,
0000
1000
0000
0000
1000
0000
0000
0000
,
0100
0000
0000
1000
,
0100
0010
0000
0000
,
0001
0010
0001
0100
,
1000
0000
0100
0010
,
1000
0000
0010
0000
0000
0000
0100
0001
,
0100
0001
1000
0100
,
1000
0000
0010
0000
,
0000
0100
0000
0000
,
0010
1000
0001
0100
,
0010
1000
0010
0000
1000
0000
0100
0000
,
0010
0000
0100
0000
0001
0100
0001
0000
,
0100
0000
0010
1000
,
0000
0010
0100
0000
,
0010
0000
1000
0001
1000
0001
1000
0000
,
0000
0000
0001
0100
0010
1000
0020
0000
,
0000
0000
0000
0000
0030
0000
0100
0010
,
1000
0100
0020
0000
0000
0000
0000
0000
,
0030
0000
0100
0010
0001
0010
0001
0000
,
0010
0001
0100
0100
,
0001
0001
1000
0010
,
2000
0000
0000
3010
0100
0001
2000
0000
,
0000
0000
0000
0000
3001
0000
0000
0001
,
0010
0100
2000
0000
0000
0000
0000
0000
,
3100
0000
0000
0100
0010
0001
0010
0000
,
0001
0000
0100
0000
0010
0000
0100
0001
,
0100
0001
0200
0000
0000
0000
0300
0000
,
0001
1000
0100
1000
,
0010
0000
0100
0000
0010
0000
0000
0100
,
0010
1000
0000
0000
0020
0000
0000
0000
,
0130
0001
1000
0100
,
1100
0000
1000
0100
,
0010
0000
0001
0010
0100
1000
0100
0000
,
1000
0000
0100
0000
0010
0000
0001
0010
,
0001
0100
0010
0000
0100
0000
0010
0000
,
1000
0001
0100
0010
,
1000
0010
0000
0100
0000
0010
1000
0000
,
0010
0000
0001
1000
,
0010
2000
0000
3000
,
0010
0100
0010
1000
,
0001
0000
1000
0100
,
1000
0010
0100
0010
,
1000
1000
1000
1000
,
0000
0000
0101
0100
,
0010
1010
0010
0100
,
0110
0010
0110
0110
,
1001
0000
0000
1000
0001
0000
0001
0000
,
0100
0010
1000
0010
,
0100
0010
1000
0010
,
0100
0010
1000
0001
0002
0000
0000
0000
,
1003
0000
1000
0100
,
2000
0000
3100
0000
,
0010
0001
0200
0000
,
0310
0100
0010
1000
,
0002
0000
1000
2000
,
0000
0000
0000
0000
0000
3003
1001
0000
,
1001
0000
0001
1000
0001
0000
0100
0000
,
0010
0000
1010
0000
1010
0000
0010
0100
,
0010
0100
0010
1000
,
0010
0000
0001
0000
0010
0000
0100
0010
,
1000
0001
2000
0000
0000
0000
3100
0000
,
0000
1000
0100
0010
0001
0010
0002
0000
,
0000
0000
0103
0000
0000
0000
0010
1000
,
0001
0020
0000
0130
,
0000
0010
0100
1000
,
0001
0000
1000
0001
0100
0000
0010
0100
,
0010
0200
0000
0001
,
0002
0000
0000
0000
0000
0000
0303
0100
,
0001
0100
0010
1000
0001
0100
0010
1000
,
0100
0010
0001
0000
0000
1000
0010
0000
,
0101
0000
0000
0000
;

//---------------dance-single - ----------------
#NOTES:
     dance-single:
     :
     Easy:
     4:
     0.297699,0.303461,0.067222,0.163254,0.000000,193.000000,7.000000,17.000000,0.000000,0.000000,0.000000,0.297699,0.303461,0.067222,0.163254,0.000000,193.000000,7.000000,17.000000,0.000000,0.000000,0.000000:
0000
0000
0000
0000
,
0000
0000
0000
0000
,
0000
0000
0000
0000
,
0000
0000
0000
0000
,
0000
0000
0000
0000
,
0000
0000
0000
0000
,
0001
0000
0000
1000
,
0000
0000
0001
0000
,
0000
0200
0000
0300
,
0001
0000
0000
1000
,
0000
0000
0100
0000
,
0000
2000
0000
3000
,
0100
1000
0010
0100
,
0001
0000
0100
0001
,
1000
0100
0000
1000
,
1000
0100
0010
0100
,
1000
0000
0001
0000
,
0100
0001
0010
0000
,
0001
0010
0100
1000
,
0000
0000
1000
0100
,
0010
0001
0000
1000
,
0010
0000
0100
0001
,
0000
0001
0010
0000
,
0010
0200
0000
0300
,
0000
0010
0001
2000
,
0000
0000
3000
0001
,
0100
0020
0000
0000
,
0030
0100
0001
1000
,
0100
1000
0010
0100
,
0001
0010
1000
0010
,
0100
0000
0010
0200
,
0000
0300
1000
0000
,
0010
0200
0000
0300
,
0001
0000
1000
0100
,
1000
0010
0110
0010
,
0100
0002
0000
0003
,
1000
0100
1000
0010
,
0100
0000
0010
0000
,
0100
0000
0001
0000
,
1000
0100
0010
0001
,
0011
0000
0001
0010
,
0100
0010
0010
0010
,
0100
0010
0001
1000
,
1000
0000
1000
0000
0000
0001
0000
0000
,
0000
0000
0100
0000
,
0010
0000
0000
0100
0000
0000
0010
0000
,
1000
0000
0001
1000
,
0010
0200
0000
0300
,
0010
1000
0010
1000
,
0100
0000
1000
0000
,
0001
0000
0100
0000
,
0001
0100
0010
1000
,
0000
0000
0110
0010
,
0010
0100
0100
0100
,
0001
0001
0001
1000
,
1000
1000
0100
1000
,
0010
0100
0001
1000
,
0100
1000
0010
0100
,
0001
0010
0200
0000
,
0300
0000
0000
0000
,
0020
0000
0030
0000
,
0000
0000
0002
0000
,
0003
1000
0000
0000
,
0001
0000
0000
0220
,
0000
0000
0000
0000
0000
0330
0100
0000
,
0100
0000
0000
0010
,
1000
0010
0010
0000
,
0000
1000
0100
1000
,
0010
0100
0001
0010
,
0100
0020
0000
0130
,
0000
0010
0001
1000
,
0000
1001
0000
0001
,
0100
0010
0000
0101
,
0000
0001
0100
0010
,
0100
0001
1000
0100
,
0001
0200
0000
0010
,
0020
0000
0000
0000
0000
0330
0010
0000
,
0000
0000
0001
0000
,
0000
0000
1000
0000
0000
0010
0100
0000
,
1001
0000
0000
0000
;

//---------------dance-single - ----------------
#NOTES:
     dance-single:
     :
     Beginner:
     2:
     0.131701,0.189663,0.028810,0.000000,0.000000,93.000000,3.000000,0.000000,0.000000,0.000000,0.000000,0.131701,0.189663,0.028810,0.000000,0.000000,93.000000,3.000000,0.000000,0.000000,0.000000,0.000000:
0000
0000
0000
0000
,
0000
0000
0000
0000
,
0000
0000
0000
0000
,
0000
0000
0000
0000
,
0000
0000
0000
0000
,
0000
0000
0000
0000
,
0001
0000
0000
0100
,
0000
0000
0001
0000
,
0000
1000
0000
0000
,
0001
0000
0000
1000
,
0000
0000
0100
0000
,
0000
1000
0000
0000
,
0010
0000
0000
0000
,
0000
0000
0100
0000
,
0000
0000
0000
0001
,
0000
0000
0000
0000
,
0000
0000
1000
0000
,
0000
0100
0000
0000
,
1000
0000
0000
0000
,
0000
0000
0010
0000
,
0000
0000
0000
1000
,
1000
0000
0001
0001
,
0000
0100
0100
0000
,
0010
0010
0000
0000
,
0000
0100
0000
0000
,
0000
0000
0000
0001
,
0000
0000
0000
0000
,
0000
1000
0000
0000
,
0000
0000
0100
0000
,
0000
1000
0000
0000
,
0010
0000
0000
0000
,
0000
0000
0100
0000
,
0000
0000
0000
0000
,
0001
0000
0000
1000
,
0000
0000
0110
0000
,
0000
0000
0000
0000
,
0100
0000
0000
0000
,
0000
0000
0001
0000
,
0000
0000
0000
0000
,
1000
0000
0000
0100
,
0100
0000
1000
0000
,
0000
0010
0000
0000
,
0100
0000
0000
0001
,
0000
0000
1000
0000
,
0000
0001
0000
0000
,
0100
0000
0000
0000
,
0000
0000
1001
0000
,
0000
0001
0000
0000
,
1000
1000
1000
0000
,
0000
0000
0001
0000
,
0000
0100
0000
0000
,
0010
0000
0100
0100
,
0000
0000
0010
0000
,
0000
0100
0000
0000
,
0001
1000
0001
1000
,
0000
0000
0001
0000
,
0000
0100
0000
0000
,
0010
0000
0000
1000
,
0000
0000
0010
0000
,
0000
0000
0000
0000
,
0100
0000
0000
0000
,
0000
0000
0001
0000
,
0000
0000
0000
0000
,
1000
0000
1000
0000
,
0000
0000
0000
0010
,
0010
0000
0000
0000
,
0000
0100
0100
0000
,
0000
0000
0000
0001
,
0001
0000
1000
0000
,
0000
0010
0000
0010
,
0000
0000
0000
0100
,
0000
0100
0000
0000
,
0000
0010
0000
0010
,
0000
0000
0000
1000
,
0000
0000
0001
0000
,
0000
0100
0000
0001
,
0001
0000
0000
1000
,
0000
0000
0100
0000
,
0000
0010
0000
0001
,
1001
0000
0000
0000
;
