#TITLE:Transylvania Theme;
#SUBTITLE:;
#ARTIST:Jake Kaufman;
#TITLETRANSLIT:;
#SUBTITLETRANSLIT:;
#ARTISTTRANSLIT:;
#CREDIT:;
#BANNER:Transylvania Theme.png;
#BACKGROUND:Transylvania Theme-background.png;
#JACKET:ransylvania Theme-jacket.png;
#LYRICSPATH:;
#CDTITLE:;
#MUSIC:Transylvania Theme.mp3;
#OFFSET:-0.193;
#SAMPLESTART:11.360;
#SAMPLELENGTH:12.000;
#SELECTABLE:YES;
#BPMS:0.000=150.000;
#STOPS:;
#BGCHANGES:;

//---------------dance-single - ----------------
#NOTES:
     dance-single:
     :
     Hard:
     8:
     0.533,0.534,0.243,0.343,0.071: // measure 1
0000
0000
0000
0000
,  // measure 2
0000
0000
0000
0000
,  // measure 3
0000
0000
0000
0000
,  // measure 4
0001
0000
0100
0000
0010
0100
0010
0000
,  // measure 5
1000
0000
0010
1000
0000
0100
0010
0000
,  // measure 6
0001
0000
0010
0000
0100
0010
0001
0000
,  // measure 7
0010
0000
0100
0010
0000
0001
0100
0000
,  // measure 8
0002
0103
0002
0013
,  // measure 9
0001
2000
0000
3010
0000
0100
0010
1000
,  // measure 10
0001
0010
1000
0010
,  // measure 11
0001
0000
1000
0001
0100
0000
0010
0000
0100
0000
0001
0000
0100
0000
0001
0000
,  // measure 12
0200
0000
0320
0000
,  // measure 13
1030
0200
0000
0320
0000
0130
0010
0001
,  // measure 14
0100
0000
0010
0000
0100
0001
0000
0001
,  // measure 15
1000
0000
0100
0010
0100
0000
0010
0000
0000
0000
0001
0000
1000
0000
0010
0000
,  // measure 16
1020
0130
0102
0013
,  // measure 17
0001
2001
0000
3100
0000
0010
0001
0100
,  // measure 18
2000
3100
0200
0310
,  // measure 19
0100
0000
0010
1000
0001
0000
0010
0000
0100
0000
0010
0000
0001
0000
0100
0000
,  // measure 20
0010
1000
0001
0000
0000
0110
0000
0110
,  // measure 21
0000
1000
0001
0010
0000
0100
1000
0100
,  // measure 22
0010
0100
0001
0100
0000
0010
0100
1000
,  // measure 23
0001
0000
0010
0110
0000
0100
0110
0000
,  // measure 24
1002
0000
0000
0000
1003
0100
0100
2000
,  // measure 25
0000
0000
0000
0000
3100
0010
0010
0200
,  // measure 26
0000
0000
0000
0000
0310
0001
0001
0010
,  // measure 27
0001
0010
0100
0000
0010
0001
0000
2000
,  // measure 28
0000
0000
0000
3000
0010
0100
0100
0010
,  // measure 29
0000
0100
1000
0100
0000
0010
0100
0001
,  // measure 30
1000
0000
0000
0000
0100
0010
0000
1100
,  // measure 31
0000
0010
0001
0010
0001
0100
0010
1000
,  // measure 32
0001
0100
0001
1000
0001
0010
0001
1000
,  // measure 33
0000
1000
0001
0100
0001
1000
0100
1000
,  // measure 34
0000
1000
0010
0001
0010
1000
0010
1000
,  // measure 35
0100
1000
0100
0001
0100
1000
0001
1002
,  // measure 36
0000
0000
0003
0000
0100
0001
0100
0010
,  // measure 37
0000
0100
0001
1000
0000
0100
0010
0001
,  // measure 38
0100
0000
0010
0100
0010
1000
1000
0001
,  // measure 39
0010
0000
0100
0000
1000
0000
0001
0000
0100
0000
0010
0000
,  // measure 40
2000
0000
0002
3003
,  // measure 41
0001
0000
0010
0000
0100
0000
0010
0000
0001
0000
1000
0000
0100
0000
0000
0010
0000
0000
0001
0000
0000
0010
0000
0000
,  // measure 42
0200
0000
2300
0000
,  // measure 43
3100
0000
0010
0001
0100
0000
1000
0000
0100
0000
0001
0000
0100
0000
0001
0000
,  // measure 44
0020
0000
0230
0000
,  // measure 45
1300
0200
0000
0010
0000
0310
0001
1000
,  // measure 46
0010
0000
1000
0000
0010
0100
0000
0101
,  // measure 47
0000
1010
0000
1100
0000
2001
0002
3003
,  // measure 48
0001
0100
0001
0100
0010
0010
0010
0010
,  // measure 49
0100
0001
0100
0001
0010
0010
0010
0010
,  // measure 50
0002
0013
0020
0130
,  // measure 51
0100
0000
1000
0100
1000
0000
0100
0000
1000
0000
0001
0000
0100
0000
0001
0000
,  // measure 52
0010
0100
0010
0000
0000
0110
0000
1100
,  // measure 53
0000
1000
0001
0100
0000
0001
0010
0100
,  // measure 54
0000
1000
0100
0010
0000
0100
0010
0001
,  // measure 55
1001
0110
1001
0110
,  // measure 56
2001
0000
0000
0000
3100
0010
0100
2000
,  // measure 57
0000
0000
0000
0000
3100
0010
0001
0020
,  // measure 58
0000
0000
0000
0000
0130
0010
0001
0010
,  // measure 59
1000
0010
0100
0000
0010
0001
0000
2000
,  // measure 60
0000
0000
0000
0000
3001
0100
0001
2000
,  // measure 61
0000
3100
1000
0020
0000
0130
0001
0100
,  // measure 62
0002
0000
0000
0000
0013
0100
0000
0200
,  // measure 63
0000
1300
0010
0100
0010
0100
0001
1000
,  // measure 64
0200
0000
0310
0000
0001
0010
0001
2000
,  // measure 65
0000
0000
0000
3000
0010
1000
0010
0200
,  // measure 66
0000
0000
0000
0000
0301
0100
0001
0010
,  // measure 67
0100
0010
0001
0000
1000
0010
0000
0202
,  // measure 68
0000
0000
0303
0000
0001
0100
0010
1000
,  // measure 69
0000
1000
0100
0001
0000
0001
0100
0010
,  // measure 70
0100
0000
0000
0010
0001
1000
0010
0100
,  // measure 71
1001
0000
0110
0000
0101
0000
1010
0000
1100
0000
0011
0000
,  // measure 72
1001
0000
0000
0000
;

//---------------dance-single - ----------------
#NOTES:
     dance-single:
     :
     Medium:
     7:
     0.459,0.422,0.025,0.360,0.042: // measure 1
0000
0000
0000
0000
,  // measure 2
0000
0000
0000
0000
,  // measure 3
0000
0000
0000
0000
,  // measure 4
0001
0000
0100
0000
0010
1000
0000
0000
,  // measure 5
0001
0000
1000
0100
0000
0001
0100
0000
,  // measure 6
0010
0000
1000
0000
0010
0100
0000
0000
,  // measure 7
1000
0000
0001
0010
0000
0001
1000
0000
,  // measure 8
0002
0003
0200
0300
,  // measure 9
0001
2000
0000
3100
0000
0010
0001
0010
,  // measure 10
0002
0003
0200
0300
,  // measure 11
0020
0000
1030
0010
0000
0010
1000
0000
,  // measure 12
0002
0003
0020
0030
,  // measure 13
0100
0020
0000
0031
0000
1000
0100
1000
,  // measure 14
0100
0000
1000
0000
0010
0100
0000
0010
,  // measure 15
1000
0000
0001
0100
0000
0010
0000
0000
,  // measure 16
2000
3000
0002
0003
,  // measure 17
0100
0002
0000
0013
0000
0100
0010
0001
,  // measure 18
1000
0000
0100
0000
,  // measure 19
1000
0010
1000
0010
0100
0001
0010
0100
,  // measure 20
0010
0001
1000
0000
0000
1000
0100
0010
,  // measure 21
0000
0100
1000
0010
0000
0100
0001
0100
,  // measure 22
0000
0001
1000
0100
0000
1000
0100
0010
,  // measure 23
0100
1000
0010
0100
0000
0001
0100
0000
,  // measure 24
0002
0000
0003
0000
0100
0010
1000
0002
,  // measure 25
0000
0000
0003
0000
0100
0010
1000
0020
,  // measure 26
0000
0000
0030
0000
0100
0010
0100
0010
,  // measure 27
1000
0001
0010
0000
0100
1000
0000
0002
,  // measure 28
0000
0000
0003
0000
0100
0001
0000
0010
,  // measure 29
0000
0100
0010
0100
0000
0010
0100
0000
,  // measure 30
1000
0000
0100
0000
1000
0010
0100
0001
,  // measure 31
0000
0100
0001
1000
0000
0100
0010
0001
,  // measure 32
2000
0000
3001
0000
0100
0001
0100
0001
,  // measure 33
0000
0010
0100
0000
0010
0001
0010
0001
,  // measure 34
0000
0010
0100
0000
1000
0100
1000
0100
,  // measure 35
1000
0010
0100
0000
0010
1000
0000
0101
,  // measure 36
0000
0001
1000
0000
0100
0010
0100
1000
,  // measure 37
0000
0100
0010
0001
0000
0010
0100
1000
,  // measure 38
0001
0000
0100
0000
0010
1000
0010
0000
,  // measure 39
0100
0000
0010
0000
0100
0000
0001
0000
1000
0000
0001
0000
,  // measure 40
0200
0300
0002
0003
,  // measure 41
0010
0000
0000
0000
0100
0000
0000
0000
0010
0000
0000
0000
0100
0000
0000
0000
0000
0000
1000
0000
0000
0100
0000
0000
,  // measure 42
2000
3000
0200
0300
,  // measure 43
2000
3001
0100
0001
,  // measure 44
0020
0030
0200
0300
,  // measure 45
0010
0001
0000
1000
0000
0001
0100
0000
,  // measure 46
0001
0000
1000
0000
0100
0001
0000
0100
,  // measure 47
0000
0010
0000
0001
0000
1000
0001
0000
,  // measure 48
0100
0000
0010
0000
1000
0010
1000
0010
,  // measure 49
1000
0000
0100
0000
0010
0001
0010
0001
,  // measure 50
0020
0000
0031
0000
0100
0010
0100
0010
,  // measure 51
0100
0000
0010
0000
1000
0001
1000
0001
,  // measure 52
1000
0100
0001
0000
0000
0001
0100
0010
,  // measure 53
0000
0100
0010
0100
0000
0010
0001
1000
,  // measure 54
0000
0010
0100
0001
0000
0100
0001
1000
,  // measure 55
0100
0000
0010
0001
0000
0010
0001
0000
,  // measure 56
1002
0000
0000
0000
1003
0100
1000
0020
,  // measure 57
0000
0000
0000
0000
0130
0001
0100
0020
,  // measure 58
0000
0000
0000
0000
0130
0001
0100
0001
,  // measure 59
0010
0100
0020
0000
0130
2000
0000
3002
,  // measure 60
0000
0000
0000
0000
1003
0100
1000
0020
,  // measure 61
0000
0130
0001
0020
0000
0130
0010
0001
,  // measure 62
2000
0000
3002
0000
0103
0001
0000
0200
,  // measure 63
0000
0310
0100
0001
1000
0100
0010
0100
,  // measure 64
2000
0000
3100
0000
0010
0001
0010
0200
,  // measure 65
0000
0000
0000
0000
0310
0001
1000
0002
,  // measure 66
0000
0000
0000
0003
0001
0100
0001
1000
,  // measure 67
0100
0010
0100
0000
1000
0010
0000
0200
,  // measure 68
0000
0000
0000
0000
0310
0100
0000
0001
,  // measure 69
0000
1000
0100
0010
0000
0010
0100
1000
,  // measure 70
0002
0000
0103
0000
0001
1000
0100
0010
,  // measure 71
0100
0000
0100
0000
0010
0000
0010
0000
0001
0000
1000
0000
,  // measure 72
0220
0000
0000
0000
,  // measure 73
0330
0000
0000
0000
;

//---------------dance-single - ----------------
#NOTES:
     dance-single:
     :
     Easy:
     3:
     0.262,0.416,0.109,0.201,0.000:
0000
0000
0000
0000
,
0000
0000
0000
0000
,
0000
0000
0000
0000
,
0001
0000
1000
0000
,
0001
1000
0001
0000
,
0100
0000
0010
0000
,
0100
0010
0100
0000
,
0001
0000
0100
0000
,
0010
0000
1000
0100
,
0010
0000
0100
0000
,
1000
1000
0001
0001
,
0100
0000
0001
0000
,
0010
0000
0000
0001
,
1000
0000
0100
0000
,
1000
0010
1000
0010
,
0100
0000
0001
0000
,
0010
0000
0100
0000
,
0010
0000
0001
0000
,
0100
0100
0001
0001
,
1000
0000
0100
0000
,
1000
0000
0001
0000
,
0100
0000
0001
0000
,
1000
0100
0010
0001
,
1000
0000
0100
1000
,
0010
0000
0100
0001
,
0010
0000
0100
1000
,
0010
0100
0010
0100
,
0001
0000
1000
0100
,
1000
0001
0100
0001
,
1000
0000
0100
0010
,
0001
0010
0001
0100
,
0010
0000
0100
0000
,
0001
0000
1000
0000
,
0100
0000
1000
0000
,
0010
0010
0100
0000
,
0001
0000
0001
0000
,
0100
0000
0001
0000
,
1000
0000
0100
0000
,
2002
0000
0000
0000
0000
0000
0003
3000
,
0002
0000
0203
0000
,
0020
0000
0330
0100
,
0001
0000
1000
0000
,
0100
1000
0010
0100
,
0002
0000
2003
0000
,
3200
0000
2300
0000
,
3010
0010
1000
1000
,
0001
0100
0010
0100
,
0101
0000
0022
0033
,
1100
0000
2020
3030
,
1001
0000
0202
0303
,
1001
0000
2020
3030
,
1001
0101
0000
0001
,
0100
0001
0000
0100
,
0010
1000
0100
0001
,
0100
0100
0010
0010
,
0210
0000
0310
0001
,
2000
3000
0001
0100
,
0002
0003
0100
0001
,
0010
0100
0010
0001
,
2000
3000
0001
0100
,
0001
1000
0100
0010
,
0200
0300
0100
0000
,
0010
0000
0001
0000
,
1000
0100
0010
0000
,
0100
1000
0010
0000
,
0100
0001
0010
0000
,
0100
0010
0001
1000
,
0010
0000
1000
0000
,
0001
0000
0010
0000
,
0100
0000
1000
0000
,
0202
0000
0000
0000
,
0303
0000
0000
0000
;

//---------------dance-single - ----------------
#NOTES:
     dance-single:
     :
     Beginner:
     1:
     0.145,0.208,0.050,0.025,0.000:
0000
0000
0000
0000
,
0000
0000
0000
0000
,
0000
0000
0000
0000
,
0001
0000
0000
0000
,
1000
0000
0000
0000
,
0001
0000
0000
0000
,
1000
0000
0000
0000
,
0010
0000
0100
0000
,
0010
0000
0000
0000
,
1000
0000
1000
0000
,
0100
0000
0000
0000
,
1000
0000
0010
0000
,
0100
0000
0000
0000
,
0001
0000
0001
0000
,
0001
0000
0000
0000
,
0001
0000
0010
0000
,
0100
0000
0000
0000
,
0001
0000
1000
0000
,
0100
0000
0000
0000
,
1000
1000
0000
0000
,
0001
0000
0000
0000
,
0100
0000
0001
0000
,
1000
0000
0100
0000
,
1001
0000
0001
0000
,
0000
0000
1000
0000
,
0000
0000
0001
0000
,
0100
0000
0001
0000
,
1000
0000
0100
0000
,
0000
0100
0000
0010
,
0010
0000
0001
0000
,
0000
0000
0000
0000
,
0100
0000
0001
0000
,
1000
0000
0100
0000
,
1000
0000
0001
0000
,
0100
0100
0100
0000
,
0010
0000
0100
0000
,
0000
0000
0000
0001
,
0001
0000
0100
0000
,
1001
0000
0000
0000
,
0010
0000
0100
0000
,
0002
0000
0003
0000
,
1000
0000
1000
0000
,
0100
0000
0000
0000
,
1000
0000
0010
0000
,
0100
0000
0000
0000
,
0001
0001
0001
0000
,
1000
1000
1000
0000
,
0010
0000
0200
0300
,
0010
0000
0200
0300
,
0001
0000
0100
0000
,
0001
0000
0000
0000
,
1000
1000
0000
0000
,
0100
0000
0000
0000
,
1000
0000
0100
0000
,
0010
0010
0001
0001
,
1001
0000
0000
0000
,
0001
0000
0000
0000
,
0100
0000
0000
0000
,
0001
0000
1000
0000
,
0100
0000
1000
0000
,
1000
0000
0100
0010
,
0001
0000
0000
0000
,
0100
0000
0001
0000
,
1000
0000
0000
0000
,
0100
0000
0000
0000
,
1000
0000
0000
0000
,
0010
0000
0100
0000
,
0001
0000
0000
0000
,
0100
0000
0000
0000
,
0001
0000
1000
0000
,
0110
0000
1001
0000
,
0110
0000
0000
0000
;
