#TITLE:Thor's Hammer;
#SUBTITLE:;
#ARTIST:ユニバーサル度胸兄弟;
#TITLETRANSLIT:;
#SUBTITLETRANSLIT:;
#ARTISTTRANSLIT:Universal Dokyou Kyoudai;
#CREDIT:;
#BANNER:Thor's Hammer.png;
#BACKGROUND:Thor's Hammer-background.png;
#JACKET:Thor's Hammer-jacket.png;
#LYRICSPATH:;
#CDTITLE:;
#MUSIC:2-08 Thor's Hammer.mp3;
#OFFSET:-1.728;
#SAMPLESTART:23.320;
#SAMPLELENGTH:12.000;
#SELECTABLE:YES;
#BPMS:0.000=300.000,330.000=450.000,339.000=600.000,363.000=150.000,372.000=300.000;
#STOPS:372.000=1.000
,468.000=0.200
,474.000=0.400
,475.000=0.400
;
#BGCHANGES:;

//---------------dance-single - ----------------
#NOTES:
     dance-single:
     :
     Hard:
     12:
     0.924,1.000,0.846,0.056,0.113:
1000
0000
0100
0000
,
0010
0000
0001
0000
,
0011
0000
1100
0000
,
0101
0000
1010
0000
,
1001
0000
0000
0001
0010
0000
0000
0010
,
0100
0000
0000
0100
1000
0000
0000
1000
,
1010
0000
0101
0000
,
0011
0000
1100
0000
,
1000
0100
0010
0001
2000
0000
0000
0000
,
3001
0010
0100
1000
0002
0000
0000
0000
,
1003
0100
0010
0001
2000
0000
0000
0000
,
3001
0010
0100
1000
0002
0000
0000
0000
,
1003
0100
0000
0001
0000
0100
0000
1000
,
0000
0010
0000
0001
0000
0010
0000
0100
,
0001
0100
0010
1000
0001
0010
0100
0010
,
0001
1000
0010
0100
0001
0010
0100
1000
,
0001
0100
0001
0100
0001
0100
0001
0100
0001
0100
0001
0100
,
0001
0100
0001
0100
0001
0100
0001
0100
0001
0100
0001
0100
,
0001
0010
0010
0000
,
0010
0010
0000
0010
,
0010
0000
0010
0001
,
0100
1000
0100
0001
,
0100
1000
0100
0001
,
0100
1000
0100
0001
,
0100
0000
0010
0100
0010
0000
1000
0001
,
1000
0000
0010
0100
0010
0000
0001
1000
,
0001
0000
0010
0100
1000
0000
0010
0100
,
0101
0000
0001
0100
,
1000
0100
0010
0010
,
0100
0001
0001
1000
,
1100
0000
1000
0100
,
0100
0010
1000
0010
,
0010
0001
1000
0000
0001
0000
0100
0000
,
0101
0000
0001
0010
,
0010
0001
1000
1000
,
0100
0001
0100
0010
,
0110
0000
0010
0100
1000
0000
1010
0000
,
1000
0010
0100
0000
0101
0000
0000
0000
,
0001
1000
0001
1000
0001
1000
0001
1000
,
1100
0100
0010
0011
,
0001
0100
0110
0010
,
1000
1010
0101
1001
,
0011
0001
0010
0110
,
0100
1000
1100
0011
,
0001
0100
0001
0010
0100
1000
0100
0010
,
0001
1000
0001
1000
0001
0100
0001
0100
,
0001
0100
0010
0100
0010
1000
0010
0100
,
0001
0010
0100
0010
0001
1000
0010
1000
,
0100
0000
0100
0010
0001
0000
0010
0000
,
0100
1000
0010
0000
0100
0000
0001
1000
,
0100
0000
0010
0000
0001
0100
0010
0000
,
1001
0000
0000
0000
,
0000
0000
0101
0101
,
0110
1001
1001
0101
,
1100
1100
0000
0000
,
0000
0000
1100
0110
,
1100
1001
0101
1001
,
0101
0101
0000
0000
,
0000
0000
0101
0101
,
1001
0101
0101
1001
,
1001
0000
0001
0010
0100
0000
1100
0000
,
1000
0100
0010
0000
0011
0000
0001
0010
,
0100
0000
1100
0000
1000
0010
0100
0000
,
0100
0000
0000
0010
0000
0000
1000
0000
0000
0001
0000
0000
1000
0000
0001
0000
1000
0000
0001
0000
0000
0000
0000
0000
,
0100
0110
0101
0011
,
0110
1100
1001
0101
,
1001
1100
0000
1100
,
0110
0011
0110
0011
,
0101
1010
0011
0101
,
1001
1100
0000
1000
,
0001
0000
0100
0010
1000
0001
0010
0100
,
0010
0001
1000
0010
1000
0100
0010
0001
,
0010
0010
0001
0100
,
0010
1000
0001
0010
0100
0010
0001
1000
,
0100
0010
0100
1000
0010
0100
0001
1000
,
0001
0010
0100
0010
0001
0100
0010
1000
,
0001
0010
0100
0010
0001
0100
0010
1000
,
0001
0010
0100
0010
0001
1000
0001
1000
,
0001
1000
0001
1000
0001
1000
0001
1000
,
0001
1000
0001
1000
0001
1000
0001
1000
,
0001
1000
0001
1000
0001
1000
0001
1000
,
0001
1000
0001
1000
0001
1000
0001
1000
,
0001
0000
1000
0000
0001
0000
1000
0000
0001
0000
0000
1000
0000
0000
0001
0000
,
0000
1000
0000
0000
0001
0000
0000
1000
0000
0000
0001
0000
0000
1000
0000
0000
,
0001
0000
0000
1000
0000
0000
0001
0000
0000
1000
0000
0000
0001
0000
0000
0000
,
1000
0001
1000
0001
,
1000
0001
1000
0001
,
1000
0001
1000
0001
,
1000
0001
1000
0001
,
1000
0001
1000
0001
,
1000
0001
1000
0001
,
0000
0101
0000
0000
1010
0000
0000
1100
,
0000
0000
0100
0000
0000
0010
0000
0000
,
1001
0101
0000
0001
,
0100
0100
0010
1000
,
1000
0010
0100
0001
,
0010
0100
0000
0010
,
0001
0001
0010
1000
,
0010
0000
0100
1000
0010
0000
0010
0000
,
0010
0100
0000
0001
,
0100
1000
0100
0010
,
0010
0100
0001
0010
,
0100
0000
1000
0100
0010
0001
1000
0100
,
0010
0001
1000
0100
0010
0001
1000
0010
,
0100
0001
1000
0001
0100
0010
1000
0001
,
0100
0010
1000
0000
0000
0000
0001
0000
,
1000
0001
0100
0000
0010
1000
0001
0010
,
0100
0000
1000
0001
1000
0100
1000
0000
,
0100
0010
0001
1000
0001
0000
1100
0000
,
0100
0010
0001
0000
0010
0001
0100
0010
,
1000
0000
0100
0010
0001
0010
0001
0000
,
0010
0100
1000
0010
1000
0000
1001
0000
,
0001
0100
0010
0000
0100
0001
0010
0100
,
1000
0000
1001
0000
0001
0100
0010
0000
,
1000
0100
0010
0001
1000
0000
1001
0000
,
0010
0100
0010
0000
1001
0000
0010
0100
,
0010
0000
0100
0001
0100
0001
0100
0001
,
1000
1100
0011
0101
,
1001
1100
0011
1100
,
2002
0000
0000
0000
,
0000
0000
0000
0000
,
0000
0000
0000
0000
,
3003
0000
0000
0000
;

//---------------dance-single - ----------------
#NOTES:
     dance-single:
     :
     Medium:
     9:
     0.673,0.917,0.536,0.150,0.000:
1000
0000
0100
0000
,
0010
0000
0001
0000
,
0011
0000
1100
0000
,
0101
0000
1010
0000
,
0001
0000
0010
0000
,
0100
0000
1000
0000
,
1100
0000
0011
0000
,
0101
0000
1010
0000
,
1000
0001
0200
0000
,
0301
0010
0200
0000
,
0310
0001
2000
0000
,
3001
1000
0200
0000
,
1300
0100
0000
0010
0000
0100
0000
1000
,
0000
0010
0000
0100
0000
0001
0000
1000
,
0000
0001
0000
0010
0000
0100
0000
1000
,
0000
0100
0000
0010
0000
0001
0000
1000
,
0010
0100
0010
1000
,
0001
0000
0010
0000
0100
0000
1000
0001
,
1000
0100
0100
0000
,
0100
0100
0000
0100
,
0100
0000
0100
0100
,
0010
0001
0010
0001
,
0010
0001
0010
0001
,
0010
0001
0010
0001
,
0010
0000
0001
0000
,
0100
0000
1000
0000
,
0100
0000
0010
0000
,
0100
0000
0001
0100
,
0010
1000
0100
0010
,
0100
1000
0010
0100
,
0101
0000
0001
0100
,
0100
0010
1000
0000
,
0010
1000
0010
0000
0100
0000
0001
0000
,
1000
0000
1000
0100
,
0001
0100
0010
0001
,
0010
0001
0010
0100
,
1100
0000
0000
0011
,
0000
0000
1001
0000
,
0001
1000
0010
1000
,
0001
0100
0010
1000
,
0001
0100
1000
0100
,
0010
0100
0001
0010
,
0100
0010
0001
1000
,
0100
0010
0100
1000
,
0010
0100
0001
0010
,
0010
0001
0100
0010
,
0100
0010
1000
0001
,
0100
0010
1000
0001
,
0101
0000
0000
1100
,
0000
0000
1001
0000
,
0000
0101
0000
0000
,
2002
0000
0000
0000
,
3003
0000
0101
0101
,
1010
1010
0101
0101
,
1010
1010
0000
0000
,
0000
0000
1100
1100
,
0011
1100
1100
0011
,
1100
1100
0000
0000
,
0000
0000
1001
1001
,
0110
1001
1001
0110
,
1001
0000
0001
0100
0001
0000
1001
0000
,
1000
0100
1000
0000
1001
0000
0001
0100
,
0001
0000
1001
0000
1000
0100
1000
0000
,
1000
0001
0200
0320
,
1030
0100
0010
0100
,
1000
0010
0001
0010
,
0100
0000
0001
0000
2002
3003
0001
0000
,
0100
0010
1000
0100
,
0010
0100
1000
0010
,
0100
0100
0000
0010
,
0100
0000
0100
0000
0001
0100
0010
0000
,
0100
0010
1000
0000
0001
1000
0100
0000
,
0000
1000
0001
0100
,
0010
0000
1000
0000
0001
0000
1000
0010
,
0100
0000
0010
0000
1000
0000
0001
0010
,
0100
0000
0100
0000
1000
0000
0001
1000
,
0010
0000
0100
0000
0001
0000
0010
0100
,
1000
0000
0001
0000
0100
0010
1000
0000
,
0001
1000
0001
1000
,
0001
1000
0001
1000
,
0001
1000
0001
1000
,
0001
1000
0001
1000
,
0001
0000
1000
0000
0001
0000
0000
1000
,
0000
0000
0001
0000
0000
1000
0000
0000
,
0001
0000
0000
1000
0000
0000
0001
0000
,
0000
1000
0000
0001
,
0000
1000
0000
0001
,
0000
1000
0000
0001
,
0000
1000
0000
0001
,
0000
1000
0000
0001
,
0000
1000
0000
0001
,
0000
0100
0000
0000
0010
0000
0000
1000
,
0000
0000
0010
0000
0000
0100
0000
0000
,
1001
0000
0220
0000
0000
0330
0100
0000
,
0001
0010
0001
0100
,
0010
1000
0100
0001
,
0100
0010
0000
0100
,
0010
0001
0100
0010
,
0000
0000
0010
1000
0001
0000
1000
0000
,
0100
2000
0000
0100
,
3200
0000
0010
0310
,
0001
0100
0010
1000
,
0001
1000
0100
0010
,
0001
1000
0100
0010
,
0001
0010
0100
1000
,
0001
1001
0000
0001
,
0100
0010
0100
0000
0010
0000
1000
0010
,
1000
0000
0010
0000
0100
0001
0100
0000
,
0001
0000
1000
0100
1000
0000
0010
0000
,
0100
0001
0100
0000
0010
0000
1000
0010
,
0100
0000
0010
0000
0100
0001
0010
0000
,
0001
0010
0100
1000
0001
0000
1000
0000
,
0010
1000
0100
0000
1000
0100
0010
0001
,
1000
0000
0001
0000
1000
0010
0100
0000
,
0010
1000
0001
0010
0001
0000
1001
0000
,
0010
0100
0010
0000
0110
0000
1000
0001
,
1000
0000
0001
0100
0010
1000
0100
0010
,
0001
1100
0101
0101
,
1100
0101
1010
0011
,
2002
0000
0000
0000
,
0000
0000
0000
0000
,
0000
0000
0000
0000
,
3003
0000
0000
0000
;

//---------------dance-single - ----------------
#NOTES:
     dance-single:
     :
     Easy:
     7:
     0.525,0.573,0.226,0.047,0.000:
1000
0000
0100
0000
,
0010
0000
0001
0000
,
0011
0000
0011
0000
,
1100
0000
1100
0000
,
1001
0000
0001
0000
,
0100
0000
0001
0000
,
1001
0000
0110
0000
,
1001
0000
0110
0000
,
0001
0100
0010
0000
,
0100
0010
1000
0000
,
1000
0100
0010
0000
,
0010
0100
1000
0000
,
0001
0100
0010
1000
,
0001
0100
0010
1000
,
0001
0100
0001
0100
,
0010
0100
0010
0100
,
0010
1000
0010
0100
,
0010
1000
0001
0010
,
0100
0000
0000
0000
,
0000
0000
0000
0000
,
0000
0000
0000
0000
,
1000
0001
1000
0001
,
1000
0001
1000
0001
,
1000
0001
1000
0001
,
1000
0001
1000
0001
,
1000
0001
1000
0001
,
1000
0001
0010
0100
,
1000
0000
0100
1000
,
0010
0100
0001
1000
,
0010
1000
0100
1000
,
0010
0000
0100
0010
,
1000
0001
0010
0000
,
0100
0100
0010
0001
,
1000
0000
0001
0100
,
0001
1000
0100
1000
,
0010
1000
0010
0100
,
0110
0000
0000
1001
,
0000
0000
0110
0000
,
0000
0000
0000
0000
,
0010
0001
0100
0010
,
1000
0010
0100
0010
,
1000
0001
0010
0100
,
0010
0001
1000
0010
,
0100
0001
1000
0000
,
0001
0100
0100
0001
,
0110
0000
0010
1000
,
0010
0100
0010
1000
,
0001
0010
0100
1000
,
1001
0000
0000
0110
,
0000
0000
0101
0000
,
0000
1010
0000
0000
,
0101
0000
0000
0000
,
0000
0000
0001
0100
,
0010
1000
0001
0100
,
0010
1000
0000
0000
,
0000
0000
1000
0100
,
0010
0001
0010
0100
,
1000
0001
0000
0000
,
0000
0000
0001
0100
,
0010
1000
0010
0100
,
0001
1000
1000
0100
,
0010
0010
0100
1000
,
1000
0100
0010
0010
,
0100
0000
1000
0010
,
0000
0100
0001
0001
,
0100
0100
0010
0010
,
1000
1000
0000
0010
,
0010
0010
0010
0100
,
0100
0001
0001
1000
,
1000
1000
0000
0001
,
0100
0010
1000
0010
,
0100
0002
0000
0000
,
0000
1000
1003
0000
,
0001
0100
0010
1000
,
0100
1000
0010
0100
,
0010
1000
0001
0010
,
0100
0010
0001
1000
,
0010
0100
0001
1000
,
0001
1000
0001
1000
,
0001
1000
0001
1000
,
0001
1000
0001
1000
,
0001
1000
0001
1000
,
0001
1000
0002
0000
,
0000
0000
0000
0000
,
0000
0000
0000
2000
,
0000
0000
0000
0000
,
0000
0000
0000
0000
,
0000
0000
0000
0000
,
0000
0000
0000
0000
,
0000
0000
0000
3003
,
0000
0000
0000
0010
,
0000
0100
0000
0000
0010
0000
0000
0100
,
0000
0000
0110
0000
0000
1001
0000
0000
,
0110
1001
0000
0001
,
0100
0100
0001
1000
,
1000
0100
0010
0100
,
1000
0001
0000
0100
,
0001
0001
0010
0100
,
0000
0010
0001
0010
,
0010
0001
0000
0100
,
0010
0000
1000
0010
,
0100
0001
1000
0100
,
0010
0001
0001
0010
,
0010
0100
0100
1000
,
1000
0100
0100
0010
,
0010
0011
0000
0001
,
0100
0100
0001
1000
,
1000
0100
0010
0010
,
0100
1000
0010
0100
,
0001
0001
0100
0010
,
0010
0100
0001
0001
,
1000
0100
0100
1000
,
0010
0100
0001
1000
,
0010
1000
0100
0010
,
0100
1000
0010
0100
,
0001
1000
0100
0010
,
0100
1000
0010
0100
,
0001
0100
0010
0010
,
0100
0010
0100
0010
,
2002
0000
0000
0000
,
0000
0000
0000
0000
,
0000
0000
0000
0000
,
3003
0000
0000
0000
;

//---------------dance-single - ----------------
#NOTES:
     dance-single:
     :
     Beginner:
     4:
     0.268,0.559,0.291,0.000,0.000:
0000
0000
0000
0000
,
0000
0000
0000
0000
,
1001
0000
1001
0000
,
1001
0000
1001
0000
,
0000
0000
0000
0000
,
0000
0000
0000
0000
,
0110
0000
0110
0000
,
0110
0000
0110
0000
,
1001
0000
0000
0000
,
0110
0000
0000
0000
,
1001
0000
0000
0000
,
0110
0000
0000
0000
,
0001
0000
0001
0000
,
1000
0000
1000
0000
,
0010
0000
0010
0000
,
0100
0000
0100
0000
,
0010
0000
0100
0000
,
0001
0000
1000
0000
,
1001
0000
0000
0000
,
0000
0000
0000
0000
,
0000
0000
0000
0000
,
0000
0000
0000
0000
,
0000
0000
0000
0000
,
0000
0000
0000
0000
,
0000
0000
0000
0000
,
0000
0000
0000
0000
,
0000
0000
0000
0000
,
0001
0000
0000
1000
,
0000
0000
0100
0000
,
0000
1000
0000
0000
,
0010
0000
0000
0100
,
0000
0000
0010
0000
,
0000
0100
0100
0100
,
0010
0000
0000
0100
,
0000
0000
0001
0000
,
0000
1000
0000
0000
,
1001
0000
0000
0110
,
0000
0000
1001
0000
,
0000
0000
0000
0000
,
0001
0000
0000
0100
,
0000
0000
0010
0000
,
0000
0100
0000
0000
,
0001
0000
0000
1000
,
0000
0000
0100
0000
,
0000
1000
0001
1000
,
0001
0000
0000
0100
,
0000
0000
0010
0000
,
0000
1000
0000
0000
,
0110
0000
0000
0000
,
0000
0000
1001
0000
,
0000
0000
0000
0000
,
0110
0000
0000
0000
,
0000
0000
0001
1000
,
0001
1000
0001
1000
,
0001
1000
0000
0000
,
0000
0000
0010
0100
,
0010
0100
0010
0100
,
0010
0100
0000
0000
,
0000
0000
0001
0100
,
0001
0100
0001
0100
,
0001
0000
0000
0100
,
0000
0000
0010
0000
,
0000
1000
0000
0000
,
0010
0000
0100
0010
,
0000
0010
0100
0000
,
0010
0100
0000
0100
,
0010
0100
0000
1000
,
0001
0000
1000
0000
,
0001
0100
0000
0100
,
0010
0000
0000
0010
,
0000
0000
0100
0000
,
0000
0010
0000
0000
,
1000
0000
0000
0001
,
0001
0000
0000
1000
,
0000
0010
0000
0000
,
0100
0000
0000
0010
,
0000
0000
1001
0000
,
0000
0000
1001
0000
,
0000
0000
0000
0000
,
0000
0000
0000
0000
,
0000
0000
0000
0000
,
0000
0000
0000
0000
,
0000
0000
0001
0000
,
0000
0000
0000
0000
,
0000
0000
0000
1000
,
0000
0000
0000
0000
,
0000
0000
0000
0000
,
0000
0000
0000
0000
,
0000
0000
0000
0000
,
0000
0000
0000
0000
,
0000
0000
0000
1001
,
0000
0000
0000
0000
,
0000
0000
0000
0000
,
0000
0110
0000
0000
,
0010
0000
0000
0100
,
0000
0000
0001
0000
,
0000
1000
0000
0000
,
0100
0000
0000
1000
,
0000
0000
0010
0100
,
0010
0100
0000
0000
,
0001
0000
0000
1000
,
0000
0000
0100
0000
,
0000
1001
0000
0000
,
0110
0000
0000
1001
,
0000
0000
0110
0000
,
0000
1001
0000
0001
,
0001
0000
1000
1000
,
0000
0010
0010
0000
,
0100
0100
0000
0010
,
0010
0000
0100
0100
,
0000
0001
0001
0000
,
1000
1000
0000
0010
,
0010
0000
0100
0100
,
0000
0010
0010
0000
,
1000
1000
0000
0001
,
0000
0000
1000
0000
,
0000
0010
0000
0000
,
0100
0000
0010
0000
,
0000
1000
1001
0110
,
1001
0000
0000
0000
;

//---------------dance-single - ----------------
#NOTES:
     dance-single:
     :
     Challenge:
     13:
     1.000,1.000,1.000,0.319,0.507: // measure 1
1001
0000
0001
0100
0010
0000
0100
0010
,  // measure 2
1000
0000
0001
0010
0100
0000
0100
0010
,  // measure 3
0011
0000
1100
0000
,  // measure 4
0101
0000
1010
0000
,  // measure 5
1001
0000
0001
0100
1000
0000
1000
0100
,  // measure 6
0010
0000
0100
0001
0010
0000
0010
0100
,  // measure 7
1100
0000
0101
0000
,  // measure 8
1001
0000
1100
0000
,  // measure 9
1001
0001
0010
0100
2000
0000
0000
3000
,  // measure 10
1100
0100
0010
0001
0020
0000
0000
0030
,  // measure 11
0011
0010
0100
1000
0002
0000
0000
0003
,  // measure 12
1001
0001
0100
0001
0020
0000
0000
0000
,  // measure 13
0130
0110
0000
0011
0000
0101
0000
1010
,  // measure 14
0000
1100
0000
0110
0000
0011
0000
0101
,  // measure 15
0001
0100
0001
0100
0001
0100
0001
0100
,  // measure 16
0010
1000
0010
1000
0010
1000
0010
1000
,  // measure 17
0010
0100
0010
0100
0010
0100
0010
0100
0010
0100
0010
0100
,  // measure 18
0010
0100
0010
0100
0010
0100
0010
0100
0010
0100
0010
0100
,  // measure 19
0001
0000
1000
0001
1000
0000
0001
0000
,  // measure 20
1000
0001
1000
0000
0001
0000
1000
0001
,  // measure 21
1000
0000
0001
0000
1000
0001
1000
0000
,  // measure 22
0001
0100
1000
0100
0001
0010
1000
0010
,  // measure 23
0001
0100
1000
0100
0001
0010
0100
1000
,  // measure 24
0001
1000
0001
0010
0001
0010
0100
0010
,  // measure 25
0100
0000
0000
1000
0100
0010
0001
0000
0000
0001
0100
0010
,  // measure 26
1000
0000
0000
1000
0010
0100
0001
0000
0000
0001
0010
0100
,  // measure 27
1000
0000
0000
1000
0001
0100
0001
0000
0000
0001
0010
0100
,  // measure 28
2000
3000
1000
1100
,  // measure 29
0011
0001
0101
1001
,  // measure 30
0100
0110
0101
1001
,  // measure 31
1100
0001
0101
1001
,  // measure 32
1100
0110
0011
0011
,  // measure 33
0001
1000
0001
0100
0000
0000
0001
0000
0000
0010
0000
0000
,  // measure 34
0110
0100
1000
1100
,  // measure 35
0100
0010
0110
1100
,  // measure 36
0100
0110
0011
0101
,  // measure 37
1001
0000
0100
0010
1000
0000
0110
0000
,  // measure 38
0100
0001
0010
0000
0110
0000
0000
0000
,  // measure 39
0100
1000
0100
1000
0100
1000
0100
1000
0100
1000
0100
1000
,  // measure 40
0100
0010
0001
0100
0010
1000
0001
0010
,  // measure 41
0100
0010
0001
0100
0010
1000
0001
0100
,  // measure 42
0010
1000
0100
0010
0100
1000
0001
0100
,  // measure 43
0001
0010
0001
0100
0010
1000
0100
0010
,  // measure 44
0001
1000
0001
0100
0001
0010
0100
1000
,  // measure 45
0001
0100
0010
1000
0010
1000
0010
1000
,  // measure 46
0010
0100
0001
0010
0001
0100
0010
1000
,  // measure 47
0100
0010
0100
1000
0100
0010
0100
1000
,  // measure 48
0001
1000
0001
0100
0010
1000
0001
0010
,  // measure 49
0100
0000
0100
1000
0010
0000
0110
0000
,  // measure 50
0100
0000
0000
0001
0000
0000
0010
0000
0000
0000
0000
0000
0110
0000
0000
0000
0000
0000
1000
0000
0001
0000
1000
0000
,  // measure 51
0001
0000
0000
0110
0000
0000
0001
1000
0001
1000
0000
0000
,  // measure 52
0110
0000
0000
0000
,  // measure 53
0000
0000
1001
0101
,  // measure 54
0011
0110
1100
0101
,  // measure 55
1010
0000
1001
0000
0001
0100
0001
0100
,  // measure 56
0001
0100
0001
0100
0101
0000
1010
0000
,  // measure 57
0011
1010
1100
0101
,  // measure 58
0011
0000
1001
0000
1000
0100
1000
0100
,  // measure 59
1000
0100
1000
0100
1100
0000
0110
0000
,  // measure 60
0011
0101
1010
0101
,  // measure 61
0110
0000
0100
0001
0010
0000
0110
0000
,  // measure 62
0100
1000
0010
0000
0110
0000
0100
0001
,  // measure 63
1000
0000
1001
0000
0001
0100
0001
0000
,  // measure 64
1000
0000
0000
0001
0000
0000
0010
0000
0000
0001
0000
0000
0100
0000
0010
0000
1000
0000
0001
0000
0000
0000
0000
0000
,  // measure 65
1000
1100
0011
0101
,  // measure 66
1010
1001
0101
0011
,  // measure 67
1100
0000
0000
1001
0000
0000
0001
0100
0001
0100
0000
0000
,  // measure 68
0110
1010
0101
0011
,  // measure 69
1001
1100
0101
0011
,  // measure 70
1010
1001
0000
0001
,  // measure 71
0101
0000
1010
0000
1000
0010
0100
0001
,  // measure 72
1000
0000
0000
0001
0000
0000
1000
0000
0010
0000
1000
0000
0010
0000
0100
0000
0010
0000
1000
0000
0001
0000
0010
0000
,  // measure 73
0001
0000
1000
0001
1000
0000
0001
0000
,  // measure 74
1010
0000
0101
0000
0001
0100
0010
1000
,  // measure 75
0001
0000
0000
1000
0000
0000
0001
0000
0100
0000
0001
0000
0100
0000
0010
0000
0100
0000
0001
0000
1000
0000
0100
0000
,  // measure 76
1000
0000
0000
1000
0100
0010
0001
1000
0100
0010
0001
0010
,  // measure 77
0100
1000
0100
0010
0001
0010
0100
0000
0000
1000
0010
0100
,  // measure 78
0001
0000
0010
0000
0100
0000
1000
0000
0100
0000
0010
0000
0001
0000
0000
1000
0000
0000
0001
0000
0000
1000
0000
0000
,  // measure 79
0001
1000
0001
1000
0001
1000
0001
1000
,  // measure 80
0001
1000
0001
1000
0001
1000
0001
1000
,  // measure 81
0001
1000
0001
1000
0001
1000
0001
1000
,  // measure 82
0001
1000
0001
1000
0001
1000
0001
1000
,  // measure 83
0001
1000
0001
1000
0001
1000
0001
1000
,  // measure 84
0001
1000
0001
1000
0001
1000
0001
1000
,  // measure 85
0001
0000
0000
1000
0000
0000
0001
0000
0000
1000
0000
0000
0001
0000
0000
1000
0000
0000
0001
0000
0000
0000
0010
0000
,  // measure 86
0000
0100
0000
1000
0000
0001
0000
0010
0000
0100
0000
1000
,  // measure 87
0000
0010
0000
0000
0100
0000
0001
0000
1000
0000
0010
0000
,  // measure 88
0100
0000
0001
0000
1000
0000
0100
0000
0010
0000
0001
0000
,  // measure 89
1000
0000
0100
0000
0010
0000
0100
0000
1000
0000
0100
0000
,  // measure 90
0010
0000
0001
0000
0010
0000
0100
0000
0010
0000
0001
0000
,  // measure 91
0010
0000
0000
0000
0100
0000
0000
0000
1000
0000
0000
0000
0001
0000
0000
0000
1000
0000
0001
0000
0000
0100
0001
0100
,  // measure 92
0001
0000
0000
0100
0000
0000
0010
1000
0010
1000
0000
0000
0100
0000
0000
0010
1000
0010
1000
0000
0000
1000
0000
0000
,  // measure 93
0001
0100
0001
0100
0000
0000
0010
0100
0000
0000
0000
0000
0000
0000
0000
0010
1000
0000
0000
0000
0000
0000
0000
0000
,  // measure 94
0101
0000
2002
0000
3003
0000
0001
0100
,  // measure 95
0010
1000
0100
0010
0100
1000
0010
0100
,  // measure 96
0001
1000
0100
1000
0001
0100
0001
1000
,  // measure 97
0001
0010
0200
0000
0000
0000
0310
0001
,  // measure 98
0010
0100
0010
0001
0100
0010
1000
0001
,  // measure 99
0010
0100
0010
0001
0100
0001
1000
0100
,  // measure 100
0010
0001
2000
0000
0000
0000
3001
0000
,  // measure 101
0200
0000
0310
1000
,  // measure 102
0010
0100
0001
0000
0010
0000
0100
1000
,  // measure 103
0010
0000
1000
0100
0010
0001
0010
0100
,  // measure 104
1000
0100
0010
0001
0010
0100
1000
0100
,  // measure 105
0010
0001
0010
0100
1000
0100
0010
0001
,  // measure 106
0010
0100
1001
0000
0000
0000
0102
0000
,  // measure 107
0013
0100
1000
0000
1000
0100
1000
0010
,  // measure 108
0200
0000
0301
0100
0010
1000
0002
0000
,  // measure 109
0013
0100
0010
0001
1000
0000
1002
0000
,  // measure 110
0013
0100
0010
0000
0001
0100
0010
1000
,  // measure 111
0200
0000
0310
0001
0100
0010
2000
0000
,  // measure 112
3001
0010
0100
0010
0001
0000
2001
0000
,  // measure 113
3010
0100
0001
0000
0100
0010
1000
0010
,  // measure 114
1000
0000
0102
0000
0013
0100
1000
0000
,  // measure 115
0100
1000
0010
0100
0001
0000
1001
0000
,  // measure 116
0001
1000
1010
0000
1000
0000
0100
0010
,  // measure 117
0011
0000
0001
0010
0100
0010
0100
1000
,  // measure 118
1001
0000
0202
0303
2020
3030
0220
0330
,  // measure 119
2002
3003
0022
0033
2200
3300
0202
0303
,  // measure 120
2002
0000
0000
0000
,  // measure 121
0000
0000
0000
0000
,  // measure 122
0000
0000
0000
0000
,  // measure 123
3003
0000
0000
0000
;
