#TITLE:The Incredible Star Machine;
#SUBTITLE:;
#ARTIST:halc;
#TITLETRANSLIT:;
#SUBTITLETRANSLIT:;
#ARTISTTRANSLIT:;
#CREDIT:;
#BANNER:The Incredible Star Machine.png;
#BACKGROUND:The Incredible Star Machine-background.png;
#JACKET:The Incredible Star Machine-jacket.png;
#LYRICSPATH:;
#CDTITLE:cdtitle.png;
#MUSIC:The Incredible Star Machine.mp3;
#OFFSET:-6.149;
#SAMPLESTART:15.420;
#SAMPLELENGTH:12.000;
#SELECTABLE:YES;
#BPMS:0.000=155.000,93.000=77.500,99.000=155.000,237.000=121.660,249.000=58.700,254.000=55.180,259.000=50.000,260.500=26.000;
#STOPS:;
#BGCHANGES:;

//---------------dance-single - ----------------
#NOTES:
     dance-single:
     :
     Hard:
     8:
     0.411,0.406,0.054,0.264,0.070:
0001
0100
0100
0001
,
1000
1000
0100
0010
,
0010
0100
0010
0010
,
0001
0100
1000
0100
,
0010
0001
0010
1000
,
0100
0000
0001
0000
0100
0000
0010
0001
,
1000
0000
0000
0000
0000
0000
0001
0000
0000
0100
0000
0000
0000
0000
0000
0100
0000
0000
0010
0000
1000
0000
0001
0000
,
1000
0000
0100
0000
0010
0000
0100
1000
,
0000
0000
0000
0010
0000
0000
0100
0000
0001
0000
1000
0000
0100
0000
0000
0000
0000
0000
1000
0000
0000
0000
0000
0000
,
0001
0000
0000
0000
0000
0000
0100
0000
0000
0010
0000
0000
0000
0000
0000
0100
0000
0000
0001
0000
0010
0000
0100
0000
,
1000
0000
0100
0000
1000
0000
0001
0100
,
0001
1000
0100
0001
,
0100
0000
0020
0000
0032
0000
1003
0001
,
0020
0130
0020
0032
,
1003
0010
2000
0000
3020
0000
0130
0000
,
0100
0002
1003
0100
,
0020
0130
1000
0002
,
2003
0000
3100
0010
0001
0000
0201
0000
,
0000
0000
0310
1000
0002
0000
1000
0000
,
0103
0000
0000
0001
0000
0000
0010
0000
0000
0100
0010
0001
,
1000
0000
0010
0000
2000
0000
0000
3001
,
0000
0100
0020
0000
0130
0000
0002
0000
,
0000
1003
0000
0100
0010
0001
0010
0001
,
0100
0000
1000
0000
0100
0000
0100
0010
1000
0000
0001
0000
0100
0000
0001
0000
,
0020
0000
0000
0000
0000
0000
0200
0000
0000
0000
0000
0330
1001
0000
0000
0000
,
0001
1000
0001
1000
0010
0000
1000
0001
,
0100
0001
1000
0000
0001
1000
0100
0000
,
1000
0001
0100
1000
0100
0010
1000
0001
,
0010
0100
0010
0000
0100
0010
0001
1000
,
0001
0000
0001
1000
0001
0000
0001
1000
,
0100
0010
0100
0010
1000
0010
0001
0100
,
1000
0000
1000
0000
1000
0100
0010
0001
,
2000
0000
0200
0000
,
0000
3300
1000
0000
0010
0100
0010
0000
,
1000
0000
0001
0010
0001
0000
1000
0000
,
0001
0010
0100
0000
0010
0000
0001
0100
,
0010
1000
0100
0001
,
0100
0010
0001
0010
,
1000
0010
0100
1000
,
0100
0001
0100
1000
,
0010
0100
1000
0100
,
0001
0010
0100
1000
,
0001
0000
1000
0000
0100
1000
0000
0010
,
0100
0001
1000
0001
0000
0000
1000
0000
0000
0001
0000
0000
,
0010
0000
0000
0100
0000
0000
0000
0000
0000
1000
0000
0000
0001
0000
0100
0000
0001
0000
2000
0000
0000
0000
0000
0000
,
3001
0000
0100
0000
0010
1000
0000
0100
,
0010
0100
1000
0001
0000
0000
0001
0000
0000
1000
0000
0000
,
0100
0010
0001
0000
0010
0000
1100
0000
,
0100
1000
0002
0023
,
0130
0010
0001
0000
1001
0000
0002
0000
,
2003
0000
3010
1000
0200
0000
0320
0000
,
0031
0020
0130
0200
,
1300
2000
0001
3100
,
1000
0010
0010
0000
0100
0001
1001
0000
,
0002
0000
0000
0000
0013
0100
2000
0000
,
0001
3100
1000
0010
,
0100
0001
1000
0100
0000
0000
0010
0000
0000
0200
0000
0000
,
0000
1000
0000
0010
0310
0000
0100
0000
,
0020
0000
0000
0001
0000
0100
0130
1000
,
1001
0000
0000
0000
0000
0000
0000
0000
0000
1001
0000
0000
0000
0000
0000
0000
1000
0000
0000
0000
0001
0000
0000
0000
0100
0000
0000
0000
0000
0000
0000
0000
,
0001
0010
0100
0010
,
0000
0000
0000
0000
,
0000
0000
0001
1000
0010
0100
0010
1000
,
0001
0010
0001
1000
0010
1000
0001
0010
,
0100
0010
0001
1000
0010
1000
0100
0010
,
0100
0010
0000
0000
0100
0000
0000
0000
;

//---------------dance-single - ----------------
#NOTES:
     dance-single:
     :
     Medium:
     5:
     0.329,0.381,0.016,0.070,0.004:
1000
0100
0100
0010
,
0001
0001
0010
0100
,
0100
0010
0001
0001
,
1000
0001
0100
0001
,
1000
0100
1000
0001
,
0010
0001
1000
0010
,
0100
0000
0001
0100
0000
0100
0010
1000
,
0010
0000
0100
0000
0001
0000
1000
0001
,
0000
0001
0010
0100
0010
0000
0100
0000
,
1000
0000
1000
0100
0000
0100
0010
0100
,
1000
0000
0001
0000
0100
0000
0001
0100
,
0001
0100
0010
1000
,
1001
0000
0001
0000
0100
0000
0010
1000
,
0200
0310
0010
0001
,
1000
0001
0200
0000
0301
0000
0100
0000
,
1000
0100
0010
1000
,
0001
0010
0100
0010
,
0001
0000
1000
0001
0100
0000
0001
0000
,
0000
0000
0010
0100
1000
0000
0100
0000
,
1000
0000
0010
0000
0100
0000
0001
0100
,
0001
0000
1000
0000
0100
0000
0000
0010
,
0000
0001
0010
0000
0001
0000
0100
0000
,
0000
0100
0000
0010
1000
0000
0001
1000
,
0001
0000
0010
0000
0100
0000
0010
0001
0100
0000
0010
0000
1000
0000
0001
0000
,
0020
0000
0000
0200
0000
0330
1001
0000
,
0001
0100
0001
1000
0001
0000
0001
1000
,
0100
1000
0001
0000
0000
0000
0000
0000
,
0000
0000
0010
0100
0100
0010
1000
0010
,
0100
0010
1000
0000
0100
0010
0100
1000
,
0001
0000
0000
0000
,
0000
0000
0001
0100
0001
0100
0001
0000
,
0100
0000
0010
0000
0010
0100
0001
1000
,
0002
0000
0100
0000
,
0003
0100
0010
1000
,
0001
0010
0100
0010
,
0001
1000
0010
1000
,
0001
0001
0100
1000
,
0100
0001
0100
1000
,
0100
1000
0100
0001
,
0100
0001
0010
1000
,
0010
0001
0010
1000
,
0010
1000
0010
0001
,
0010
0000
0001
0000
0001
0100
0000
0100
,
0010
1000
0010
0000
0100
0000
0010
0000
,
1000
0001
0000
0001
0100
0001
0100
0000
,
0001
0000
0100
0000
0010
0100
0000
0100
,
0010
1000
0010
0000
0100
0000
0001
0000
,
1000
0001
1000
0000
0001
0000
0100
0000
,
0010
1000
0010
0100
,
0001
0010
0100
0000
0000
0000
0100
0000
,
0010
0000
0001
1000
0010
0000
0100
0000
,
0001
1000
0100
1000
,
0010
0100
0001
0010
,
0100
0000
0010
0000
0001
1000
0001
0000
,
0100
0000
0000
0000
0001
0100
1000
0000
,
0100
0010
1000
0010
,
0100
0001
1000
0000
0100
0000
0020
0000
,
0000
0130
0000
0100
1000
0000
0010
0000
,
0200
0000
0000
0301
0000
0001
2000
0000
,
0000
3001
0100
0001
,
1000
0100
1000
0020
,
0000
0000
0000
0000
,
0030
0000
0100
0000
0000
0001
0000
0000
,
1000
0000
0000
0100
0000
0000
0010
0000
,
0000
0001
0000
0000
1000
0001
0100
0001
,
1000
0100
0000
0000
0010
0000
0000
0000
;

//---------------dance-single - ----------------
#NOTES:
     dance-single:
     :
     Easy:
     4:
     0.263,0.279,0.023,0.140,0.000:
1001
0000
0000
0001
,
1000
1000
0100
0000
,
1000
0010
0000
0100
,
0001
0001
1000
0100
,
0000
1000
0010
0100
,
0000
0010
1000
0000
,
0001
0000
0000
1000
0000
0000
0001
0000
,
0100
0000
0001
0000
1000
0000
0000
0100
,
0000
1000
1000
0100
,
1000
0000
0000
0010
0000
0000
0100
0000
,
0100
0001
1000
0100
,
0001
0100
1000
0010
,
0100
0001
0100
0020
,
0130
0000
0100
0001
,
2000
3100
1000
0100
,
1000
0100
1000
0010
,
0100
0001
1000
0100
,
1000
0001
0100
0002
,
0000
1000
1003
0100
,
0010
0100
1000
0020
,
0100
0000
0100
0000
0230
0000
0000
0301
,
0000
0001
1000
0000
0100
0000
0020
0000
,
0000
0031
0000
0001
0020
0000
0000
0000
,
0000
0000
0130
0000
0000
1000
0000
0000
,
0002
0000
0000
2000
0000
3003
1001
0000
,
0001
0100
0001
1000
,
0100
1000
0000
0000
,
0000
0100
1000
0100
,
0010
0001
0010
0010
,
0001
0000
0000
0001
,
0010
0100
0100
0010
,
0001
1000
0100
1000
,
0200
0000
0310
0000
,
0000
0100
0000
0000
,
1000
0000
0001
0100
,
0000
0000
0001
0000
,
0000
1000
0001
0100
,
0001
1000
0100
1000
,
0010
0100
0010
0100
,
0001
1000
0100
1000
,
0001
0100
0001
1000
,
1000
0001
0100
0001
,
0010
0100
0010
0001
,
0100
0100
0001
1000
,
0100
0010
0100
0100
,
1000
0100
1000
0010
,
0100
0100
0010
1000
,
0001
1000
0100
1000
,
0001
1001
0001
0100
,
0020
1030
0000
1000
,
0001
0020
0130
0010
,
0001
0010
0100
0100
,
0010
0001
1000
0010
,
0100
0001
1000
0002
,
0103
0000
0000
0000
0001
1000
0001
0000
,
1000
0100
1000
0010
,
0200
0301
0100
0020
,
0000
0130
0000
0100
0010
0000
1000
0000
,
0002
0000
0000
1003
0000
1000
0200
0000
,
0000
1300
0000
0000
,
0100
0000
0000
0020
,
0000
0000
0000
0000
,
0030
0000
0001
0000
0000
0010
0000
0000
,
0100
0000
0000
1000
0000
0000
0001
0000
,
0000
1000
0000
0000
0001
0000
0000
0100
,
0000
0000
0010
0000
;

//---------------dance-single - ----------------
#NOTES:
     dance-single:
     :
     Beginner:
     2:
     0.124,0.127,0.008,0.000,0.000:
1000
0000
0000
1000
,
0000
0000
0001
0000
,
0000
0100
0000
0000
,
0001
0000
0000
0001
,
0000
0000
1000
0000
,
0000
0100
0000
0000
,
1000
0000
0000
0010
,
0010
0000
0100
0000
,
0000
0001
0001
0000
,
1000
0000
0000
0100
,
0100
0000
1000
0000
,
0000
0001
0000
0000
,
0100
0000
0000
0001
,
0001
0000
1000
0000
,
0100
0100
0010
0000
,
0000
0001
0000
0000
,
0100
0000
0000
0010
,
0000
0000
1000
1000
,
0000
0001
0000
0000
,
0100
0000
0001
1000
,
0000
0000
0001
0000
,
0000
1000
0000
1000
,
0000
0000
0010
0000
,
0000
1001
0000
0000
,
0000
0000
0000
0010
,
0000
0000
1000
0000
,
0100
0100
0000
0000
,
0000
1000
0000
0000
,
0001
0000
0000
0100
,
0100
0000
0000
0000
,
0000
0001
0000
0010
,
0010
0000
0100
0100
,
0000
0000
1000
0000
,
0000
0001
0000
0000
,
0000
1000
0000
1000
,
0000
0000
0010
0000
,
0000
0100
0000
0000
,
0001
0000
0000
1000
,
0000
0000
0100
0000
,
0000
1000
0000
0000
,
0010
0000
0000
0100
,
0000
0000
0001
0000
,
0000
1000
0000
0000
,
0001
0001
1000
0001
,
0000
0000
0100
0100
,
0010
0100
0000
0000
,
0001
0001
0100
0001
,
0000
0000
1000
0000
,
0000
0000
0100
0100
,
0100
0000
0000
0010
,
0010
0010
0000
0001
,
0000
0000
1000
0000
,
0000
0010
0000
0000
,
0100
0100
0000
0001
,
0000
0000
1000
0000
,
0000
0100
0000
0000
,
1000
1000
0000
0010
,
0000
0000
0100
0000
,
0001
0000
0000
1000
,
0000
1000
0000
0000
,
0001
0000
0000
0100
,
0000
0000
0001
0000
,
0000
1000
0000
0000
,
0001
0000
0000
0100
0000
0000
0010
0000
,
0000
0000
0000
0000
1000
0000
0000
0001
,
0000
0000
0100
0000
;

//---------------dance-single - ----------------
#NOTES:
     dance-single:
     :
     Challenge:
     9:
     0.636,1.000,0.171,0.481,0.512: // measure 1
1000
0000
0110
0100
0001
0000
1000
1000
,  // measure 2
0100
0010
0001
1000
0010
0100
0001
0010
,  // measure 3
0001
0000
0000
0000
0000
0000
0010
0000
0000
0100
0000
0000
1000
0000
0000
0010
0000
0000
0100
0010
0100
0010
0100
0000
,  // measure 4
0001
0100
1000
0100
0010
0000
0100
0010
,  // measure 5
1000
0001
0010
0000
0010
0100
1000
0100
,  // measure 6
1000
0000
0000
0000
0000
0000
0000
0000
0000
0000
0000
0000
0100
0000
0000
0000
0000
0000
0010
0000
0000
0000
0000
0000
0001
0000
0000
0000
0000
0000
0100
0000
0000
0000
0000
0000
0010
0000
1000
0000
0010
0000
1000
0000
0000
0010
0000
0000
,  // measure 7
1000
0000
0000
0000
0000
0100
1000
0000
0000
0010
0000
0000
0000
0000
0000
0100
0000
0000
0001
0000
0001
0000
0010
0000
,  // measure 8
0100
0000
0000
0000
0000
0000
1000
0000
0000
0000
0000
0000
0100
0000
0000
0100
0010
0100
0010
0000
0000
0001
0000
0000
,  // measure 9
0000
0000
0000
1000
0000
0000
0001
0000
0100
0000
1000
0000
0100
0000
0000
0000
0000
0000
0010
0000
0000
0000
0000
0000
,  // measure 10
0100
0000
0000
0001
0100
0010
1000
0000
0000
0100
0000
0000
0000
0000
0000
0010
0000
0000
0100
0000
1000
0000
0010
0000
,  // measure 11
0100
0000
0001
0000
2001
0000
3100
0001
,  // measure 12
0200
0000
0320
0000
0031
0100
2000
0000
,  // measure 13
3100
0000
0000
0000
0000
0000
0000
0000
0000
0000
0000
0000
0000
0000
0000
0000
0000
0000
0000
0000
0000
0000
0000
0000
0000
0000
0000
0000
0000
0000
0000
0000
0000
0000
0000
0000
0000
0000
0000
0000
0100
0000
0000
0000
0000
0000
0000
0000
0001
0000
0000
0000
0000
0000
0000
0000
0000
0000
0000
0000
0000
0000
0000
0000
0000
0000
0000
0000
0000
0000
0000
0000
0000
0000
0000
0000
0000
0000
0000
0000
0000
0000
0000
0000
0000
0000
0000
0000
0000
0000
0001
0000
0000
0000
0000
0000
0010
0000
0000
0000
0000
0000
0000
0000
0000
0000
0000
0000
0000
0000
0000
0000
0000
0000
0000
0000
0000
0000
0000
0000
0000
0000
0000
0000
0000
0000
0000
0000
0000
0000
0000
0000
0000
0000
0000
0000
0000
0000
0010
0000
0000
0000
0000
0000
0100
0000
0000
0000
0000
0000
0000
0000
0000
0000
0000
0000
0000
0000
0000
0000
0000
0000
0000
0000
0000
0000
0000
0000
1000
0000
0000
0000
0000
0000
0000
0000
0000
0000
0000
0000
0000
0000
0000
0000
0000
0000
0000
0000
0000
0000
0000
0000
,  // measure 14
0020
0000
0000
0000
0000
0000
0000
0000
0000
0000
0000
0000
0000
0000
0000
0000
0000
0000
0000
0000
0000
0000
0000
0000
0000
0000
0000
0000
0000
0000
0000
0000
0000
0000
0000
0000
0000
0000
0000
0000
0000
0000
0000
0000
0000
0000
0000
0000
0130
0000
0000
0000
0000
0000
0000
0000
0000
0000
0000
0000
0000
0000
0000
0000
0000
0000
0000
0000
0000
0000
0000
0000
0000
0000
0000
0000
0000
0000
0000
0000
0000
0000
0000
0000
0000
0000
0000
0000
0000
0000
0010
0000
0000
0000
0000
0000
1000
0000
0000
0000
0000
0000
0000
0000
0000
0000
0000
0000
0000
0000
0000
0000
0000
0000
0000
0000
0000
0000
0000
0000
0000
0000
0000
0000
0000
0000
0000
0000
0000
0000
0000
0000
0000
0000
0000
0000
0001
0000
0000
0000
0000
0000
0000
0000
0100
0000
0000
0000
0000
0000
0000
0000
0000
0000
0000
0000
0000
0000
0000
0000
0000
0000
0000
0000
0000
0000
0000
0000
0000
0000
0000
0000
0000
0000
0000
0000
0000
0000
0000
0000
0000
0000
0000
0000
0000
0000
0000
0000
0000
0000
0000
0000
,  // measure 15
0010
1000
0002
0000
0013
0000
0020
0000
,  // measure 16
0230
0000
0000
1000
0320
0000
0000
0000
0230
0000
0000
0000
0302
0000
0000
0000
,  // measure 17
2003
3002
0203
0302
,  // measure 18
2003
0000
0000
0000
3100
1000
0100
0010
0001
0000
0000
0000
0001
0000
2200
0000
,  // measure 19
0000
0000
0000
0000
0000
0000
3300
0000
0000
0000
0000
0000
0100
0000
0000
0000
0000
0000
0020
0000
0000
0030
0000
0000
0001
0000
0000
0000
0100
0000
0000
0000
0010
0000
0000
0000
1000
0000
0000
0000
0000
0000
0000
0000
0000
0000
0000
0000
,  // measure 20
0001
0000
0000
1000
0000
0000
1010
0000
0000
0010
0000
0000
0010
0000
0000
0000
0000
0000
0100
0000
0100
0000
0001
0000
,  // measure 21
0100
0000
0010
0000
0200
0000
0000
0000
0301
0000
0000
0000
1000
0000
0100
2000
,  // measure 22
0100
3000
0100
0000
0110
0000
0000
0000
0011
0000
0000
0000
1001
0000
0000
0000
,  // measure 23
0001
0000
0100
0000
0010
0100
0001
1000
0001
0100
0010
1000
0002
0203
0320
2030
,  // measure 24
3200
0000
0000
0320
0000
0000
0230
0000
0000
2300
0000
0000
3020
0000
0000
0000
0000
0000
0130
0001
0010
0100
1000
0000
0001
0000
0000
0000
0000
0000
0200
0000
0000
0000
0000
0000
0310
0000
0000
0000
0000
0000
0200
0000
0000
0000
0000
0000
,  // measure 25
0302
0000
0000
0020
0000
0033
1100
0000
,  // measure 26
1000
0001
0100
0000
0100
0010
1000
0000
0200
0000
0000
0000
0310
0001
0100
0000
,  // measure 27
0010
1000
0010
0100
0001
0000
0000
0000
0001
0000
0100
0000
0001
0000
0000
0000
,  // measure 28
0100
0000
0010
0000
1010
0000
0010
0100
0001
0000
0001
0010
0100
0000
0010
0000
,  // measure 29
0001
1000
0010
0000
0100
0001
0010
0100
,  // measure 30
1000
0000
0100
0010
0100
0000
0100
1000
,  // measure 31
0010
0000
0100
0000
0001
0000
0100
0000
0000
0001
0000
0000
1000
0000
0000
0000
0000
0000
0100
0000
0000
0010
0000
0000
0001
0000
0000
0000
0000
0000
0001
0000
0000
0100
0000
0000
0010
0000
0000
0000
0000
0000
0100
0000
0000
0000
0000
0000
,  // measure 32
0002
0000
1000
0000
0103
0010
1000
0200
,  // measure 33
0320
0000
0000
0000
0000
0000
0000
0000
0200
0000
0030
0000
0000
0000
0000
0300
,  // measure 34
0010
0000
0001
0000
1000
0000
0001
0000
0000
0100
0000
0000
0001
0000
0000
0000
0000
0000
0100
0000
0000
0000
0000
0000
0001
0000
0000
0000
0000
0000
0100
0000
0000
0000
0000
0000
0001
0000
0000
0000
0000
0000
0000
0000
0000
0000
0000
0000
,  // measure 35
0010
0100
0010
0100
0010
0000
1000
0010
,  // measure 36
1000
0010
1000
0000
1000
0100
0010
0001
,  // measure 37
0010
0000
0000
0000
0000
0000
0000
0000
0001
0000
0000
0000
0000
0000
0000
0000
0100
0000
0000
0000
0000
0000
0000
0000
0010
0000
0000
0000
0000
0000
0000
0000
0000
0000
0000
0000
1000
0000
0000
0000
0000
0000
0000
0000
0000
0000
0000
0000
0001
0000
0000
0000
0000
0000
0000
0000
0000
0000
0000
0000
0000
0000
0000
0000
0000
0000
0000
0000
0000
0000
0000
0000
0000
0000
0000
0000
0000
0000
0000
0000
0000
0000
0000
0000
0000
0000
0000
0000
0000
0000
0000
0000
0000
0001
0000
0000
0100
0000
0000
0000
0000
0000
0000
0000
0000
0000
0000
0000
0000
0000
0000
0000
0000
0000
0000
0000
0000
0000
0000
0000
0000
0000
0000
0000
0000
0000
0000
0000
0000
0000
0000
0000
0000
0000
0000
0000
0000
0000
0000
0000
0000
0010
0000
0000
1000
0000
0000
0000
0000
0000
0000
0000
0000
0000
0000
0000
0000
0000
0000
0000
0000
0000
0000
0000
0000
0000
0000
0000
0000
0000
0000
0000
0000
0000
0000
0000
0000
0000
0000
0000
0000
0000
0000
0000
0000
0000
0000
0000
0000
1000
0000
0000
,  // measure 38
0100
0000
0000
0000
0000
0000
0000
0000
0000
0000
0000
0000
0000
0000
0000
0100
0010
0000
0000
0000
0000
0000
0000
0000
0000
0000
0000
0000
0000
0000
0000
0010
0001
0000
0000
0000
0000
0000
0000
0000
0000
0000
0000
0000
0000
0000
0000
0001
0100
0000
0000
0000
0000
0000
0000
0000
0000
0000
0000
0000
0000
0000
0000
0100
,  // measure 39
0010
0000
0000
0000
0000
0000
0000
0000
0000
0000
0000
0000
0000
0000
0000
0010
1000
0000
0000
0000
0000
0000
0000
0000
0000
0000
0000
0000
0000
0000
0000
1000
0001
0000
0000
0000
0000
0000
0000
0000
0000
0000
0000
0000
0000
0000
0000
0001
1000
0000
0000
0000
0000
0000
0000
0000
0000
0000
0000
0000
0000
0000
0000
1000
,  // measure 40
0100
0000
0000
0000
0000
0000
0000
0000
0000
0000
0000
0000
0000
0000
0000
0100
1000
0000
0000
0000
0000
0000
0000
0000
0000
0000
0000
0000
0000
0000
0000
1000
0010
0000
0000
0000
0000
0000
0000
0000
0000
0000
0000
0000
0000
0000
0000
0100
0001
0000
0000
0000
0000
0000
0000
0000
0000
0000
0000
0000
0000
0000
0000
0001
,  // measure 41
0010
0000
0000
0000
0000
0000
0000
0000
0000
0000
0000
0000
0000
0000
0000
0010
0100
0000
0000
0000
0000
0000
0000
0000
0000
0000
0000
0000
0000
0000
0000
0100
1000
0000
0000
0000
0000
0000
0000
0000
0000
0000
0000
0000
0000
0000
0000
1000
0010
0000
0000
0000
0000
0000
0000
0000
0000
0000
0000
0000
0000
0000
0000
0010
,  // measure 42
0100
0000
0000
0000
0000
0000
0000
0000
0000
0000
0000
0000
0000
0000
0000
0100
0001
0000
0000
0000
0000
0000
0000
0000
0000
0000
0000
0000
0000
0000
0000
0001
1000
0000
0000
0000
0000
0000
0000
0000
0000
0000
0000
0000
0000
0000
0000
1000
0001
0000
0000
0000
0000
0000
0000
0000
0000
0000
0000
0000
0000
0000
0000
0001
,  // measure 43
0010
0000
0000
0000
0000
0000
0110
0000
0000
0010
0001
0010
0001
0000
0000
0100
0000
0000
0000
0000
0000
0010
0000
0000
,  // measure 44
1000
0000
1000
0000
0100
0000
0010
0000
0000
0000
0000
0000
0001
0000
0000
0000
0000
0000
0010
0000
0000
0010
0100
0010
,  // measure 45
0100
0000
0000
1000
0000
0000
0000
0000
0000
0001
0000
0000
1000
0000
0010
0000
0001
0000
0010
0000
0000
0000
0000
0000
,  // measure 46
0100
0000
0000
0000
0000
0000
0010
0000
0000
1000
0010
0100
0001
0000
0000
0010
0000
0000
0000
0000
0000
0100
0000
0000
,  // measure 47
0010
0001
0100
0010
0000
0000
1000
0000
0000
1002
0000
0000
,  // measure 48
0013
1000
0020
0000
0230
0000
1300
0010
,  // measure 49
0002
0000
0000
0000
0000
0000
0000
0000
0000
0000
0000
0000
0000
0000
0000
0000
0000
0000
0000
0000
0000
0000
0000
0000
0000
0000
0000
0000
0000
0000
0000
0000
0000
0000
0000
0000
0000
0000
0000
0000
0000
0000
0000
0000
0000
0000
0000
0000
0013
0000
0000
0000
0000
0000
0000
0000
0000
0000
0000
0000
0000
0000
0000
0000
0000
0000
0000
0000
0000
0000
0000
0000
0000
0000
0000
0000
0000
0000
0000
0000
0000
0000
0000
0000
0000
0000
0000
0000
0010
0000
0000
0000
0000
0000
0000
0000
1000
0000
0000
0000
0000
0000
0000
0000
0000
0000
0000
0000
0000
0000
0000
0000
0000
0000
0000
0000
0000
0000
0000
0000
0000
0000
0000
0000
0000
0000
0000
0000
0000
0000
0000
0000
0000
0000
0000
0000
0000
0000
1000
0000
0000
0000
0000
0000
0100
0000
0000
0000
0000
0000
0000
0000
0000
0000
0000
0000
0000
0000
0000
0000
0000
0000
0000
0000
0000
0000
0000
0000
0000
0000
0000
0000
0000
0000
0000
0000
0000
0000
0000
0000
0000
0000
0000
0000
0000
0000
0100
0000
0000
0000
0000
0000
,  // measure 50
0010
0000
0000
0000
0000
0000
0000
0000
0000
0000
0000
0000
0000
0000
0000
0000
0000
0000
0000
0000
0000
0000
0000
0000
0001
0000
0000
0000
0000
0000
0000
0000
0000
0000
0000
0000
0000
0000
0000
0000
0000
0000
0000
0000
0000
0000
0000
0000
0200
0000
0000
0000
0000
0000
0000
0000
0000
0000
0000
0000
0000
0000
0000
0000
0000
0000
0000
0000
0000
0000
0000
0000
0000
0000
0000
0000
0000
0000
0000
0000
0000
0000
0000
0000
0000
0000
0000
0000
0000
0000
0000
0000
0000
0000
0000
0000
0310
0000
0000
0000
0000
0000
0000
0000
0000
0000
0000
0000
0000
0000
0000
0000
0000
0000
0000
0000
0000
0000
0000
0000
0000
0000
0000
0000
0000
0000
0000
0000
0000
0000
0000
0000
0000
0000
0000
0000
0000
0000
0100
0000
0000
0000
0000
0000
0001
0000
0000
0000
0000
0000
0000
0000
0000
0000
0000
0000
0000
0000
0000
0000
0000
0000
0000
0000
0000
0000
0000
0000
0000
0000
0000
0000
0000
0000
0000
0000
0000
0000
0000
0000
0000
0000
0000
0000
1000
0000
0000
0000
0000
0000
0000
0000
,  // measure 51
0010
0000
0100
0001
2000
0000
3100
0000
,  // measure 52
0200
0000
0000
0000
0320
0000
0000
0001
0230
0000
0000
0000
0320
0000
0000
0000
,  // measure 53
2030
3002
2003
3020
,  // measure 54
2030
0000
0000
0000
3002
0000
0000
0000
0013
0001
0010
0100
1000
0000
0000
0000
,  // measure 55
1000
0000
0000
0000
0000
0000
0022
0000
0000
0000
0000
0000
0000
0000
0000
0000
0000
0000
0033
0000
0000
0000
0000
0000
0010
0000
0000
0000
0000
0000
0200
0000
0000
0300
0000
0000
1000
0000
0000
0000
0010
0000
0000
0000
0100
0000
0000
0000
,  // measure 56
0001
0000
1000
0001
0101
0100
0100
0000
,  // measure 57
0010
0000
0010
0000
1000
0000
0010
0000
0000
0100
0000
0000
0020
0000
0000
0000
0000
0000
1030
0000
0000
0000
0000
0000
,  // measure 58
0001
0000
0010
0002
0010
0003
0010
0000
0110
0000
0000
0000
1100
0000
0000
0000
,  // measure 59
1001
0000
0000
0000
1000
0000
0010
0000
0000
0000
0100
0000
0001
0100
1000
0100
,  // measure 60
0010
0000
0000
1000
0000
0000
0001
0000
0000
0000
0000
0000
0000
0000
1100
0000
0000
0000
0000
0000
0000
0000
0000
0000
0100
0000
0000
0000
0100
0000
0010
0000
0001
0000
1000
0000
0001
0000
0000
0000
0000
0000
0000
0000
0000
0000
0000
0000
,  // measure 61
0001
0100
1000
0200
,  // measure 62
0000
0000
0000
0000
,  // measure 63
0000
0000
0000
0000
0000
0000
0000
0000
0000
0000
0000
0000
0010
0000
0000
1000
0300
0000
0100
0000
0000
0010
0000
0000
0100
0000
0000
1000
0000
0000
0010
0000
0000
0100
0000
0000
0001
0000
0000
0010
0000
0000
0100
0000
0000
0010
0000
0000
,  // measure 64
0001
1000
0010
1000
0100
1000
0010
0001
0010
0100
0100
0010
0001
0000
1001
0000
,  // measure 65
0101
0000
0011
0000
0110
0000
1100
0000
1000
1000
0100
0100
0010
0010
0001
0001
,  // measure 66
0001
0001
0002
0000
0000
0000
0000
0000
0103
0000
0000
0000
0000
0000
0000
0000
;
