#TITLE:The Cage;
#SUBTITLE:;
#ARTIST:Sonata Arctica;
#TITLETRANSLIT:;
#SUBTITLETRANSLIT:;
#ARTISTTRANSLIT:;
#CREDIT:;
#BANNER:The Cage.png;
#BACKGROUND:The Cage-background.png;
#JACKET:The Cage-jacket.png;
#LYRICSPATH:;
#CDTITLE:cdtitle.png;
#MUSIC:The Cage.mp3;
#OFFSET:-12.167;
#SAMPLESTART:66.140;
#SAMPLELENGTH:12.000;
#SELECTABLE:YES;
#BPMS:0.000=160.000;
#STOPS:;
#BGCHANGES:;

//---------------dance-single - ----------------
#NOTES:
     dance-single:
     :
     Hard:
     9:
     0.595,0.521,0.093,0.161,0.351:
1000
0000
0100
0000
0010
0001
0010
0100
,
0010
0001
1000
0010
1000
0001
0010
0100
,
2000
0000
3000
0001
1000
0010
1000
0010
,
0100
0001
0010
0100
0010
0001
1000
0010
,
0100
0001
0100
1000
0100
0001
0100
1000
,
0100
0001
0100
1000
0100
0001
0100
1000
,
0100
0010
1000
0001
0010
1000
0010
0001
,
0100
0001
1000
0100
0010
0001
0010
0001
,
1000
0000
0000
0000
0001
0000
0100
0000
0010
0000
0000
0000
0100
0000
0000
0001
,
0100
0000
0000
0100
0010
0000
0000
0010
1000
0000
0000
1000
0001
0000
0000
0001
,
0010
0000
0000
0010
0100
0000
0000
0100
1000
0000
0000
0000
0100
0000
0000
0000
,
0010
0001
1000
0010
0100
0001
0010
0100
,
1000
0000
0000
1000
0100
0000
0000
0100
0010
0000
0000
0000
0011
0000
0000
0010
,
0100
0000
0000
0100
1000
0000
0000
1000
0001
0000
0000
0001
0100
0000
0000
0100
,
0010
0000
0000
0010
1000
0000
0000
1000
0001
0000
0000
0001
1000
0000
0000
0000
,
0002
0000
0203
0000
,
0310
0000
0010
0000
1000
0000
0001
0000
1000
0000
0000
0000
0000
0000
0000
0001
,
0100
0000
0000
0100
0010
0000
0000
0010
1000
0000
0000
1000
0001
0000
0000
0001
,
1000
0000
0000
1000
0100
0000
0000
0100
1000
0000
0000
0100
0010
0000
0000
0000
,
0010
0001
0100
0010
0100
0001
1000
0100
,
0010
0000
0000
0010
0100
0000
0000
0010
0001
0000
0000
0001
1000
0000
0000
0000
,
0000
1001
0101
1010
,
2000
0000
0100
3000
,
2000
0000
0001
3000
,
1001
0000
0000
0001
0100
0000
0000
0100
0010
0000
0000
0010
1000
0000
0000
1000
,
0001
0000
0000
0001
0100
0000
0000
0100
0010
0000
0000
0010
1000
0000
0000
1000
,
0001
0000
0000
0001
1000
0000
0000
1000
0001
0000
0000
0001
1000
0000
0000
1000
,
0001
0000
0000
0001
1000
0000
0000
1000
0001
0000
0000
0001
0100
0000
0010
0000
,
1000
0000
0000
0010
1000
0000
0000
1000
0010
0000
0000
0010
0100
0000
0000
0100
,
0001
0000
0000
0001
0010
0000
0000
0010
0100
0000
0000
0100
0010
0000
0000
0010
,
0001
0000
0000
0001
0100
0000
0000
0100
0010
0000
0000
0010
1000
0000
0000
1000
,
0001
0000
0000
0001
0100
0000
0000
0010
1000
0000
0000
0001
0100
0000
0000
0010
,
1000
0000
0000
1000
0010
0000
0000
1000
0100
0000
0000
0010
0001
0000
0000
0001
,
0010
0000
0000
0010
0100
0000
0000
0100
1000
0000
0000
1000
0100
0000
0000
0100
,
0010
0000
0000
0001
0010
0000
0000
0001
0100
0000
0000
0010
0100
0000
0000
0100
,
0010
0000
0000
0010
1000
0000
0000
0001
0100
0000
0000
0010
0100
0000
0000
0100
,
0002
0000
0013
0100
2000
0000
0100
0000
,
3100
0000
1000
0100
0001
0100
1000
0010
,
0001
0010
1000
0100
0002
0000
0103
0000
,
0001
0100
0010
0001
0100
0010
1000
0001
,
1000
0000
0001
0100
0020
0000
0000
0000
,
0030
0000
0100
0001
0100
1000
0100
0010
,
1000
0000
0000
0001
0000
0000
0010
0000
0200
0000
0000
0000
0300
0000
0000
0000
,
0110
0011
1010
0101
,
2000
0000
3001
0100
0020
0000
0100
0000
,
1030
0000
1000
0100
0001
0100
1000
0010
,
0001
0010
0100
0001
0020
0000
0030
0000
,
0100
0001
0100
1000
0010
0100
0010
1000
,
0001
1000
0100
0010
0002
0000
0000
0000
,
0003
0000
0000
0000
0001
1000
0100
1000
,
0001
0000
0000
0010
0000
0000
0100
0000
1000
0000
0000
0000
0000
0000
0000
0000
,
0000
0002
0203
0320
,
1030
0100
0001
0100
1000
0010
0001
0010
,
1000
0100
0001
0100
1000
0010
0001
0010
,
0100
1000
0100
0001
0100
1000
0010
0001
,
0010
1000
0010
0001
0010
1000
0010
0001
,
0100
1000
0100
0001
0100
1000
0010
0001
,
0100
0010
1000
0010
0001
0010
0100
0001
,
0010
0100
0010
0001
0001
0100
0010
0100
,
0101
0000
0000
0001
0010
0000
0000
0010
0100
0000
0000
0100
1000
0000
0000
1000
,
0001
0010
1000
0010
0001
0100
1000
0100
,
0001
0010
1000
0010
0001
0100
1000
0100
,
0010
0001
0010
1000
0010
0001
0100
1000
,
0100
0001
0100
1000
0100
0001
0100
1000
,
0010
0001
0010
1000
0010
0001
0100
1000
,
0010
0100
0001
0100
1000
0100
0010
1000
,
0100
0010
0100
1000
1000
0010
0100
0010
,
2000
0000
0000
0000
0002
0000
0000
3003
,
0110
0000
0000
0010
1000
0001
0100
0000
0000
0000
0000
0000
;

//---------------dance-single - ----------------
#NOTES:
     dance-single:
     :
     Medium:
     6:
     0.398,0.405,0.186,0.372,0.000:
1000
1000
0001
0100
,
0001
0010
0100
1000
,
0100
0000
0010
0010
,
0100
0100
0010
0010
,
0001
0010
0100
1000
,
0100
0001
0100
0010
,
0001
0010
0100
1000
,
0001
1000
0010
0100
,
0101
0000
0001
0100
0010
0000
0100
0000
,
0010
0010
0100
0100
,
0001
1000
1001
0000
,
0001
0100
0010
0000
0100
0010
1000
0000
,
1000
0100
0010
0000
,
0100
1000
0001
0100
,
0001
1000
0001
0000
,
0201
0000
0320
0000
,
0130
0000
0100
0010
0001
0000
0000
0000
,
1001
0010
0110
0100
,
0011
0101
1100
0000
,
1100
0100
0110
0010
,
0011
1010
0011
0000
,
0000
0001
0100
0010
,
2000
0000
3010
0000
,
0200
0000
0301
0000
,
1001
0002
0103
0200
,
0310
0020
1030
0002
,
0013
0200
0310
0002
,
1003
0002
0200
0000
,
0303
0002
0103
0020
,
1030
0020
0130
0020
,
0130
0002
1003
0002
,
0013
0200
0310
0002
,
1003
0020
0031
0020
,
0130
0020
1030
0020
,
0130
0002
0013
0200
,
0310
0002
1003
0010
,
1001
0000
0001
0100
0020
0000
0000
0000
,
0030
0000
0100
0001
0100
0000
0001
0100
,
0001
0000
0100
0010
2000
0000
3000
0000
,
0001
0001
1000
1000
,
0110
0000
0010
1000
0002
0000
0000
0000
,
0003
1000
1000
0001
,
0100
0000
0001
0100
0010
0000
0000
0000
,
0200
0000
0320
0000
,
1030
0000
1000
0001
0020
0000
0000
0000
,
0030
0000
0100
1000
0100
0000
0100
0010
,
0100
0000
0010
0001
0010
0000
0000
0000
,
0001
0010
0100
1000
,
1001
0000
0001
1000
0020
0000
0000
0000
,
0030
0000
0100
0001
,
1000
0000
0010
0100
0001
0000
0000
0000
,
0000
0100
0001
1000
,
0001
1000
0001
1000
0020
0000
0000
0000
,
0030
0000
0100
0010
0100
0000
0010
0100
,
0010
0000
0100
0001
2000
0000
3000
0000
,
0001
0010
0100
1000
0001
0010
0100
1000
,
0100
0000
1000
0010
0200
0000
0000
0000
,
0300
0000
0010
0100
0001
0000
1000
0010
,
0100
0100
0100
0000
,
2002
3003
0220
0330
,
1001
0001
1000
0010
2000
0000
0000
0000
,
3000
0000
0010
0100
0001
0000
0001
0010
,
0100
0000
0100
1000
0020
0000
0030
0000
,
0100
0010
1000
0001
0100
0010
1000
0001
,
1000
0000
1000
0100
0020
0000
0000
0000
,
0031
0100
0010
1000
,
0001
0010
0100
0000
,
0000
0000
0000
0000
,
1001
0010
0101
0000
;

//---------------dance-single - ----------------
#NOTES:
     dance-single:
     :
     Easy:
     4:
     0.297,0.260,0.017,0.161,0.000:
1000
0001
0010
0010
,
0100
1000
0100
0100
,
1000
0000
0010
1000
,
0010
0100
0001
1000
,
0001
0001
0001
0001
,
1000
0010
1000
1000
,
0010
0100
0001
0010
,
0100
1000
0010
0100
,
0001
1000
0100
0000
,
1000
1000
0001
0001
,
0100
0001
0100
0000
,
0010
1000
0100
1000
,
0001
0001
0001
0000
,
1000
0010
0100
0010
,
1000
1000
0001
0000
,
0200
0000
0001
0000
,
0301
1000
0010
0000
,
1000
0100
1000
0010
,
0100
0100
0100
0000
,
0010
0010
0100
0100
,
0001
1000
0100
0000
,
0000
0010
0001
1000
,
0020
0000
1030
0000
,
2000
0000
3100
0000
,
0000
1000
0001
0100
,
0001
1000
0100
1000
,
0001
0100
0001
1000
,
0100
0100
0100
0000
,
0000
0100
1000
0001
,
0100
0001
1000
0100
,
1000
0001
0100
0001
,
1000
0100
1000
1000
,
1000
0001
0010
1000
,
0010
0001
0010
1000
,
0010
0001
0010
1000
,
0010
0010
0010
0010
,
0001
0100
0020
0000
,
0030
0100
0001
1000
,
0100
1000
0002
0003
,
1000
1000
0001
0001
,
0100
0001
0020
0000
,
0030
0100
1000
0010
,
0100
0001
0100
0000
,
0002
0000
2003
0000
,
3100
0010
0002
0000
,
0003
0010
0100
1000
,
0010
0100
0001
0000
,
1000
1000
0001
0001
,
0100
0010
2000
0000
,
3000
0010
0100
0001
,
1000
1000
0100
0000
,
0000
1000
0100
0010
,
0001
0010
0200
0000
,
0300
1000
0010
0001
,
0010
0100
0002
0003
,
1000
0010
0100
0100
,
0010
1000
0002
0000
,
0003
0010
0100
0010
,
0001
0001
1000
0000
,
0020
0000
2030
0000
,
3100
0010
0002
0000
,
0003
0010
0100
1000
,
0010
0010
0200
0300
,
0001
1000
0100
1000
,
0010
0100
0020
0000
,
0130
0001
1000
0100
,
0010
0100
2000
0000
,
3000
0000
0000
0000
,
1001
0100
1001
0000
;

//---------------dance-single - ----------------
#NOTES:
     dance-single:
     :
     Beginner:
     1:
     0.134,0.203,0.059,0.051,0.000: // measure 1
1000
0000
0001
0000
,  // measure 2
1000
0000
0001
0000
,  // measure 3
0100
0000
0000
0000
,  // measure 4
0000
0000
0001
0000
,  // measure 5
1000
0000
0000
0000
,  // measure 6
0100
0000
0010
0000
,  // measure 7
0001
0000
0000
0000
,  // measure 8
1001
0000
0000
0000
,  // measure 9
0010
0000
0000
0000
,  // measure 10
0100
0000
0000
0000
,  // measure 11
0001
0000
0000
0000
,  // measure 12
1000
0000
1000
0000
,  // measure 13
1000
0000
0000
0000
,  // measure 14
0100
0000
0000
0000
,  // measure 15
0010
0000
0000
0000
,  // measure 16
0001
0000
0001
0000
,  // measure 17
2002
0000
3003
0000
,  // measure 18
0001
0000
1000
0000
,  // measure 19
0010
0000
0000
0000
,  // measure 20
0100
0000
0100
0000
,  // measure 21
0001
0000
0000
0000
,  // measure 22
0000
0000
1000
0000
,  // measure 23
0001
0000
0000
0000
,  // measure 24
0001
0000
0000
0000
,  // measure 25
0110
0000
0000
0000
,  // measure 26
0010
0000
0000
0000
,  // measure 27
1000
0000
0000
0000
,  // measure 28
0100
0100
0100
0000
,  // measure 29
1000
0000
0000
0000
,  // measure 30
0001
0000
0000
0000
,  // measure 31
0100
0000
0000
0000
,  // measure 32
0001
0000
0000
0000
,  // measure 33
1000
0000
0000
0000
,  // measure 34
0100
0000
0000
0000
,  // measure 35
1000
0000
0000
0000
,  // measure 36
0010
0000
0100
0000
,  // measure 37
1001
0001
0001
0000
,  // measure 38
0000
0000
1000
0000
,  // measure 39
0010
0000
0100
0000
,  // measure 40
0000
0000
0010
0000
,  // measure 41
0100
0000
0001
0000
,  // measure 42
0000
0000
1000
0000
,  // measure 43
1000
0000
0000
0000
,  // measure 44
0010
0000
0100
0000
,  // measure 45
0110
0100
0100
0000
,  // measure 46
0000
0000
0010
0000
,  // measure 47
1000
0000
0001
0000
,  // measure 48
0000
0000
1000
0000
,  // measure 49
1000
0000
0001
0000
,  // measure 50
0000
0000
0100
0000
,  // measure 51
0100
0000
0000
0000
,  // measure 52
0000
0010
0010
0010
,  // measure 53
1001
0000
0000
0001
,  // measure 54
0001
0000
1000
0000
,  // measure 55
0010
0000
0000
0000
,  // measure 56
0100
0000
0001
0000
,  // measure 57
1000
0000
0000
0000
,  // measure 58
0000
0000
0100
0000
,  // measure 59
1000
0000
0010
0000
,  // measure 60
0100
0000
0000
0000
,  // measure 61
0002
0000
0000
0000
,  // measure 62
0003
0000
2000
3000
,  // measure 63
0002
0000
0000
0003
,  // measure 64
0100
0000
0010
0000
,  // measure 65
0200
0000
0000
0300
,  // measure 66
0010
0000
0100
0000
,  // measure 67
0001
0001
0001
0000
,  // measure 68
0000
0000
0000
0000
,  // measure 69
1001
0000
0100
0000
;
