#TITLE:THANK YOU FOR PLAYING;
#SUBTITLE:;
#ARTIST:SUPER STAR 満-MITSURU-;
#TITLETRANSLIT:;
#SUBTITLETRANSLIT:;
#ARTISTTRANSLIT:SUPER STAR -MITSURU-;
#GENRE:;
#CREDIT:;
#BANNER:THANK YOU FOR PLAYING.png;
#BACKGROUND:THANK YOU FOR PLAYING-bg.png;
#LYRICSPATH:THANK YOU FOR PLAYING.lrc;
#CDTITLE:cdtitle.png;
#MUSIC:THANK YOU FOR PLAYING.mp3;
#OFFSET:0.071000;
#SAMPLESTART:14.753000;
#SAMPLELENGTH:12.000000;
#SELECTABLE:YES;
#DISPLAYBPM:45.000000:170.000000;
#BPMS:0.000000=170.000000
,34.000000=42.501999
,36.000000=169.994995
,260.000000=160.000000
,262.000000=145.000000
,263.000000=140.000000
,264.000000=128.000000
,265.000000=117.000000
,266.000000=99.000000
,267.000000=45.000000
,268.000000=145.000000
;
#STOPS:
;
#BGCHANGES:;
#KEYSOUNDS:;
#ATTACKS:;

//---------------dance-single - ----------------
#NOTES:
     dance-single:
     :
     Hard:
     9:
     0.587114,0.725427,0.420538,0.095577,0.267615,376.000000,44.000000,10.000000,0.000000,0.000000,0.000000,0.587114,0.725427,0.420538,0.095577,0.267615,376.000000,44.000000,10.000000,0.000000,0.000000,0.000000:
0000
0000
0000
0000
,
0000
0000
0000
0000
,
0000
0000
0000
0000
,
0000
0000
0000
0000
,
0000
0000
0000
0000
,
0000
0000
0000
0000
,
0000
0000
0000
0000
,
0000
0000
0000
0000
,
0000
0000
0000
0000
0000
0000
0000
0000
0020
0030
0000
0000
0000
0000
0000
0000
,
0101
0100
0001
1000
0000
0100
0010
0001
,
0000
0010
0100
1000
1100
0000
0010
0000
,
0011
0010
0001
1000
0000
0001
0100
0010
,
0000
0000
0100
0000
0010
0000
1000
0000
1001
0000
0000
1000
0100
0000
0010
0000
,
0110
0100
1000
0010
0000
0100
0001
0010
,
0000
0100
0010
0001
0011
0000
0010
0000
,
0110
0000
0010
0001
0000
0001
0100
0000
,
0110
0000
0000
0000
0000
0000
0100
0001
0010
0000
0000
0000
0100
0000
0000
0000
,
1100
1000
0100
1000
0010
0100
0001
0010
,
0100
0010
0001
0100
0101
0000
0010
0000
,
0110
0100
0010
1000
0001
0010
0100
0010
,
0001
0000
0100
0000
0010
0000
1000
0000
1001
0000
0000
0001
0010
0000
0100
0000
,
1100
0100
0010
0100
1000
0010
0100
0001
,
0010
0100
0010
0001
0101
0000
0100
0000
,
0110
0000
0010
1000
0000
1000
0010
0000
,
0210
0310
0120
0130
,
1001
0000
1000
0000
0100
0000
0000
0100
0000
0000
1000
0000
0001
0000
0000
0100
,
0000
0001
1000
0100
0010
0100
1000
0001
,
0100
0000
0001
0000
1000
0000
0000
0010
0000
0000
1000
0000
0001
0000
0000
0010
,
0000
0001
0010
1000
0010
0100
1000
0001
,
0100
0000
0001
0000
0010
0000
0000
0100
0000
0000
1000
0000
0001
0000
0000
0100
,
0000
0001
1000
0100
0001
0100
0010
0001
,
1001
0010
1001
0100
,
1001
0000
0000
0000
0001
0000
0000
0000
0101
0000
0000
1010
0000
0000
0101
0000
,
1001
0000
0100
0000
0010
0100
1000
0010
,
0001
0000
0010
0000
0100
0001
1000
0001
,
0100
0000
0000
0001
0000
0000
0010
0000
0100
0000
0000
0000
1000
0000
0000
0001
,
0020
0000
0001
0000
0100
0000
0031
0010
,
0200
1300
2000
3001
,
0002
0000
0000
0000
0103
0000
0000
0000
0200
0000
0000
0000
0310
0000
0000
0100
,
0001
0000
0000
0001
0100
0000
0000
0100
0001
0000
0000
0001
0100
0000
0000
0100
,
0001
0000
0000
0001
0100
0000
0000
0100
0001
0000
0000
0001
0100
0000
0000
0010
,
1000
0000
0000
1000
0010
0000
0000
0010
1000
0000
0000
1000
0010
0000
0000
0000
,
0000
0010
0000
1000
0010
0000
0100
0001
0000
0010
0200
0000
0300
0000
0000
0000
,
1100
0100
0010
0100
0100
0001
0010
0001
,
0100
1000
0100
1000
1100
0000
0100
0000
,
0110
0100
0001
0010
0100
1000
0100
0001
,
0100
0000
1000
0000
0100
0000
0010
0000
0110
0000
0000
0100
1000
0000
0010
0000
,
0101
0001
0100
1000
0100
0001
1000
0010
,
1000
0100
1000
0001
1100
0000
0010
0000
,
0011
0000
0001
1000
0000
0010
1000
0000
,
0101
0000
0000
0000
0011
0000
0010
0100
1000
0000
0000
1000
0100
0000
0010
0000
,
0110
0000
0000
0011
0000
0000
1001
0000
0000
0000
0000
0000
0000
0000
0001
0100
,
0001
0000
0001
1000
0001
0000
0001
0010
0001
0000
0001
1000
0001
0000
0001
1000
,
0100
0000
0000
0100
0000
0000
1000
0000
0010
0000
0000
0000
0000
0000
0100
0010
,
1000
0001
0010
0100
0000
1001
0000
0001
,
0100
0010
1000
0010
0100
0001
0010
0100
,
0010
0001
0100
1000
0100
0010
1000
0001
,
0010
0001
0010
0100
1000
0000
1000
0100
0010
0001
0010
0000
0001
0010
0001
0100
,
0001
0010
0100
1000
0001
0010
0100
1000
0100
0010
0001
0010
0100
1000
0100
0010
,
0001
0010
0001
0100
0000
0000
0000
0000
,
0000
0000
0110
0000
,
1001
1000
0001
1000
0000
0000
0000
0000
,
0000
0000
0101
0000
,
1010
1000
0010
0100
0000
0000
0000
0000
,
0000
0000
0110
0000
,
1001
0000
0000
0001
0000
0000
0100
0000
,
0010
0000
0000
1000
0000
0000
0100
0000
0000
0001
0000
0000
0100
0000
0000
0010
0000
0000
0001
0000
1000
0000
0000
0000
,
0010
0100
0020
0000
0000
0000
0000
0000
0000
0000
0000
0000
,
0000
0000
0000
0000
,
0030
0000
0000
0000
;

//---------------dance-single - ----------------
#NOTES:
     dance-single:
     :
     Medium:
     6:
     0.390499,0.416625,0.410980,0.028673,0.019115,240.000000,43.000000,3.000000,0.000000,0.000000,0.000000,0.390499,0.416625,0.410980,0.028673,0.019115,240.000000,43.000000,3.000000,0.000000,0.000000,0.000000:
0000
0000
0000
0000
,
0000
0000
0000
0000
,
0000
0000
0000
0000
,
0000
0000
0000
0000
,
0000
0000
0000
0000
,
0000
0000
0000
0000
,
0000
0000
0000
0000
,
0000
0000
0000
0000
,
0000
0000
0010
0000
,
1000
1000
0001
0001
,
0100
0100
0110
1001
,
0110
0010
0001
0001
,
1000
1000
1010
0101
,
1010
0010
1000
1000
,
0001
0001
1001
0001
,
0101
0000
0001
0100
0000
0100
0010
0000
,
0110
0000
0000
0010
1001
0000
0000
0000
,
1100
0100
0010
0001
,
0010
1000
0110
0100
,
1100
0100
0001
0100
,
0010
0001
0101
0100
,
1001
0001
0100
1000
,
0100
0010
1010
0010
,
0110
0000
0100
0010
0000
0010
1000
0000
,
1002
0000
0203
0000
,
0310
1000
0010
0000
0100
0010
0100
0000
,
0010
1000
0010
0000
0100
0000
1001
0000
,
0001
0100
0001
0000
0100
0010
0100
0000
,
0001
0100
0001
0000
0010
0000
0011
0000
,
0010
0100
0010
0000
0100
1000
0100
0000
,
0010
0100
0010
0000
0100
0000
1001
0000
,
0001
0000
0000
0100
0000
0000
0010
0000
,
1010
0010
0100
0001
,
1001
0000
0100
0000
1000
0000
0100
1000
,
0100
0000
1000
0000
0100
0010
0001
0010
,
0001
0100
0010
1000
,
0101
0000
0001
0000
0100
0000
0010
1000
,
0001
0000
0000
0000
0000
0000
0000
0100
,
0100
0000
0000
0010
0010
0000
0000
0000
,
1001
0001
0001
0001
,
0001
0001
0001
0001
,
1010
0010
0101
0100
,
0000
0001
0000
0000
1000
0000
0000
0010
0000
0000
0100
0000
0000
0000
0000
0000
,
0010
1000
0010
0100
0000
0010
0100
0010
,
0100
0001
1001
0010
,
0110
0100
0010
0100
0000
0010
1000
0000
,
0001
0010
0100
0000
0110
0000
0010
0000
,
0011
0010
0100
1000
0000
0000
1100
0000
,
0010
0100
1001
0010
,
0101
0000
0000
1010
0000
0000
0101
0000
,
1001
0000
0000
0001
0101
0000
0000
0000
,
0001
0000
0000
0010
0000
0000
0100
0000
0000
0000
0000
0000
0000
0000
0100
0000
,
1000
0010
0100
0001
0100
0010
1000
0001
,
0100
0000
0000
0001
0000
0000
0100
0000
0010
0000
0000
0000
0000
0000
0010
0000
,
0010
0100
0001
1000
0000
0100
0000
0000
,
1000
0100
0010
0001
,
1000
0010
0100
0001
,
1000
0100
0010
0001
0010
0100
0010
0001
,
0010
0100
1000
0001
0010
0100
1000
0001
,
0100
0000
0000
0000
,
0000
0000
0110
0000
,
0101
0000
0000
0000
,
0000
0000
0110
0000
,
1010
0000
0000
0000
,
0000
0000
1001
0000
,
0001
0000
0000
0100
0000
0000
0010
0000
,
1000
0000
0100
0000
,
0020
0030
0000
0000
0000
0000
0000
0000
0000
0000
0000
0000
0000
0000
0000
0000
;

//---------------dance-single - ----------------
#NOTES:
     dance-single:
     :
     Easy:
     3:
     0.248499,0.288701,0.162480,0.028673,0.000000,162.000000,17.000000,3.000000,0.000000,0.000000,0.000000,0.248499,0.288701,0.162480,0.028673,0.000000,162.000000,17.000000,3.000000,0.000000,0.000000,0.000000:
0000
0000
0000
0000
,
0000
0000
0000
0000
,
0000
0000
0000
0000
,
0000
0000
0000
0000
,
0000
0000
0000
0000
,
0000
0000
0000
0000
,
0000
0000
0000
0000
,
0000
0000
0000
0000
,
0000
0000
0010
0000
,
0100
0000
0000
1000
,
0100
1000
0010
0100
,
0001
0001
0000
0100
,
0010
1000
0010
0100
,
0001
1000
0000
0100
,
1000
0100
1000
0010
,
0100
0000
0000
0010
0000
0000
1000
0000
,
0001
0000
1000
0000
,
0100
1000
0000
0100
,
0010
0001
0011
0000
,
0011
0001
0000
0001
,
0100
0010
1010
0000
,
0101
0100
0000
0001
,
1000
0100
1000
0010
,
0100
0000
0000
0001
0000
0000
0010
0000
,
0100
0000
0010
0000
,
0001
0000
1000
0000
,
0010
0000
0100
0001
,
1000
0000
0100
0000
,
1000
0000
0010
0100
,
0001
0000
0100
0000
,
0001
0000
1000
0000
,
0100
0000
0000
0100
0000
0000
0010
0000
,
0110
0000
0110
0000
,
1001
0000
0000
0000
0000
0000
0001
0100
,
0000
0000
0010
1000
,
0010
0100
0001
0000
,
0010
0000
0000
0000
,
0100
0000
0000
0000
,
1000
0000
0010
0000
,
0100
0100
0100
0100
,
0100
0100
0100
0100
,
0010
0010
0010
0010
,
0000
2002
0000
0000
0000
0000
3003
0000
,
0001
1000
0100
1000
,
0010
0100
0101
0000
,
1001
0001
1000
0100
,
1000
0010
1010
0000
,
0011
0010
0100
0010
,
0001
0100
0101
0000
,
1001
0000
0000
1001
0000
0000
0010
0000
,
1001
0000
0000
0001
0100
0000
0000
0000
,
0010
1000
0100
0000
,
1000
0100
0010
0001
,
0010
0010
0001
0000
,
0100
0010
1000
0010
,
0100
0001
1000
0100
,
1000
0001
0100
0001
,
0010
0100
0010
0001
,
0010
1000
0010
0100
,
1100
0000
0000
0000
,
0000
0000
0010
0000
,
0001
0000
0000
0000
,
0000
0000
0001
0000
,
1000
0000
0000
0000
,
0000
0000
0100
0000
,
0010
0000
0001
0000
,
0100
0000
0010
0000
,
2000
3000
0000
0000
0000
0000
0000
0000
;

//---------------dance-single - ----------------
#NOTES:
     dance-single:
     :
     Beginner:
     2:
     0.142000,0.320182,0.114692,0.000000,0.000000,92.000000,12.000000,0.000000,0.000000,0.000000,0.000000,0.142000,0.320182,0.114692,0.000000,0.000000,92.000000,12.000000,0.000000,0.000000,0.000000,0.000000:
// measure 0
0000
0000
0000
0000
,  // measure 1
0000
0000
0000
0000
,  // measure 2
0000
0000
0000
0000
,  // measure 3
0000
0000
0000
0000
,  // measure 4
0000
0000
0000
0000
,  // measure 5
0000
0000
0000
0000
,  // measure 6
0000
0000
0000
0000
,  // measure 7
0000
0000
0000
0000
,  // measure 8
0000
0000
0010
0000
,  // measure 9
0100
0000
0000
0000
,  // measure 10
0010
0000
1000
0000
,  // measure 11
0100
0000
0000
0000
,  // measure 12
0000
0000
1000
0000
,  // measure 13
0010
0000
0000
0000
,  // measure 14
0100
0000
0001
0000
,  // measure 15
1000
0000
0001
0000
,  // measure 16
0100
0000
0001
0000
,  // measure 17
1001
0000
0000
0000
,  // measure 18
0000
0000
0001
0000
,  // measure 19
0100
0000
0000
0000
,  // measure 20
0000
0000
0001
0000
,  // measure 21
0100
0000
0000
0000
,  // measure 22
0000
0000
0001
0000
,  // measure 23
0010
0000
0001
0000
,  // measure 24
1000
0000
0010
0000
,  // measure 25
0100
0000
0000
0000
,  // measure 26
0010
0000
0000
0000
,  // measure 27
1000
0000
0000
0000
,  // measure 28
0001
0000
0000
0000
,  // measure 29
1000
0000
0000
0000
,  // measure 30
0100
0000
0000
0000
,  // measure 31
1000
0000
0001
0000
,  // measure 32
0100
0000
0010
0010
,  // measure 33
1001
0000
0000
0001
,  // measure 34
0000
0000
1000
1000
,  // measure 35
0001
0000
0100
0000
,  // measure 36
0010
0000
0000
0000
,  // measure 37
0100
0000
0000
0000
,  // measure 38
0010
0000
1000
0000
,  // measure 39
0001
0000
0001
0000
,  // measure 40
0001
0000
0001
0000
,  // measure 41
1000
0000
1000
0000
,  // measure 42
1001
0000
0000
0000
,  // measure 43
0110
0000
0000
0000
,  // measure 44
0000
0000
0010
0000
,  // measure 45
0100
0000
0000
0000
,  // measure 46
0000
0000
0001
0000
,  // measure 47
1000
0000
0000
0000
,  // measure 48
0000
0000
0100
0000
,  // measure 49
1000
0000
0010
0000
,  // measure 50
0100
0000
0001
0000
,  // measure 51
1001
0001
0001
0000
,  // measure 52
1000
0000
0001
0000
,  // measure 53
0100
0100
0100
0000
,  // measure 54
0010
0000
0100
0000
,  // measure 55
0001
0000
1000
0000
,  // measure 56
0001
0000
0100
0000
,  // measure 57
0110
0000
0110
0000
,  // measure 58
1001
1001
0110
0110
,  // measure 59
1001
0000
0000
0000
,  // measure 60
0000
0000
0010
0000
,  // measure 61
0100
0000
0000
0000
,  // measure 62
0000
0000
0010
0000
,  // measure 63
0100
0000
0000
0000
,  // measure 64
0000
0000
0010
0000
,  // measure 65
0100
0000
0001
0000
,  // measure 66
1000
0000
0001
0000
,  // measure 67
0010
0000
0000
0000
;
