#TITLE:Symphony No. 9;
#SUBTITLE:;
#ARTIST:Mazerati;
#TITLETRANSLIT:;
#SUBTITLETRANSLIT:;
#ARTISTTRANSLIT:;
#CREDIT:;
#BANNER:Symphony No. 9.png;
#BACKGROUND:Symphony No. 9-background.png;
#LYRICSPATH:;
#CDTITLE:;
#MUSIC:Symphony No. 9.mp3;
#OFFSET:-0.023;
#SAMPLESTART:41.700;
#SAMPLELENGTH:12.000;
#SELECTABLE:YES;
#BPMS:0.000=190.001;
#STOPS:326.000=0.316
;
#BGCHANGES:;

//---------------dance-single - ----------------
#NOTES:
     dance-single:
     :
     Hard:
     10:
     0.739,0.833,0.734,0.000,0.413: // measure 1
0000
0000
0000
0000
,  // measure 2
0000
0000
0000
0000
,  // measure 3
0000
0000
0000
0000
,  // measure 4
0000
0000
0000
0000
,  // measure 5
0000
0000
0000
0000
,  // measure 6
1001
0110
1001
0110
,  // measure 7
0101
1010
1100
0011
,  // measure 8
0000
0110
1001
0110
,  // measure 9
0001
1000
0001
1000
0001
1000
0001
1000
,  // measure 10
1001
0001
0100
0010
,  // measure 11
1010
0000
0010
0100
0001
0000
1000
0000
,  // measure 12
1100
0000
0100
0000
0110
0000
0010
0001
,  // measure 13
0011
0000
0010
0000
0001
0000
1000
0010
,  // measure 14
0110
0100
1010
0101
,  // measure 15
1001
0000
0001
0100
0110
0000
0010
0000
,  // measure 16
1010
0000
0000
0001
0100
0010
1000
0000
0000
0100
0000
0000
,  // measure 17
0001
0010
0100
0010
0001
1000
0010
0100
,  // measure 18
0001
0000
1000
0000
0010
0000
0100
0001
,  // measure 19
0011
0000
0010
0000
0100
0000
1000
0010
,  // measure 20
0110
0000
0100
0000
0101
0000
0100
0010
,  // measure 21
1010
0000
1000
0100
0001
0000
0100
0000
,  // measure 22
0011
0000
0010
0000
0110
0000
0010
0001
,  // measure 23
0011
0000
0001
0100
0010
0000
1000
0000
,  // measure 24
1001
0000
0010
0100
0110
0000
1001
0000
,  // measure 25
0001
0100
0010
1000
0100
0010
0001
1000
,  // measure 26
0001
0100
0010
1000
,  // measure 27
0100
0000
0010
0001
0100
0000
0010
0000
,  // measure 28
1000
0000
0010
0000
0100
0000
0001
1000
,  // measure 29
0100
0011
0000
1010
,  // measure 30
0101
0001
0110
1010
,  // measure 31
1001
0000
0001
0010
0100
0000
0010
0000
,  // measure 32
0001
0000
0100
0000
0010
0000
1000
0001
,  // measure 33
0010
0000
0000
0100
,  // measure 34
1000
0001
1000
0001
1000
0010
0100
0001
,  // measure 35
1000
0010
1000
0010
0100
0001
0100
0001
,  // measure 36
0100
0010
0100
0010
1000
0010
1000
0100
,  // measure 37
0010
0100
0010
0100
0010
0100
0010
0001
,  // measure 38
0010
0100
0010
0100
1000
0100
1000
0001
,  // measure 39
0100
0001
0100
0001
0010
0001
0010
0001
,  // measure 40
1000
0001
0010
0000
0000
0000
0000
0000
0010
0000
0000
0000
0100
0000
0000
0000
,  // measure 41
1000
0001
0100
0000
0000
0000
0000
0000
0001
0000
0000
0000
1000
0000
0000
0000
,  // measure 42
0010
1000
0010
0000
0100
0000
0001
0000
0010
0001
0010
0000
0001
0000
1000
0000
,  // measure 43
0010
1000
0010
0000
0100
0000
0001
0000
1000
0000
0100
0000
0010
0000
0001
0000
,  // measure 44
1000
0001
0100
0001
1000
0100
1000
0001
0100
0001
1000
0100
,  // measure 45
0010
0100
1000
0001
0000
0001
0100
0000
0100
0010
0000
0010
,  // measure 46
1000
0010
1000
0010
0100
0001
0010
0100
0010
0001
1000
0010
,  // measure 47
0100
0010
1000
0001
0010
0100
1000
0001
1000
0010
0100
0001
,  // measure 48
0100
0010
1000
0001
0000
0010
0100
0000
0100
1000
0000
1000
,  // measure 49
0100
0010
0001
0010
0100
1000
0001
0100
0010
1000
0000
0000
,  // measure 50
0100
0010
0001
0100
0010
1000
0001
0010
,  // measure 51
0100
1000
0010
0100
0001
0010
0001
0100
,  // measure 52
0010
0100
0010
1000
0001
1000
0100
0010
,  // measure 53
0001
1000
0100
0010
0001
0100
0001
1000
,  // measure 54
0001
1000
0010
1000
0001
0010
0001
1000
0010
1000
0001
0010
,  // measure 55
0100
0010
0001
1000
0000
1000
0010
0000
0010
0100
0000
0100
,  // measure 56
0001
0100
0001
0100
0010
1000
0100
0010
0100
1000
0001
0100
,  // measure 57
0010
0100
0001
1000
0100
0010
0001
1000
0001
0100
0010
1000
,  // measure 58
0010
0100
0001
0010
1000
0010
0100
0010
,  // measure 59
0001
1000
0100
0001
0100
0010
0001
1000
,  // measure 60
0010
1000
0010
1000
0000
0000
0001
0100
0001
0100
0000
0000
,  // measure 61
1000
0001
1000
0001
0000
0000
0010
0100
0010
0100
0000
0000
,  // measure 62
0100
0011
0100
1010
,  // measure 63
1000
1001
0110
0101
,  // measure 64
1010
1000
0001
0001
,  // measure 65
1000
0100
0010
0001
1000
0100
0010
0001
,  // measure 66
1000
0000
0000
0000
,  // measure 67
0101
0001
0100
0110
,  // measure 68
0101
1010
0101
1100
,  // measure 69
0110
0000
0011
0000
0110
0000
0001
0100
,  // measure 70
0010
0000
0000
0100
0001
0000
0000
0001
1000
0000
0000
1000
0100
0000
0000
0100
,  // measure 71
0010
0001
0010
0011
,  // measure 72
1100
0101
1010
0101
,  // measure 73
1001
0000
0110
0000
1001
0000
0001
0010
,  // measure 74
0100
0000
0000
0100
1000
0000
0000
1000
0010
0000
0000
0010
0100
0000
0000
0100
,  // measure 75
0001
1000
0010
0110
,  // measure 76
0101
0000
1010
0000
0101
0000
0000
0100
,  // measure 77
0010
0000
0000
0000
1001
0000
0000
0001
0100
0000
0000
0010
1000
0000
0000
1000
,  // measure 78
0100
0100
0010
1001
,  // measure 79
1001
0001
0100
0110
,  // measure 80
1010
0000
0101
0000
0011
0000
0000
0001
,  // measure 81
1000
0000
0000
0000
0001
0000
0000
0010
0100
0000
0000
0100
1000
0000
0000
1000
,  // measure 82
0001
0000
0110
0000
0110
0000
0001
1000
,  // measure 83
0010
0000
0100
0010
1000
0000
0100
0010
,  // measure 84
0001
0000
0010
0100
0010
0000
0100
1000
,  // measure 85
0010
0000
0100
0001
1000
0000
0001
0010
,  // measure 86
0100
0010
0001
0100
0010
1000
1001
0000
,  // measure 87
0101
1010
1100
0011
,  // measure 88
0101
1001
1100
1001
,  // measure 89
0000
0101
0000
1010
,  // measure 90
0000
0101
0000
1001
;

//---------------dance-single - ----------------
#NOTES:
     dance-single:
     :
     Medium:
     8:
     0.538,0.644,0.532,0.000,0.165:
0000
0000
0000
0000
,
0000
0000
0000
0000
,
0000
0000
0000
0000
,
0000
0000
0000
0000
,
0000
0000
0000
0000
,
0001
1001
1000
1001
,
0001
1001
1000
1001
,
0000
0101
1010
0101
,
0001
0100
0010
1000
0001
0100
0010
1000
,
0001
0000
0010
0100
,
0010
0000
0000
0001
0010
0000
0000
0000
,
0110
0000
0000
0000
1100
0000
1000
0001
,
1001
0000
0000
0000
,
0101
0000
0001
1000
,
1010
0000
0000
0010
0100
0000
0000
0000
,
0110
0000
0100
0001
1000
0000
0100
0000
,
1000
0100
0010
0001
,
0011
0000
0001
0000
0010
0000
0100
1000
,
0010
0100
0010
1000
,
1001
0000
0001
0000
0101
0000
0100
0010
,
0110
0000
0010
0100
0001
0000
1000
0000
,
1100
0000
0100
0000
0010
0000
0001
0010
,
0110
0010
0001
1000
,
1010
0000
0010
0010
0100
0000
0010
0000
,
1000
0100
0010
0001
1000
0100
0010
0001
,
1001
0001
0100
0010
,
1000
0000
0100
0010
0001
0000
0010
0000
,
0001
0000
0010
0000
0100
0000
0010
0001
,
1000
1001
0000
1001
,
1001
0001
0100
0100
,
0001
0000
0000
1000
0100
0000
0000
0000
,
1000
0000
0010
0000
0100
0000
0001
0010
,
0100
0000
0000
0010
,
0001
0000
1000
0100
,
1000
0000
0000
0100
0100
0000
0000
0000
,
0011
0000
0000
0000
1100
0000
1000
0001
,
1001
0000
0000
0001
,
0101
0000
0001
0100
,
0010
0000
0000
0100
0001
0000
0000
0000
,
1000
0001
1000
0000
0001
0000
0100
0000
,
0010
0100
0010
0000
0100
0000
0010
0000
,
1000
0010
1000
0000
0010
0100
0010
0000
,
0100
0001
0100
0000
0001
1000
0001
0000
,
1000
0000
0001
1000
0000
1000
0001
0000
0001
1000
0000
1000
,
0100
0000
0100
0010
0000
0010
0001
0000
0001
0010
0000
0010
,
0100
0000
0100
1000
0000
1000
0100
0000
0100
0010
0000
0010
,
0001
0000
1000
0001
0000
0001
1000
0000
1000
0001
0000
0001
,
0010
0000
0010
0100
0000
0100
1000
0000
1000
0100
0000
0100
,
0010
0000
0010
0001
0000
0001
0010
0000
0010
0100
0000
0000
,
0100
1000
0010
0001
,
0010
0100
0010
1000
,
0001
0010
0100
0010
,
0001
1000
0010
0100
,
0001
0000
1000
0001
0000
0001
1000
0000
1000
0001
0000
0001
,
0010
0000
0010
0100
0000
0100
1000
0000
1000
0100
0000
0100
,
0010
0000
0010
0001
0000
0001
0010
0000
0010
0100
0000
0100
,
1000
0000
0010
0100
0000
0001
0010
0000
0010
0100
0000
0100
,
1000
0100
0010
0000
0100
0000
1000
0000
,
0010
0100
0001
0000
0100
0000
0010
0000
,
0100
0010
1000
0000
0010
0100
0001
0000
,
1000
0100
0010
0000
0010
0001
0010
0000
,
0001
0100
0100
0001
,
1000
0001
0010
0100
,
1000
0100
0010
0001
,
1000
0100
0010
0001
1000
0100
0010
0001
,
1000
0000
0000
0000
,
1001
0000
0000
0001
,
0100
0010
1000
0100
,
0001
0000
0100
0000
0010
0000
0100
1000
,
0010
0100
0010
0100
,
0110
0000
0000
0010
,
0100
0001
1000
0100
,
1000
0000
0010
0000
0100
0000
0001
1000
,
0100
0100
1000
1000
,
1010
0000
0000
0010
,
0100
0000
0001
0000
1000
0000
0000
0100
,
0010
0011
0010
0110
,
0100
1100
0110
0011
,
1001
0001
0100
0010
,
0100
0000
0100
0000
0001
0000
0000
1000
,
0100
1000
0010
0100
,
0001
1000
1001
0101
,
0001
0100
0110
0101
,
1010
0101
0101
1001
,
0001
0100
0101
1010
,
1100
0110
0011
0011
,
1010
0011
1100
0011
,
1010
1100
1010
1100
,
0000
1100
0000
0011
,
0000
0101
0000
1001
;

//---------------dance-single - ----------------
#NOTES:
     dance-single:
     :
     Easy:
     6:
     0.447,0.682,0.734,0.000,0.000:
0000
0000
0000
0000
,
0000
0000
0000
0000
,
0000
0000
0000
0000
,
0000
0000
0000
0000
,
0000
0000
0000
0000
,
0001
1001
1000
1001
,
0001
0110
0001
0110
,
0000
0110
1001
0110
,
0101
0101
1100
1100
,
1001
0000
0001
0100
,
0010
0000
0000
0100
0010
0000
0000
0000
,
0100
0000
0000
0000
0001
0000
1000
0100
,
0010
0000
0000
0000
,
0110
0000
0100
1000
,
1010
0000
0000
0010
0100
0000
0000
0000
,
0101
0000
1001
0000
,
1000
0100
0010
0001
,
1001
0000
0001
0100
,
0010
0000
0000
0100
0001
0000
0000
0000
,
1001
0000
0000
0000
0101
0000
0001
0100
,
0001
0000
0000
0000
,
1001
0000
1000
0100
,
0110
0000
0000
0100
1000
0000
0000
0000
,
1100
0000
0011
0000
,
0101
0001
0010
0100
,
1100
0000
0100
0010
,
0001
0000
0000
1000
0001
0000
0000
0000
,
0100
0000
0000
0000
0001
0000
1000
0100
,
0010
0000
0000
0000
,
0100
0000
0010
0001
,
1000
0000
0000
0010
1000
0000
0000
0000
,
0100
0000
0000
0000
0010
0000
0100
0001
,
1000
0000
0000
0001
,
0101
0000
0001
0100
,
0010
0000
0000
0100
0010
0000
0000
0000
,
0100
0000
0000
0000
0010
0000
1000
0001
,
0100
0000
0000
0001
,
0101
0000
0001
0100
,
0010
0000
1000
0000
,
0001
1000
0001
0000
0000
0000
0000
0000
,
1000
0001
1000
0000
0000
0000
0000
0000
,
0001
1000
0001
0000
1000
0001
1000
0000
,
0001
1000
0001
1000
0001
1000
0001
1000
,
1001
0110
1001
0110
,
1001
0110
1001
0110
,
1001
0110
1001
0110
,
1001
0110
1001
0110
,
1001
0110
1001
0110
,
1001
0110
1001
0110
,
0100
0100
0010
0010
,
1000
1000
0001
0001
,
1000
1000
0100
0100
,
0010
0010
0001
0001
,
0011
1100
0011
1100
,
0101
1010
0101
1010
,
1100
0011
1100
0011
,
0101
1010
0101
1010
,
1000
0100
0010
0010
,
0100
1000
0010
0010
,
0110
0000
1001
0000
,
0101
0000
1010
0000
,
0001
0101
0000
1010
,
0000
0101
1010
0101
,
1001
1001
1001
1001
,
0001
0010
0100
1000
,
0010
0000
0000
0000
,
0110
0000
0000
0100
,
0001
0001
1000
1000
,
0100
1000
0010
0100
,
0001
0001
1000
1000
,
0001
0000
0000
0100
,
0001
0010
0100
0010
,
0001
1000
0100
1000
,
0010
0010
0100
0010
,
1001
0000
0000
0001
,
0100
0000
0001
0000
1000
0000
0000
0100
,
0010
0100
1000
0100
,
0001
0100
0010
0001
,
0001
0000
0000
0001
,
0100
0000
0001
0000
1000
0000
0000
0100
,
1000
0010
0100
0010
,
1000
0010
0100
0010
,
0000
0000
0100
0001
,
1000
0100
0010
0100
,
0000
0000
0010
0001
,
1000
1000
0001
0100
,
0100
0001
0010
0100
,
0100
0010
0001
1100
,
0000
0101
0000
0011
,
0000
1010
0000
1001
;

//---------------dance-single - ----------------
#NOTES:
     dance-single:
     :
     Beginner:
     3:
     0.230,0.492,0.186,0.000,0.000:
0000
0000
0000
0000
,
0000
0000
0000
0000
,
0000
0000
0000
0000
,
0000
0000
0000
0000
,
0000
0000
0000
0000
,
0001
0000
1000
0000
,
0010
0000
0100
0000
,
0000
0010
0010
0010
,
0100
0000
0010
0000
,
1001
0000
0001
0000
,
1001
0000
1000
0000
,
0110
0000
1001
0000
,
0110
0000
0000
0000
,
0100
0000
0010
0000
,
0100
0000
1000
0000
,
0001
0000
1000
0000
,
0010
0000
0000
0000
,
1001
0000
0001
0001
,
0001
0000
1000
0000
,
0100
0000
1000
0000
,
0010
0000
0000
0100
,
0010
0000
0100
0100
,
0100
0000
0001
0000
,
1001
0000
0110
0000
,
1001
0000
0000
0000
,
0001
0000
1000
1000
,
1000
0000
0100
0000
,
1000
0000
0010
0100
,
0100
0000
0000
0000
,
0010
0000
0100
0001
,
0100
0000
0001
0000
,
1000
0000
0001
0000
,
0100
0000
0000
0010
,
0010
0000
0100
0000
,
0001
0000
0001
0000
,
1001
0000
1001
0000
,
1001
0000
0000
0100
,
1001
0000
0001
0001
,
1000
0000
0010
0000
,
0110
0000
0000
0000
,
1001
0000
0000
0000
,
0110
0000
1001
0000
,
0110
0110
1001
1001
,
0010
0010
0010
0010
,
0100
0100
0100
0100
,
0001
0001
0001
0001
,
1000
1000
1000
1000
,
0001
0001
0001
0001
,
1000
1000
1000
1000
,
0010
0000
0000
0000
,
0100
0000
0000
0000
,
0001
0000
0000
0000
,
1000
0000
0000
0000
,
0100
0100
0100
0100
,
0010
0010
0010
0010
,
0001
0001
0001
0001
,
1000
1000
1000
1000
,
0001
0000
0000
0000
,
1000
0000
0000
0000
,
0100
0000
1000
0000
,
0010
0000
0100
0000
,
0001
0000
0000
0000
,
0000
0000
0000
0000
,
0001
0000
1000
0000
,
0010
0000
0000
0000
,
0000
0000
0000
0000
,
0001
0000
0000
0000
,
0100
0000
0001
0000
,
1000
0000
0100
0000
,
0000
0000
0000
0000
,
0010
0000
0000
0000
,
0100
0000
1000
0000
,
0001
0000
0100
0000
,
0000
0000
0000
0000
,
0001
0000
0000
0000
,
1000
0000
0100
0000
,
1000
0000
0000
0000
,
0000
0000
0000
0010
,
0010
0000
0000
0000
,
0100
0000
0001
0000
,
1000
0000
0000
0000
,
0001
0000
0000
1000
,
0000
0001
0000
0100
,
0000
0001
0000
0100
,
0000
0000
0000
0001
,
0000
1000
0000
0100
,
0000
1000
0000
0010
,
0000
0100
0000
0001
,
0000
0100
0000
0010
,
0000
1000
0000
1001
;
