#TITLE:わたぐものおなか;
#SUBTITLE:;
#ARTIST:Dormir;
#TITLETRANSLIT:Stomach of cottony clouds;
#SUBTITLETRANSLIT:;
#ARTISTTRANSLIT:;
#GENRE:;
#CREDIT:;
#BANNER:Stomach of cottony clouds.png;
#BACKGROUND:Stomach of cottony clouds-bg.png;
#LYRICSPATH:;
#CDTITLE:cdtitle.png;
#MUSIC:Stomach of cottony clouds.mp3;
#OFFSET:-4.740000;
#SAMPLESTART:26.539999;
#SAMPLELENGTH:12.000000;
#SELECTABLE:YES;
#BPMS:0.000000=82.500000
,90.000000=123.750000
,102.000000=82.500000
,106.000000=165.000000
,157.000000=82.519997
,175.000000=165.000000
;
#STOPS:
;
#BGCHANGES:;
#KEYSOUNDS:;
#ATTACKS:;

//---------------dance-single - ----------------
#NOTES:
     dance-single:
     :
     Hard:
     7:
     0.374079,0.388032,0.152045,0.152045,0.126704,274.000000,18.000000,18.000000,0.000000,0.000000,0.000000,0.374079,0.388032,0.152045,0.152045,0.126704,274.000000,18.000000,18.000000,0.000000,0.000000,0.000000:
// measure 0
1000
1000
0000
0010
0010
0000
0200
0000
,  // measure 1
0000
0000
0310
0000
1000
0000
0010
0000
1000
0000
0000
0100
1000
0010
0100
0000
,  // measure 2
0000
0000
0010
0100
0001
0000
0000
0000
0000
0000
1000
0000
0100
0000
0001
0000
,  // measure 3
0200
0000
0000
0020
0000
0330
0100
1000
,  // measure 4
0010
0000
0001
0000
0010
0000
0100
0000
0001
0000
0000
0001
1000
0010
1000
0000
,  // measure 5
0000
1000
0010
0100
0010
0000
0000
0000
0000
0000
0100
0000
0001
0000
1000
0000
,  // measure 6
0200
0000
0000
2000
0000
3300
1000
0100
,  // measure 7
0010
0000
0100
0000
1000
0000
0001
0000
0101
0000
0101
0000
0001
0100
0010
0000
,  // measure 8
0100
0000
0010
0000
1010
0000
1010
0000
0000
1000
0010
0000
0100
0000
0010
0000
,  // measure 9
0110
0000
0101
0000
0000
0002
2000
0000
0000
0000
0000
0000
0000
0000
3003
0000
,  // measure 10
0000
0000
0000
0000
0000
0000
0000
0000
1010
0000
0101
0000
0001
0010
0100
0000
,  // measure 11
0010
0000
0001
0000
0101
0000
1001
0000
0001
0100
0010
0000
0100
0000
0010
0000
,  // measure 12
1010
0101
0001
0020
0000
0130
1000
0100
,  // measure 13
0001
0000
0000
0100
0000
0000
0010
0000
0000
0001
0000
0000
2000
0000
0000
0000
0000
0000
3001
0000
0100
0001
0000
0000
,  // measure 14
1000
0100
0001
0100
0010
0001
0000
0000
,  // measure 15
0020
0000
0130
1000
0001
1000
0001
0100
,  // measure 16
0001
0000
0010
0000
0000
0000
0001
0000
0101
0000
0001
0001
1000
1000
1001
0000
,  // measure 17
0001
0000
0100
0000
0010
0000
0100
0100
0010
0010
0100
0000
0010
0000
1000
0000
,  // measure 18
0010
0000
0100
0100
0001
0001
1000
0000
0100
0000
1000
0000
0100
0000
0001
0000
,  // measure 19
0100
0000
1000
0000
0010
0000
0100
0000
0001
0000
0100
0010
1000
0010
0100
0000
,  // measure 20
0010
0000
0001
0000
0010
0000
0100
1000
0100
0001
1000
0000
0100
0000
0010
0000
,  // measure 21
0100
0000
1000
0100
0010
0001
0010
0000
0001
0000
0100
0000
0010
0000
1000
0000
,  // measure 22
0000
0020
0200
0000
0000
0000
0000
0330
0001
0000
0100
0000
0001
0000
0100
0000
,  // measure 23
0010
0100
0010
0000
1000
0000
0100
0000
,  // measure 24
1000
0000
0000
0100
,  // measure 25
1000
0000
0010
0000
0110
0110
0000
0000
,  // measure 26
0000
0001
0001
0000
0010
0000
0100
0000
,  // measure 27
1000
0000
0001
0000
1000
0000
0010
0100
,  // measure 28
0001
1000
1000
0100
,  // measure 29
0100
1000
0020
0000
0000
0000
0130
0001
,  // measure 30
1000
0001
0010
0000
0100
0000
1000
0000
,  // measure 31
0100
1000
0002
0000
0000
1003
0002
0000
,  // measure 32
0000
0000
0013
0100
0200
0000
0000
0000
,  // measure 33
0300
0110
0100
1000
,  // measure 34
0001
0100
1000
0000
0100
0000
0010
0000
,  // measure 35
1000
0010
0100
0000
0000
0000
0100
0010
,  // measure 36
1000
0001
0010
0100
,  // measure 37
0010
0001
0100
0000
0010
0100
0001
0000
,  // measure 38
0000
0000
1000
0001
0100
0000
0010
0000
,  // measure 39
1000
0000
0002
0000
0000
2000
0000
3003
,  // measure 40
1000
0000
0100
0000
0100
0000
1000
0000
0000
0000
0000
0000
0100
0000
0100
0010
,  // measure 41
0001
1000
0010
0000
0010
0000
0000
0000
0100
0000
0100
0010
1000
0001
1000
0000
,  // measure 42
1000
0000
1000
0100
0010
0100
1000
0100
,  // measure 43
0010
0001
0010
0100
0010
0001
1001
0000
;

//---------------dance-single - ----------------
#NOTES:
     dance-single:
     :
     Medium:
     4:
     0.263062,0.277165,0.016894,0.168939,0.000000,196.000000,2.000000,20.000000,0.000000,0.000000,0.000000,0.263062,0.277165,0.016894,0.168939,0.000000,196.000000,2.000000,20.000000,0.000000,0.000000,0.000000:
1000
0001
0000
0001
0100
0000
0010
0000
,
0000
0100
0001
0010
0100
0000
0010
0001
,
0000
0001
0100
0000
0000
0010
0100
0001
,
0100
0000
0000
0010
0000
0000
0100
1000
,
0100
0010
1000
0001
0010
0000
0100
0010
,
0000
0010
0100
0000
0000
1000
0100
0010
,
0001
0000
0000
1000
0000
0000
1000
0100
,
1000
0010
0000
0000
0100
0001
0000
0001
,
0100
0010
1000
0100
0000
1000
0100
0010
,
0100
1000
0000
0002
0000
0000
0003
0000
,
0000
0000
0000
0000
0100
0001
0000
0001
,
0010
0100
0010
0001
0000
0001
1000
0100
,
1000
0010
0100
0001
0000
0100
0010
1000
,
0100
0010
0100
1000
0002
0000
0000
0203
,
0000
0000
0320
0000
0000
1030
0000
0000
,
2000
0000
0000
3020
0000
0000
0230
0000
,
0000
0302
0000
0000
0023
0000
0000
0130
,
0000
0000
0200
0000
0000
1300
0100
0010
,
0002
0000
0013
0001
0100
0001
1000
0100
,
0010
0200
0000
0000
2300
0000
0000
3010
,
0000
0000
0020
0000
0000
0130
0000
0000
,
0100
0001
0100
0100
0010
1000
0010
0100
,
0001
2000
0000
0000
3100
0000
1000
0000
,
0010
0100
0001
1000
,
0100
0000
0000
1100
,
0000
0000
0000
0000
1000
0001
0000
0000
,
0000
0001
0100
0000
0100
0000
0010
0000
,
1000
0001
0010
0100
,
0010
0001
1000
0010
,
0100
0010
2000
0000
0000
0000
3010
0100
,
0010
1000
0001
0010
,
0001
0010
0001
0000
0000
0001
0200
0000
,
0000
0000
0310
1000
0002
0000
0000
0000
,
0003
1000
0100
1000
,
0010
0100
0010
1000
,
0001
0010
0200
0000
0000
0000
1300
0100
,
0010
0100
1000
0010
,
0001
0010
0100
0000
0100
0010
1000
0000
,
0000
0000
0001
0010
0100
0000
0010
0000
,
0001
0000
2000
0000
0000
3100
0000
0000
,
0100
0010
0001
1000
0000
0000
0001
0100
,
1000
0100
0100
0000
0100
0010
1000
0001
,
0001
0000
1000
0000
0000
0100
0000
0000
,
0010
0000
0000
0001
0000
0000
1001
0000
;

//---------------dance-single - ----------------
#NOTES:
     dance-single:
     :
     Easy:
     2:
     0.162905,0.166299,0.016894,0.050682,0.000000,127.000000,2.000000,6.000000,0.000000,0.000000,0.000000,0.162905,0.166299,0.016894,0.050682,0.000000,127.000000,2.000000,6.000000,0.000000,0.000000,0.000000:
0001
0000
0000
1000
0000
0000
0010
0000
,
0000
0000
0000
0000
0100
0000
0000
0001
,
0000
0000
1000
0000
0000
0100
0000
0000
,
1000
0000
0000
1000
0000
0000
1000
0000
,
0000
0100
0000
0000
0010
0000
0000
0001
,
0000
0000
0100
0000
0000
0001
0000
0000
,
1000
0000
0000
1000
0000
0000
0100
0000
,
0000
0010
0000
0000
0110
0000
0000
0100
,
0000
0000
1000
0000
0000
0001
0000
0000
,
0100
0000
0000
0020
0000
0000
0030
0000
,
0000
0000
0000
0000
0100
0000
0000
0001
,
0000
0000
1000
0000
0000
0100
0000
0000
,
1000
0000
0000
0010
0000
0000
0100
0000
,
0000
0010
0000
0000
0100
0000
0000
0001
,
0000
0000
1000
0000
0000
0100
0000
0000
,
1000
0000
0000
0010
0000
0000
0100
0000
,
0000
0001
0000
0000
1000
0000
0000
0001
,
0000
0000
1000
0000
0000
0100
0000
0000
,
1000
0000
0000
0010
0000
0000
0100
0000
,
0000
0001
0000
0000
1000
0000
0000
0001
,
0000
0000
1000
0000
0000
0010
0000
0000
,
0100
0000
0000
0001
0000
0000
0010
0000
,
0000
0100
0000
0000
1000
0000
0100
0000
,
0010
0001
0001
1000
,
0100
0000
0000
1000
,
0000
0000
0000
0000
0010
0100
0000
0000
,
0000
0100
0010
0000
0100
0000
0001
0000
,
1000
0100
1000
0010
,
0100
0001
0010
0100
,
0010
0002
0000
0000
,
1003
0100
1000
0010
,
0100
0010
1000
0020
,
0000
0100
0100
0000
,
0030
0100
0001
1000
,
0100
0010
0100
1000
,
0001
0200
0000
0301
,
0100
0010
0100
0001
,
1000
0100
0010
0200
,
0000
1300
0020
0000
,
0130
0000
0001
0000
0000
1000
0000
0000
,
0100
0000
0000
1000
0000
0000
0010
0000
,
0000
0100
0100
0000
0010
0000
0000
1000
,
1000
0000
0001
0000
0000
0100
0000
0000
,
0010
0000
0000
1000
0000
0000
1100
0000
;

//---------------dance-single - ----------------
#NOTES:
     dance-single:
     :
     Beginner:
     1:
     0.086883,0.110866,0.025341,0.000000,0.000000,69.000000,3.000000,0.000000,0.000000,0.000000,0.000000,0.086883,0.110866,0.025341,0.000000,0.000000,69.000000,3.000000,0.000000,0.000000,0.000000,0.000000:
0001
0000
0000
0001
0000
0000
0000
0000
,
0000
0000
1000
0000
,
0000
0010
0000
0000
,
0100
0000
0000
0001
,
0000
0000
1000
0000
,
0000
0100
0000
0000
,
1000
0000
0000
0001
,
0000
0000
0110
0000
,
0000
0100
0000
0000
,
0001
0000
0000
0000
,
0000
0000
1001
0000
,
0000
1000
0000
0000
,
0100
0000
0000
1000
,
0000
0000
0010
0000
,
0000
0000
0100
0000
0000
0100
0000
0000
,
0001
0000
0000
1000
,
0000
1000
0000
0000
1000
0000
0000
0000
,
0000
0100
0000
0000
,
1000
0000
0000
0001
,
0000
0001
0000
0000
0100
0000
0000
0000
,
0000
0001
0000
0000
,
1000
0000
0000
0100
,
0000
0100
0000
0000
0010
0000
0000
0000
,
0000
0001
0000
0000
,
1000
0000
0000
0100
,
0000
0000
1000
0000
,
0000
0001
0000
0000
0100
0000
0000
0000
,
0000
0001
0000
0000
,
1000
0000
0000
0010
,
0000
0000
0000
0100
,
0100
0001
0000
0000
,
0100
0000
0000
0010
,
0000
1000
1000
0000
,
0000
0100
0000
0000
,
1000
0000
0000
0001
,
0001
0001
0000
0000
,
0100
0010
0000
0000
,
0100
0000
0000
0001
,
0000
0000
1000
0000
,
0000
0100
0000
0000
,
1000
0000
0000
0010
,
0000
0000
0100
0000
,
0000
0000
0001
0000
0000
0010
0000
0000
,
0100
0000
0000
1000
0000
0000
1001
0000
;

//---------------dance-single - ----------------
#NOTES:
     dance-single:
     :
     Challenge:
     9:
     0.586459,0.628242,0.473029,0.312537,0.401230,393.000000,56.000000,37.000000,0.000000,0.000000,0.000000,0.586459,0.628242,0.473029,0.312537,0.401230,393.000000,56.000000,37.000000,0.000000,0.000000,0.000000:
// measure 0
1001
1001
0000
1001
1001
0000
0001
0010
,  // measure 1
0100
0000
1100
0000
0110
0000
0011
0000
1001
0000
0000
0001
1000
1000
0010
0000
,  // measure 2
0000
0000
0010
1000
0200
0000
0000
0000
0000
0000
0320
0000
0031
0000
1000
0000
,  // measure 3
0010
0000
0100
0001
0100
0010
1000
0000
0100
0000
0000
0000
0000
0000
0100
0010
,  // measure 4
0001
0010
0001
0000
0010
0000
0100
0000
1000
0010
0000
0100
0001
0010
0100
1000
,  // measure 5
0000
0100
1000
0100
0010
0001
0000
0010
0001
0010
0100
1000
0000
0100
1000
0010
,  // measure 6
0100
0100
0000
0010
1000
0001
0010
0010
0000
0100
0010
0001
1000
1000
0000
0001
,  // measure 7
0100
0001
0010
0010
0000
0010
0100
0100
1200
0000
0310
0000
0100
1000
0020
0000
,  // measure 8
1000
0000
0130
0000
1010
0000
0101
0000
0000
0001
0010
0000
0100
0000
1000
0000
,  // measure 9
1002
0000
0103
0000
0000
0001
0010
1000
0010
0000
0100
0000
0010
0000
0001
0000
,  // measure 10
1000
0000
0100
1000
0010
0100
0001
1000
1001
0000
1010
0000
1000
0010
0110
0000
,  // measure 11
1010
0000
0011
0000
1001
0000
0101
0000
0000
0010
1000
0000
0100
0000
0001
0000
,  // measure 12
0201
0320
0032
2000
3003
0011
0020
0230
,  // measure 13
2300
0000
3020
0000
0230
0000
0302
0000
1003
0010
0100
0010
1000
0001
0010
0100
,  // measure 14
1000
0010
1000
0001
0010
0001
0010
0100
1000
0010
0100
0001
0100
0001
0010
0100
,  // measure 15
1000
0010
0100
0001
0010
0100
1000
0010
1000
0001
0010
0100
1000
0010
1000
0001
,  // measure 16
0010
0000
0000
0100
0000
0000
1000
0000
0001
0000
1000
0000
0001
0000
1000
0000
0001
0000
0100
0000
0000
0010
0000
0000
1001
0000
0000
0000
0000
0000
0001
0000
0000
1000
0000
0000
0001
0000
0000
1000
0000
0000
1001
0000
0000
0000
0000
0000
,  // measure 17
0101
0000
0011
0000
0020
0000
0130
1000
0010
0100
0101
0000
1010
0000
1100
0000
,  // measure 18
2000
3200
0302
0203
0320
0032
2003
3020
,  // measure 19
0230
0000
0001
0000
0310
1000
0001
0000
0021
0000
0130
0010
0100
0010
0002
0000
,  // measure 20
0203
0000
0310
0000
0010
1000
0000
1000
0001
0010
0100
0000
1000
0000
0001
0000
,  // measure 21
1000
0001
0000
0001
0010
0001
1000
0000
0001
0000
0100
0000
0010
0000
1000
0000
,  // measure 22
0000
0100
0020
0000
0031
0010
0100
0000
0010
0000
0001
0000
0100
0000
0001
0000
,  // measure 23
1000
0100
1000
0000
0001
0000
0010
0000
,  // measure 24
0100
0000
0000
0000
1000
0000
0000
0001
0000
0000
0010
0000
0000
0100
0000
0000
1000
0000
0000
0010
0000
0000
0000
0000
0100
0000
0000
0000
0010
0000
0000
0000
,  // measure 25
1000
0000
0001
0000
0010
0000
0000
0000
0011
0000
1100
0000
1000
0001
0100
0000
,  // measure 26
0001
0010
0110
0000
0110
0000
0100
0000
1100
0000
0000
0000
0011
0000
0000
0000
,  // measure 27
0001
0100
0110
0000
1010
0000
1000
0001
,  // measure 28
0011
1001
1001
1100
,  // measure 29
0001
1000
0020
0000
0000
0000
0130
0001
,  // measure 30
0011
0000
0010
0100
0010
0100
1000
0100
,  // measure 31
1000
0100
1000
0001
1000
0001
1000
0010
,  // measure 32
1000
0010
1000
0010
0100
0001
0010
0100
,  // measure 33
1000
0010
0110
0000
1010
0000
1000
0001
,  // measure 34
0011
1100
0011
1001
,  // measure 35
0001
0100
0020
0000
0100
0000
0130
0001
,  // measure 36
1001
0000
0001
0010
0001
0100
0010
1000
,  // measure 37
0100
0010
0100
1000
0001
0100
0001
0010
,  // measure 38
0001
1000
0010
0100
0001
0010
0100
1000
,  // measure 39
0001
0100
0120
0100
0130
0200
0001
0001
,  // measure 40
0302
0000
0023
0000
0230
0000
2300
0000
0100
0000
3100
0000
1100
0000
1000
0100
,  // measure 41
0010
0001
1001
0000
1001
0000
0000
0000
0101
0000
0001
0100
0010
1000
0101
0000
,  // measure 42
0101
0000
0000
0000
0001
0000
0010
0000
0100
1000
0010
0000
0100
0000
0001
0010
,  // measure 43
0100
0000
0010
0000
1000
0100
0010
0000
0100
0000
1000
0001
0100
0000
0000
0000
;
