#TITLE:Spinning Around;
#SUBTITLE:;
#ARTIST:Dirty Androids;
#TITLETRANSLIT:;
#SUBTITLETRANSLIT:;
#ARTISTTRANSLIT:;
#CREDIT:;
#BANNER:Spinning Around.png;
#BACKGROUND:Spinning Around-background.png;
#JACKET:Spinning Around-jacket.png;
#LYRICSPATH:;
#CDTITLE:cdtitle.png;
#MUSIC:1-18 Spinning Around.mp3;
#OFFSET:-0.144;
#SAMPLESTART:22.460;
#SAMPLELENGTH:12.000;
#SELECTABLE:YES;
#BPMS:0.000=128.990;
#STOPS:160.000=1.395
;
#BGCHANGES:;

//---------------dance-single - ----------------
#NOTES:
     dance-single:
     :
     Hard:
     7:
     0.395,0.411,0.024,0.312,0.120:
0000
0000
0000
0000
,
0000
0000
0000
0000
,
0000
0000
0000
0000
,
0000
0000
0000
1001
,
0010
0100
0001
0000
1000
0000
0100
0000
,
0010
0001
0100
0000
0010
0000
1000
0000
,
0100
1000
0100
0000
0010
0000
0001
0000
,
1000
0001
1000
0000
0001
0000
1000
0000
,
0010
0100
0001
0000
1000
0000
0010
0000
,
0100
0001
0010
0000
1000
0000
0010
0000
,
0001
0100
0000
0100
0000
0010
0000
0010
,
1000
0000
1000
0010
0000
0010
0000
0010
0000
0000
0100
0000
1001
0000
0000
0000
,
0001
0100
0010
0200
0000
0000
0010
0310
,
0000
0100
0001
2000
0000
0000
0100
3100
,
0000
0100
0010
0002
0000
0000
0100
0103
,
0000
0010
1000
0002
0000
0000
1000
1003
,
0000
1000
0100
0020
0000
0000
0100
0130
,
0000
0100
1000
0020
0000
0000
0100
0130
,
0002
0103
0200
0310
,
0100
0010
1000
0001
0010
0100
1100
0000
,
1000
0000
0000
1000
0000
0000
1000
0000
0000
0000
0001
0000
0000
0100
0000
0000
,
0001
0000
0000
0001
0000
0000
0001
0000
0000
0000
0010
0000
0000
0100
0000
0000
,
0010
0000
0000
0010
0000
0000
0010
0000
0000
0000
0100
0000
0000
1000
0000
0000
,
0100
0000
0000
0100
0000
0000
0100
0000
0000
0000
0010
0000
0000
0001
0000
0000
,
1000
0000
0000
0001
0000
0000
0100
0000
0000
0000
0001
0000
0000
1000
0000
0000
,
0010
0000
0000
0010
0000
0000
0010
0000
0000
0000
0100
0000
0000
0001
0000
0000
,
0010
0000
0000
0010
0000
0000
0010
0000
0000
0000
0010
0000
0000
0100
0000
0000
,
1000
0000
0000
1000
0000
0000
1000
0000
0000
0000
0100
0000
0000
1000
0000
0000
,
0010
0100
0001
0000
1000
0000
0100
0000
,
1000
0100
1000
0000
0010
0000
0100
0000
,
0001
0100
0010
0000
1000
0000
0001
0000
,
0010
0100
1000
0000
0100
0000
1000
0000
,
0010
0100
0001
0000
0010
0000
0100
0000
,
1000
0100
1000
0000
0010
0000
0100
0000
,
0001
1000
0010
0000
0100
0000
0001
0000
,
0010
0100
1000
0000
0100
0000
1000
0000
,
0010
0100
0000
0001
0000
0100
0000
0010
,
0000
0010
0000
1000
0000
0001
0000
1000
,
0100
1000
0000
0100
0000
0010
0000
0001
,
0000
1000
0100
0010
0001
1000
0100
0010
,
0001
0000
0001
0100
0010
0200
0000
0000
,
0001
0301
0000
0001
0010
2000
0000
0000
,
0010
3010
0000
0010
0100
2000
0000
0000
,
0100
3100
0000
1000
0100
0002
0000
0000
,
0100
0103
0000
0100
0010
0002
0000
0000
,
0010
0013
0000
0001
0010
2000
0000
0000
,
0010
3010
0000
0010
0100
2000
0000
0000
,
0100
3100
0000
1000
0010
0200
0000
0000
,
0001
0001
0302
0000
1003
0020
0000
0000
,
0130
0002
0000
0000
0013
0200
0000
0000
,
0000
0320
0000
0032
0000
0023
0000
0230
,
0000
2300
0000
3002
0203
0020
0000
0000
,
0330
0010
2000
0000
3001
0200
0000
0000
,
0301
0020
0000
0000
0130
2000
0000
3200
,
0000
2300
0000
0000
0000
3002
0000
0203
,
0000
0320
0000
0130
0001
1000
0100
1000
,
0010
0000
0100
0000
0010
0000
1000
0000
0000
1000
0000
0000
0001
0000
0000
0001
,
0000
0000
0100
0000
0000
0000
0100
0000
0000
0100
0000
0000
0010
0000
0000
0010
,
0000
0000
1000
0000
0000
0000
1000
0000
0000
0100
0000
0000
0010
0000
0000
0100
,
0000
1000
0000
1000
0001
0000
0100
0000
,
0010
0000
0000
0000
0000
0000
0100
0000
0000
0100
0000
0000
0010
0000
0000
0010
,
0000
0000
0100
0000
0000
0000
0001
0000
1000
0000
0001
0000
0010
0000
0000
0100
,
0000
1000
0000
0001
0000
0000
0000
0100
,
0001
0000
0200
0000
0000
0000
0310
0000
0000
1000
0000
1000
0001
0000
0100
0000
,
0200
0300
0000
0000
;

//---------------dance-single - ----------------
#NOTES:
     dance-single:
     :
     Medium:
     5:
     0.323,0.308,0.040,0.280,0.000:
0000
0000
0000
0000
,
0000
0000
0000
0000
,
0000
0000
0000
0000
,
0000
0000
0000
1001
,
0001
0100
0001
0000
0100
0000
0010
0000
,
1000
1000
0001
0001
,
0010
0100
1000
0000
0100
0000
1000
0000
,
0010
0010
0100
0100
,
0001
0100
0001
0000
0100
0000
0010
0000
,
1000
0100
0001
0100
,
0010
0100
0000
0100
0000
0100
0000
0100
,
0020
0000
0000
0030
,
0000
0001
1000
0002
0000
0000
0103
0000
,
0000
0001
1000
0002
0000
0000
0013
0000
,
0000
0001
1000
0200
0000
0000
0310
0000
,
0000
0010
0001
0020
0000
0000
0130
0000
,
0000
1000
0001
2000
0000
0000
3100
0000
,
0000
1000
0001
2000
0000
0000
3010
0000
,
0100
0010
1000
0010
,
0100
0001
1000
0000
1000
0100
0001
0000
,
0002
0000
0000
0103
,
0200
0000
0000
0310
,
0020
0000
0000
0130
,
0200
0000
0000
1300
,
2000
3001
0001
0100
,
0020
0130
0010
1000
,
0200
1300
0100
1000
,
0020
0130
0010
1000
,
0001
1000
0001
0000
0100
0000
0100
0000
,
0001
1000
0100
0000
1000
0000
0010
0000
,
0100
0001
0100
0000
0010
0000
1000
0000
,
0100
0010
0100
0000
1000
0000
0010
0000
,
0100
0001
0100
0000
0010
0000
0100
0000
,
0010
1000
0001
0000
0010
0000
0100
0000
,
1000
0100
1000
0000
0010
0000
0100
0000
,
0001
0100
0010
0000
1000
0000
0001
0000
,
1010
0000
0101
0000
,
1001
0000
1100
0000
,
0100
0100
0100
0100
,
0200
0320
0032
2000
,
3003
0000
0000
0001
0100
0020
0000
0000
,
0130
0000
0000
0100
0010
2000
0000
0000
,
3100
0000
0000
0100
0010
0002
0000
0000
,
1003
0000
0000
1000
0010
0200
0000
0000
,
0301
0000
0000
0001
1000
0020
0000
0000
,
1030
0000
0000
0100
0010
0002
0000
0000
,
1003
0000
0000
1000
0010
0200
0000
0000
,
0310
0000
0000
0100
0010
2000
0000
0000
,
3001
0000
1000
0000
0100
2000
0000
0000
,
3100
0020
0000
0000
0031
0020
0000
0000
,
0000
0130
0000
1000
0000
0001
0000
0100
,
0000
0001
0000
1000
0001
0200
0000
0000
,
0300
0000
0001
0000
0100
0020
0000
0000
,
1030
0020
0000
0000
0130
0010
0000
1000
,
0000
0002
0000
0000
0000
0000
0000
0000
,
1003
0000
1000
0000
0100
0000
0010
0001
,
0010
0000
0001
0000
0100
0000
0010
0100
,
0010
0100
0010
1000
,
1000
0000
0001
0000
0010
0000
0100
1000
,
0100
1000
1000
0001
,
0001
0000
0100
0010
1000
0000
0001
0000
,
0010
0000
0100
1000
0100
0000
1000
0000
,
0010
0100
0100
0010
,
0010
0000
1000
0000
0001
0000
1000
0010
,
0020
0030
0000
0000
;

//---------------dance-single - ----------------
#NOTES:
     dance-single:
     :
     Easy:
     3:
     0.235,0.360,0.112,0.248,0.000:
0000
0000
0000
0000
,
0000
0000
0000
0000
,
0000
0000
0000
0000
,
0000
0000
0000
1001
,
0010
1000
1000
0000
,
0010
0000
0100
0000
,
0001
1000
1000
0000
,
0100
0000
1000
0000
,
0010
0100
0100
0000
,
0001
0000
1000
0000
,
1001
0000
0110
0000
,
0202
0000
0000
0303
,
0001
0100
0020
0030
,
0100
0010
2000
3000
,
0100
1000
0020
0030
,
0100
0001
0002
0003
,
1000
0010
0200
0300
,
0010
1000
0200
0300
,
1000
0000
0100
0000
,
0010
0001
0010
0100
,
2000
0000
0000
3000
,
0002
0000
0000
0003
,
0200
0000
0000
0300
,
0020
0000
0000
0030
,
0200
0000
0000
0300
,
0002
0000
0000
0003
,
2000
0000
0000
3000
,
0200
0000
0000
0300
,
1000
0010
0100
0000
,
0010
0100
0001
0000
,
1000
0100
0100
0000
,
1000
0010
0010
0000
,
0100
0001
0001
0000
,
1000
0010
0100
0000
,
0010
0100
0100
0000
,
0001
1000
1000
0000
,
1001
0000
0010
0000
,
1001
0000
0100
0000
,
1001
0000
1001
0000
,
1001
0110
1001
0110
,
1001
0001
0100
0020
,
0130
0010
1000
0200
,
0310
0100
1000
0020
,
0130
0001
0010
0200
,
0310
0001
0100
0020
,
0130
0010
1000
0200
,
0310
0100
0010
0002
,
1003
1000
0010
0200
,
0310
0200
0000
0301
,
0000
0200
0000
0310
,
0000
0010
1000
0100
,
0001
0100
0100
0010
,
0010
0200
0000
1300
,
0000
2000
0000
3001
,
0000
2000
0000
0020
,
3030
0010
0100
0001
,
1000
1001
0000
0001
,
0000
0100
0000
0001
,
0000
1000
0000
0100
,
0000
1000
0010
0100
,
0001
1000
0000
0001
,
0000
0100
0000
0001
,
0000
1000
0000
0001
,
0000
0000
1000
0000
0100
0000
0010
0100
,
0020
0030
0000
0000
;

//---------------dance-single - ----------------
#NOTES:
     dance-single:
     :
     Beginner:
     1:
     0.113,0.179,0.024,0.008,0.000:
0000
0000
0000
0000
,
0000
0000
0000
0000
,
0000
0000
0000
0000
,
0000
0000
0000
1001
,
0010
0000
0000
0000
,
0100
0000
0000
0000
,
0001
0000
0000
0000
,
1000
0000
0000
0000
,
0100
0000
0000
0000
,
1000
0000
0000
0000
,
0001
0000
0001
0000
,
0200
0000
0000
0300
,
0010
0000
0000
0000
,
1000
0000
0000
0000
,
0001
0000
0000
0000
,
0001
0000
0000
0000
,
1000
0000
0000
0000
,
0100
0000
0000
0000
,
1000
0000
0010
0000
,
0100
0100
0100
0100
,
0001
0000
0000
0000
,
1000
0000
0000
0000
,
0001
0000
0000
0000
,
1000
0000
0000
0000
,
0010
0000
0000
0000
,
0100
0000
0000
0000
,
0010
0000
0000
0000
,
0100
0000
0000
0000
,
0001
0001
0001
0000
,
1000
0000
0000
0000
,
0010
0010
0010
0000
,
0100
0000
0000
0000
,
0100
0100
0001
0000
,
1000
0000
0000
0000
,
1000
1000
0010
0000
,
0100
0000
0000
0000
,
1001
0000
0000
0000
,
0010
0000
0000
0000
,
1000
0000
1000
0000
,
0001
0001
0001
0001
,
0000
0100
0000
0000
,
0010
0000
0000
0000
,
0100
0000
0000
0000
,
0001
0000
0000
0000
,
1000
0100
1000
0000
,
0010
0000
0000
0000
,
0100
0000
0000
0000
,
0001
0000
0000
0000
,
1000
0010
0000
0000
,
0100
0000
0001
0000
,
0000
1000
0000
0001
,
0000
0100
0100
0100
,
0000
0010
0000
0000
,
1000
0000
0001
0000
,
0000
0100
0000
0001
,
0000
1000
1000
0001
,
0001
1001
0000
0010
,
0000
0100
0000
0000
,
0000
0010
0000
1000
,
0000
0001
0000
0000
,
0000
0001
0000
0010
,
0000
0100
0000
0000
,
0000
1000
0000
0000
,
0000
0001
0000
0100
,
0100
0000
0000
0000
;

//---------------dance-single - ----------------
#NOTES:
     dance-single:
     :
     Challenge:
     9:
     0.543,0.642,0.080,0.472,0.236: // measure 1
0000
0000
0000
0000
,  // measure 2
0000
0000
0000
0000
,  // measure 3
0000
0000
0000
0000
,  // measure 4
0000
0000
0000
1001
,  // measure 5
0001
0000
1000
0000
0100
1000
0200
0000
0000
0000
0010
0000
0000
0000
1300
0000
,  // measure 6
0001
0100
0010
0000
0100
0001
1000
0000
,  // measure 7
0001
0000
1000
0000
0100
0010
0002
0000
0000
0000
0010
0000
0000
0000
0103
0000
,  // measure 8
0010
0100
0001
0000
1000
0100
0010
0000
,  // measure 9
0100
0000
1000
0000
0010
0001
0200
0000
0000
0000
0010
0000
0000
0000
1300
0000
,  // measure 10
0010
0100
0001
0000
1000
0100
0010
0000
,  // measure 11
0010
0200
1300
0020
0130
0002
1003
0002
,  // measure 12
0013
0100
1000
0001
0000
1001
0000
1001
0000
0001
0100
0000
0110
0000
0000
0000
,  // measure 13
0100
0000
0001
0000
0010
0000
0200
0000
0000
0000
0000
0000
0310
0001
0010
0000
,  // measure 14
0000
0000
0100
0000
1000
0000
0020
0000
0000
0000
0000
0000
0130
0001
1000
0000
,  // measure 15
0000
0000
0100
0000
0010
0000
0002
0000
0000
0000
0000
0000
0013
0100
1000
0000
,  // measure 16
0000
0000
0100
0000
1000
0000
0200
0000
0000
0000
0000
0000
1300
0100
0010
0000
,  // measure 17
0000
0000
0100
0000
1000
0000
0020
0000
0000
0000
0000
0000
0130
0001
0100
0000
,  // measure 18
0000
0000
0001
0000
1000
0000
0200
0000
0000
0000
0000
0000
0310
0001
0010
0001
,  // measure 19
0010
0000
0110
0000
1100
0100
0010
0000
,  // measure 20
0100
0000
1000
0000
0100
0000
0001
0000
0100
1000
0010
0100
0001
0000
1000
0000
,  // measure 21
0001
0000
0100
0000
1000
0000
0200
0000
0000
0000
0000
0000
0310
1000
0001
0000
,  // measure 22
0000
0000
0010
0000
1000
0000
0020
0000
0000
0000
0000
0000
0130
0010
0001
0000
,  // measure 23
0000
0000
0001
0000
0100
0000
2000
0000
0000
0000
3000
0000
1000
0100
0001
0000
,  // measure 24
0000
0000
0001
0000
0010
0000
2000
0000
0000
0000
3000
0000
1000
0010
0100
0000
,  // measure 25
0000
0000
0100
0000
1000
0000
0200
0000
0000
0000
0300
0000
0100
0001
0010
0000
,  // measure 26
0000
0000
0010
0000
0100
0000
2000
0000
0000
0000
3000
0000
1000
0010
0001
0000
,  // measure 27
0000
0000
0001
0000
0010
0000
0200
0000
0000
0000
0300
0000
0100
1000
0001
0000
,  // measure 28
0000
0000
0001
0000
0010
0000
2000
0000
0000
0000
3000
0000
1000
0010
0001
0000
,  // measure 29
1000
0001
0010
0001
1000
0010
1000
0001
,  // measure 30
0010
0001
0100
0001
1000
0100
0010
0010
,  // measure 31
0100
1000
0010
0001
0010
0100
1000
0100
,  // measure 32
0001
0010
1000
0010
0100
0010
0001
1000
,  // measure 33
0001
0100
0001
1000
0100
1000
0001
0100
,  // measure 34
0001
1000
0100
1000
0001
0100
0001
0001
,  // measure 35
0001
0100
0010
1000
0100
0010
0100
1000
,  // measure 36
0010
0001
0010
1000
0010
0100
0010
1000
,  // measure 37
0001
0000
1000
0000
0000
0100
1000
0000
0000
0000
0100
0000
0000
0100
0010
0000
,  // measure 38
0000
0000
0010
0000
0000
0010
0000
0001
0000
0000
0001
0000
0000
0001
1000
0000
,  // measure 39
0000
1001
0000
1001
0000
1001
0000
1001
,  // measure 40
0000
0001
0100
0010
1000
0001
0100
0010
,  // measure 41
1000
0000
0001
0100
1000
0010
0001
0100
,  // measure 42
1000
0010
0001
0100
1000
0010
0001
0100
,  // measure 43
1000
0010
0001
0100
1000
0010
0001
0100
,  // measure 44
1000
0010
0001
0100
1000
0010
0001
0000
,  // measure 45
1000
0001
1000
0000
1000
0000
0010
0000
0001
0000
0100
0000
1000
0000
0010
0000
,  // measure 46
0001
0100
1000
0010
0001
0100
1000
0010
,  // measure 47
0001
0100
1000
0010
0001
0100
1000
0010
,  // measure 48
0001
0100
1000
0010
0001
0100
1000
0000
,  // measure 49
0001
1000
0001
0000
0200
0000
0000
0000
0302
0000
0203
0000
0000
0000
0000
0000
,  // measure 50
0320
2030
0000
0000
3020
0230
0000
0000
,  // measure 51
0000
0320
0000
2030
0000
3002
0000
2003
,  // measure 52
0000
3002
0000
2003
3200
0320
0000
0000
,  // measure 53
0000
0230
2300
0000
3200
0320
0000
0000
,  // measure 54
0230
2300
0000
0000
3200
0320
0000
0032
,  // measure 55
0000
2003
0000
0000
0000
3200
0000
2300
,  // measure 56
3200
0320
0000
0230
2300
3020
0230
0302
,  // measure 57
2003
0000
3002
0000
0023
0000
0100
0000
0030
0100
0000
0000
1000
0000
0000
1000
,  // measure 58
0000
0000
0100
0000
0000
0000
1000
0000
0000
0010
0000
0000
0100
0000
0000
0001
,  // measure 59
0000
0000
1000
0000
0000
0000
0001
0000
0000
0100
0000
0000
0010
0000
0000
1000
,  // measure 60
0000
0000
0010
0000
0000
0100
0010
1000
0000
0001
0100
0010
0000
0100
0001
1000
,  // measure 61
0000
1000
0100
0010
0000
0000
0010
0000
0000
0001
0000
1000
0100
1000
0000
0100
,  // measure 62
0000
0000
1000
0000
0000
0000
1000
0100
0010
0100
1000
0001
1000
0100
0000
0100
,  // measure 63
0000
0000
0010
0000
0000
0000
0100
0000
0000
0000
0000
0000
0000
0000
0010
0001
,  // measure 64
0010
0000
0001
0000
0000
0000
0010
0000
0000
0100
0000
1000
0100
0000
0010
0000
,  // measure 65
0200
0000
1000
1300
0000
0000
0000
0000
0000
0000
0000
0000
0000
0000
0000
0000
;
