#TITLE:Sol Cosine Job 2;
#SUBTITLE:;
#ARTIST:DJ TECHNORCH;
#TITLETRANSLIT:;
#SUBTITLETRANSLIT:;
#ARTISTTRANSLIT:;
#GENRE:;
#CREDIT:;
#BANNER:Sol Cosine Job 2.png;
#BACKGROUND:Sol Cosine Job 2-bg.png;
#LYRICSPATH:;
#CDTITLE:cdtitle.png;
#MUSIC:Sol Cosine Job 2.mp3;
#OFFSET:0.870000;
#SAMPLESTART:21.840000;
#SAMPLELENGTH:12.000000;
#SELECTABLE:YES;
#BPMS:0.000000=190.000000
,5.000000=380.001007
,10.000000=190.001999
,42.000000=379.994995
,50.000000=95.000999
,52.000000=190.001999
,72.000000=380.003998
,80.000000=190.001999
,144.000000=380.005005
,151.000000=190.001999
,215.000000=95.000999
,223.000000=190.001999
,239.000000=390.003998
,271.000000=400.003998
,300.000000=200.001999
,301.000000=400.003998
,308.000000=800.007996
,316.000000=199.996002
,344.000000=400.002014
,352.000000=199.996002
,382.000000=99.998001
,383.000000=199.996002
,415.000000=400.002014
,421.000000=99.998001
,423.750000=1000.005005
,429.000000=199.996002
;
#STOPS:9.000000=0.158000,
150.000000=0.079000,
150.500000=0.079000,
302.000000=0.112000,
302.750000=0.113000,
303.500000=0.075000,
304.000000=0.112000,
304.750000=0.113000,
305.500000=0.075000,
306.000000=0.113000,
306.750000=0.112000,
307.500000=0.075000,
415.000000=0.450000,
416.000000=0.150000,
417.000000=0.450000,
418.000000=0.150000,
419.000000=0.150000,
420.000000=0.150000
;
#BGCHANGES:;
#KEYSOUNDS:;
#ATTACKS:;

//---------------dance-single - ----------------
#NOTES:
     dance-single:
     :
     Hard:
     12:
     0.909153,1.000000,0.695438,0.493276,0.525622,640.000000,86.000000,61.000000,0.000000,0.000000,0.000000,0.909153,1.000000,0.695438,0.493276,0.525622,640.000000,86.000000,61.000000,0.000000,0.000000,0.000000:
0000
0000
0000
0000
,
0000
0000
0000
0000
,
0000
0000
1001
0001
,
1000
0000
0100
0000
1000
0001
0100
0000
,
0010
0000
0000
0100
0010
0000
1000
0000
0001
0000
0000
0000
0010
0000
0000
0000
,
0100
1000
0010
0100
,
0100
0010
0100
0001
1001
0000
0101
0000
,
0011
1010
1001
0101
,
1001
1000
1001
0001
1001
0000
0101
0101
,
0101
1010
1100
0110
,
0011
0010
0110
0100
1100
0000
0000
0000
,
0000
0000
0000
0000
,
0000
0000
0000
0000
0002
0203
2300
3200
,
0310
1000
0100
0001
0100
0010
0002
0000
,
0013
1000
0010
0100
0010
0001
1000
0001
,
0100
1000
0100
0010
1000
0001
2000
0000
,
3100
1000
0001
0100
0001
0010
0100
0010
,
0001
1000
0010
0100
1000
0100
0001
0010
,
0100
0000
0010
0000
0001
0000
0100
0000
0010
0000
1000
0000
,
0001
0000
0010
0000
0100
0000
1000
0000
0010
0000
0100
0000
,
0001
1000
0100
0010
0100
1000
0020
0000
,
0130
0010
0100
0001
1000
0010
0100
0010
,
1000
0000
0000
1000
0001
0000
0100
0000
0001
0000
1000
0000
0010
0000
0100
0000
,
1000
0000
0000
0100
0010
0000
0000
0100
0020
0000
0000
0000
0230
0000
0000
0000
,
0310
0100
0001
0010
0100
0010
0200
0000
,
1300
0010
1000
0100
0010
0100
1000
1000
,
0001
0000
0000
1000
0010
1000
0010
0000
1000
0010
0000
1000
0010
0000
0100
0000
,
0020
0000
0130
0010
2000
0000
3001
0100
0020
0000
0130
0010
1000
0100
0010
0001
,
1000
0000
0001
0000
0100
0000
0001
0000
0010
0100
0010
0000
0002
0000
0000
0000
,
1003
0000
0100
0000
2000
0000
0000
3001
0010
0100
0010
0000
0100
0000
0100
0000
,
1000
0100
0000
0010
0001
0100
0000
0010
0100
0000
0001
0000
1000
0000
0001
0000
,
0021
0230
2300
3002
,
0103
0000
1000
0000
0100
0000
0010
0000
1000
0010
0100
0000
0002
0000
0000
0000
,
0013
0000
1000
0000
0010
0000
0100
0000
0010
0100
0010
0000
2000
0000
0000
0000
,
3001
0000
0010
0000
0200
0000
0310
0000
0001
1000
0010
0000
1000
0000
1000
0000
,
0001
0010
0000
0100
1000
0100
0000
1000
0100
0010
1000
0010
0100
0001
0010
0001
,
1000
0000
0000
0000
,
0000
0000
0000
0000
0000
0000
0000
0000
0101
0000
1010
0000
0101
0000
0001
0100
,
0000
0100
0010
0000
0010
1000
0000
1000
0100
0000
0010
0000
0100
0000
2100
0000
,
0000
0000
3200
0000
0000
0000
0302
0000
0000
0000
0103
0000
0010
0000
0100
0010
,
0000
0010
0001
0000
0001
0100
0000
0100
0010
0000
0100
0000
0001
0000
0201
0000
,
0000
0000
0320
0000
0000
0000
2030
0000
0000
0000
3100
0000
0010
0000
0100
1000
,
0000
1000
0010
0000
0010
0100
0000
0100
0001
0000
1000
0000
0100
0000
0020
0000
,
0000
0000
0230
0000
0000
0000
2300
0000
0000
0000
3001
0000
1000
0000
0010
1000
,
0000
0100
0001
0000
0001
0010
0000
0100
1000
0000
0001
0000
0100
0000
0220
0000
,
0030
0000
0320
0000
0000
0000
2000
0000
0000
0000
3030
0000
0101
0000
0000
1010
,
0000
0000
1100
0000
0000
0110
0000
0000
0001
0000
0010
0000
0110
0000
0000
0011
,
0000
0000
0101
0000
0000
1010
0000
0000
1000
0000
0010
0000
0110
0000
0000
1010
,
0000
0000
0101
0000
0000
1001
0000
0000
1000
0000
0100
0000
0110
0000
0000
0011
,
0000
0000
1010
0000
0000
0101
0000
0000
0001
0000
1000
0000
1100
0000
0000
0110
,
0000
0000
0011
0000
0000
0110
0000
0000
0001
0000
0100
0000
1010
0000
0000
0011
,
0000
0000
0110
0000
0000
1100
0000
0000
1000
0000
0001
0000
0101
0000
0000
0011
,
0000
0000
0110
0000
0000
1100
0000
0000
1000
0000
0100
0000
1000
0000
0001
0100
,
0010
0000
0100
0010
1000
0001
0010
0100
1000
0100
0010
0001
1000
0000
0000
0000
,
0000
0000
0000
0000
,
0000
0000
0000
0000
0000
0000
0000
0000
0000
0000
0000
0001
0001
0000
0000
0000
,
1000
0001
1000
0010
,
0100
0010
0100
0001
,
0100
0000
0000
0000
0010
0000
0000
0000
1000
0000
0000
0000
1010
0000
0000
1010
,
0000
0000
0101
0000
0000
0101
0000
0000
0001
0000
0010
0000
0100
0000
0000
0000
,
0010
0001
0001
0010
,
0100
1000
0010
0100
,
0001
0000
0010
0000
0100
0000
1000
0001
,
0100
0020
2030
3100
,
0001
0000
0100
0000
0010
0000
0001
1000
,
0001
0010
0100
1000
,
0010
0000
0100
0001
0010
0000
0100
1000
,
0010
0200
0302
1003
,
0100
0010
0100
1000
,
0010
0100
0001
0010
,
0001
0100
0010
1002
,
1003
2001
3001
1000
,
0010
0100
0001
0010
,
1000
0000
0010
0000
0100
0000
1000
0100
,
1000
0100
1000
0100
1000
0100
1000
0100
,
1000
0000
0000
0000
0000
0000
0000
0000
1001
0000
0000
1001
0000
0000
1001
0000
,
0110
0000
0000
0110
0000
0000
0110
0000
1001
0000
0000
1001
0000
0000
0110
0000
,
2002
0000
0000
0000
,
0000
0000
0000
0000
0000
0000
0000
0000
0000
0000
0000
0000
0000
0000
0000
3003
,
0220
0000
0000
0000
,
0330
0000
0000
0000
,
0110
0000
0000
0000
,
0000
0000
0000
0000
0001
0001
0001
0001
,
1001
0000
0000
0000
0000
0110
0000
0000
,
1001
0000
0000
0110
0000
0110
0000
0001
,
1001
0000
0000
1000
0010
0000
0001
0000
0010
0000
1000
0000
0100
0000
0010
0000
,
0100
0000
0010
0000
0001
0000
0010
0000
0001
0000
1000
0000
,
0010
0000
1000
0000
0100
0000
1000
0000
0010
0000
0100
0000
,
0001
1000
0100
1000
0001
0100
0002
0000
,
1003
0100
0010
0100
1000
0010
0100
0100
,
0001
0000
0100
0000
0000
0010
1000
0000
0010
0100
0000
0010
1000
0000
0001
0000
,
0020
0230
2300
3002
,
0103
1000
0100
0001
0010
0100
0020
0000
,
0031
0000
0010
0000
1000
0000
0010
0000
0100
0000
1000
0000
0001
1000
0001
0000
,
0100
0000
0010
0000
1000
0000
0010
1000
0000
0100
0001
0000
0001
0000
1000
0001
,
0000
0000
1000
0000
0100
0000
1000
0000
0010
0000
0000
0000
0100
0000
0000
0000
0001
0010
0100
1000
0001
0010
0100
1000
0001
0000
0000
0000
0010
0000
0000
0000
,
0010
0000
0001
0000
0010
0100
1000
0000
0002
0000
0000
0000
1003
0000
0100
0000
,
0100
0000
1000
0000
0010
0100
0001
0000
1000
0000
1000
0000
0010
1000
0001
0000
,
1000
0002
0000
0103
0001
1000
0100
0000
1000
0000
0001
0000
0220
0000
0030
0000
,
0320
0000
0000
0000
2030
0000
0000
0000
3001
0000
0001
0100
0001
0000
0100
0010
,
1000
0000
0001
0000
0010
0100
1000
0000
0002
0000
0000
0000
1003
0100
1000
0001
,
0100
0000
0010
0100
0001
0000
1000
0000
0200
0000
0000
0000
0310
0001
0010
0001
,
0000
0010
0100
1000
0001
0100
0001
0000
1000
0000
0001
0000
0100
0010
1000
0001
,
0010
0100
0010
0001
0100
0010
1000
0001
0010
0100
1000
0001
1001
0000
0000
0000
,
0101
1100
0011
1010
,
0011
0000
0000
0000
2002
0000
0000
0000
0000
0000
0000
0000
0000
0000
0000
3000
,
0000
0000
0000
0000
,
0000
0003
0000
0000
;

//---------------dance-single - ----------------
#NOTES:
     dance-single:
     :
     Medium:
     9:
     0.620350,0.737185,0.194076,0.105124,0.044476,500.000000,24.000000,13.000000,0.000000,0.000000,0.000000,0.620350,0.737185,0.194076,0.105124,0.044476,500.000000,24.000000,13.000000,0.000000,0.000000,0.000000:
0000
0000
0000
0000
,
0000
0000
0000
0000
,
0000
0000
0001
0100
,
0001
0000
0100
0000
0010
0100
0010
0000
,
1000
0000
0010
0100
0001
0000
1000
0000
,
0100
1000
0100
1000
,
0100
0000
0010
0001
1000
0000
0010
0000
,
0100
0001
1000
0100
,
0010
0000
0100
1000
0010
0000
0100
0001
,
1000
0100
1000
0010
,
0100
0001
1000
0010
0100
0000
0000
0000
,
0000
0000
0000
0000
,
0000
0000
0000
0000
1000
0001
0100
0001
,
1000
0000
0100
1000
0000
1000
0010
0000
,
0100
0000
0010
0100
0000
0100
0001
1000
,
0001
0000
0100
0001
0000
0100
0010
0000
,
0100
0000
0010
1000
0000
0010
0100
0010
,
1000
0000
0001
0010
0100
1000
0100
0010
,
0001
0000
0010
0000
,
0100
0000
1000
0000
,
0001
0100
0010
0100
0010
1000
0001
0000
,
1000
0100
0010
0001
0010
0100
0010
0010
,
0100
1000
0010
0100
0001
1000
0010
1000
,
0010
0100
0001
1000
,
0001
1000
0100
1000
0001
0100
0001
0000
,
1000
0010
1000
0001
0010
0001
0010
0001
,
0010
0100
1000
0100
,
1000
0010
0100
0000
0010
1000
0002
0000
,
1003
0100
0010
0001
0010
0100
0010
0000
,
0100
0010
0001
0010
0100
1000
0100
0100
,
1000
0000
0010
0000
0100
0001
1000
0000
,
1001
0101
1001
1100
,
0100
0010
0001
0010
0100
0010
0001
0000
,
1000
0010
0100
0010
1000
0010
0100
0000
,
0010
1000
0001
0010
0100
0010
0001
0100
,
1000
0100
0010
1000
0001
0010
1000
0010
,
0100
0000
0000
0000
,
0000
0000
0000
0000
0001
0100
0010
0000
,
1000
0010
0000
0100
0010
1000
0001
0000
,
1000
0100
1000
0010
,
0100
0010
0000
0100
0010
1000
0001
1000
,
0000
0100
0000
1000
0000
0100
0010
0000
,
0010
0001
0000
0001
0100
0010
1000
0010
,
0000
0100
0000
0010
0000
1000
0010
0000
,
0100
0001
0000
0001
0010
0100
1000
1100
,
0000
0000
0011
0000
0000
0000
1001
0000
0000
0000
1000
0000
0010
0000
0000
0100
,
0000
0000
0010
0000
0000
0000
0100
0000
0001
0000
1000
0000
0100
0000
0000
1000
,
0000
0000
0100
0000
0000
0000
1000
0000
0100
0000
0010
0000
0001
0000
0000
0010
,
0000
0001
0000
0010
0100
0010
0001
0010
,
0000
0000
0001
0000
0000
0000
0100
0000
0000
0000
0010
0000
0100
0000
0000
0010
,
0000
0000
1000
0000
0000
0000
0010
0000
0100
0000
0001
0000
1000
0000
0000
0001
,
0000
0100
0000
0001
0100
0010
1000
0000
,
0010
0100
0000
0010
0100
0000
0100
0010
,
1000
0010
0001
0010
1000
0100
0010
0000
,
0000
0000
0000
0000
,
0000
0000
0000
0000
0000
0000
0000
0000
0000
0000
0000
0010
0001
0000
0000
0000
,
0100
0001
1000
0100
,
1000
0000
0010
0000
0100
0010
1000
0000
,
0010
0000
0000
0000
0100
0000
0000
0000
0001
0000
0000
0000
1001
0000
0000
1000
,
0000
0000
1001
0000
0000
0001
0000
0000
1001
0000
0001
0000
1001
0000
0000
0000
,
0001
0100
0001
1000
,
0100
1000
0001
0100
,
0001
1000
0100
1000
,
0100
0010
0000
0100
,
1000
0010
0100
0010
,
1000
0010
0100
0001
,
0010
0100
0010
0001
,
1000
0010
0000
0100
,
0010
1000
0010
0100
,
0010
0100
0010
1000
,
0001
0010
0100
0010
,
0001
0010
0000
0001
,
0010
0100
1000
0100
,
0010
0001
0010
0100
,
0100
0010
0010
0001
,
1000
0000
0000
0000
0000
0000
0000
0000
0001
0000
0000
1000
0000
0000
0001
0000
,
1000
0000
0000
0001
0000
0000
1000
0000
0001
0000
0000
1000
0000
0000
0001
0000
,
0200
0000
0000
0000
,
0000
0000
0000
0000
,
0020
0000
0000
0000
,
0000
0000
0000
0330
,
1001
0000
0000
0000
,
0000
0000
0000
0000
1000
0001
1000
0001
,
1001
0000
0000
0000
0000
1001
0000
0000
,
1001
0000
0000
1001
0000
1001
0000
0000
,
1001
0000
0010
0100
0010
0100
0010
0100
,
0010
0000
1000
0000
,
0100
0000
0010
0000
,
0001
1000
0010
1000
0001
1000
0010
0000
,
0001
0100
0001
1000
0001
0100
0001
1000
,
0001
0100
0010
1000
,
1010
0101
1010
0101
,
0001
0100
0010
1000
0010
0100
0010
0000
,
0010
0100
0010
1000
0001
0010
0100
0010
,
0001
0010
0100
1000
0100
0010
1000
0010
,
0100
0001
1000
0010
0200
0000
0310
1000
,
0010
1000
0010
1000
2010
0000
3100
0010
,
0100
0010
0100
0010
0100
0100
0020
0000
,
0031
0002
2003
3200
,
0320
0000
0032
0000
1003
0000
0001
0100
,
0010
1000
0100
0001
0100
0000
0100
0010
,
0001
0010
0100
0010
0100
0000
0010
0001
,
0010
0100
0010
1000
0010
0100
0010
0001
,
0010
0100
0001
0100
0010
1000
0001
0000
,
1000
0010
0100
0010
,
1000
2002
0000
0000
,
3000
0000
0000
0000
,
0000
0003
0000
0000
;

//---------------dance-single - ----------------
#NOTES:
     dance-single:
     :
     Easy:
     6:
     0.422808,0.563730,0.194076,0.137470,0.000000,325.000000,24.000000,17.000000,0.000000,0.000000,0.000000,0.422808,0.563730,0.194076,0.137470,0.000000,325.000000,24.000000,17.000000,0.000000,0.000000,0.000000:
0000
0000
0000
0000
,
0000
0000
0000
0000
,
0000
0000
0001
1000
,
0001
1000
0001
1000
,
0001
1000
0010
0100
,
0010
0100
0010
0100
,
0010
0000
0100
0010
0100
0000
0100
0000
,
0010
0010
1000
1000
,
0001
0000
1000
0100
1000
0000
0001
0100
,
0001
0100
0010
1000
,
0001
0100
0010
1000
0001
0000
0000
0000
,
0000
0000
0000
0000
,
0000
0000
0000
0000
1000
0100
0010
0001
,
0010
0000
0000
0001
0000
0000
0100
0000
,
0001
0000
0000
1000
0000
0000
0100
0000
,
1000
0000
0000
0010
0000
0000
0100
0000
,
0010
0000
0000
1000
0000
0000
0010
0000
,
0100
0010
1000
0001
,
0220
0000
0000
0000
,
0000
0000
0330
0000
,
0010
0100
0010
1000
,
0010
0000
0100
0000
0010
0000
0100
0001
,
0100
0001
1000
0100
,
1000
0100
0010
0001
,
0010
0001
0100
0010
,
0100
0000
0001
0000
1000
0000
0100
1000
,
0100
1000
0010
0100
,
0001
1000
0010
0200
,
0301
0100
1000
1100
,
0100
0010
1000
1001
,
0001
0100
0001
1000
,
1100
0110
0011
0110
,
1001
0001
0100
0110
,
0001
1000
0100
0011
,
0001
0100
0010
1000
,
0001
1000
0010
0100
,
1001
0000
0000
0000
,
0000
0000
0000
1000
,
0100
0010
0100
1000
,
0010
0100
0001
1000
,
0001
0000
0100
0000
0001
0000
1000
0100
,
0000
1000
0000
0010
0000
0100
0001
0000
,
0001
1000
1000
0010
,
0100
0001
0010
0010
,
0100
0000
0010
0000
0001
0000
1000
0001
,
0000
0100
0000
0001
0000
0000
0001
0000
,
1000
0100
0000
0100
1000
0000
0100
0000
,
0100
0010
0000
0010
0100
0000
0010
0000
,
0010
0001
0000
0001
0010
0000
0001
0000
,
0001
0100
0000
0100
0001
0000
0100
0000
,
0100
0010
0000
0010
1000
0000
1000
0000
,
1000
0100
0000
0100
0010
0000
0010
0000
,
0010
0001
0000
0001
0010
0000
0001
0010
,
0100
1000
0001
0010
0100
1000
0100
0000
,
0000
0000
0000
0000
,
0000
0000
0000
1001
,
0000
0000
0000
0000
,
0000
0000
0000
0010
,
0000
0000
0000
0110
,
0000
1001
0000
0001
,
0000
0100
0000
0010
,
0000
1000
0000
0010
,
0000
0100
0000
0010
,
0000
1000
0000
0010
,
0000
0100
0000
0010
,
0000
1000
0000
0001
,
0000
0010
0000
0100
,
0000
0010
0000
0001
,
0000
1000
0000
0010
,
0000
1000
0000
0010
,
0000
0100
0000
0010
,
0000
1000
0000
0001
,
0000
0010
0000
0100
,
0000
0010
0000
0001
,
0000
1000
0000
0000
,
0010
0000
0200
0000
,
0000
0000
0000
0000
,
0300
0000
0000
0000
,
0000
0000
0000
0000
,
2002
0000
0000
0000
,
0000
0000
0000
0000
,
0000
0000
0000
0000
,
0000
0000
0000
0000
,
0000
0000
0000
0000
,
0000
0000
0000
0000
,
0000
0000
3003
0000
,
0001
0000
0000
1000
,
0001
0200
0000
0000
,
0310
1000
0010
0200
,
0310
0000
1000
0000
0001
0000
0010
0001
,
0010
0100
0010
0001
,
1001
0110
0001
0110
,
0010
0100
0010
2000
,
3010
0000
0100
0000
0010
0000
1000
0100
,
0010
0100
1000
0010
,
0100
0000
0001
0000
2020
3030
0001
0000
,
0100
0000
0010
0100
0020
0000
0130
0000
,
0001
0000
1000
0100
0020
0000
0130
0000
,
1000
0010
0001
0110
,
1001
0101
1010
0001
,
0100
0000
0010
1000
0200
0000
0310
0000
,
0100
0000
1000
0010
0200
0000
0310
0000
,
1000
0000
0001
0100
0010
0000
1000
0100
,
0010
0001
0010
0100
1000
0010
0100
0000
,
0010
1000
0001
1000
,
0001
2002
0000
0000
,
0000
0000
0000
0000
,
0000
3003
0000
0000
;

//---------------dance-single - ----------------
#NOTES:
     dance-single:
     :
     Beginner:
     3:
     0.195231,0.297886,0.194076,0.000000,0.000000,145.000000,24.000000,0.000000,0.000000,0.000000,0.000000,0.195231,0.297886,0.194076,0.000000,0.000000,145.000000,24.000000,0.000000,0.000000,0.000000,0.000000:
0000
0000
0000
0000
,
0000
0000
0000
0000
,
0000
0000
0001
0000
,
0000
0000
1000
0000
,
0001
0100
0010
0000
,
0000
0000
0010
0000
,
0000
0100
0100
0000
,
0000
0000
0010
0000
,
0000
1000
1000
0000
,
0001
0000
0100
0000
,
0010
0010
1001
0000
,
0000
0000
0000
0000
,
0000
0000
0000
0000
,
0010
0000
0000
0000
,
0100
0000
0000
0000
,
0001
0000
0000
0000
,
1000
0000
0000
0000
,
0100
0000
1000
0000
,
0010
0000
0010
0000
,
0010
0000
0000
0000
,
0100
0000
0000
0010
,
0100
0000
0000
0001
,
0001
0000
1000
0000
,
0001
0001
1000
1000
,
0010
0000
0000
0100
,
0010
0000
0000
1000
,
0010
0000
0000
0100
,
0010
0000
0100
0000
,
0001
0000
0000
1001
,
0000
0000
0000
0110
,
0100
0000
0010
0000
,
1000
1000
0001
0000
,
1000
0000
0000
0110
,
0000
0000
0000
1001
,
0000
0000
0000
0110
,
0010
0000
0100
0000
,
1001
0000
0000
0000
,
0000
0000
0000
0001
,
0000
0001
0000
1000
,
1000
0010
0000
0100
,
0000
0100
0000
0010
,
0010
1000
0000
0010
,
0000
0100
0000
0001
,
0001
1000
0000
0100
,
0000
1000
0000
0010
,
0010
0010
0000
0110
,
0000
0000
0000
1001
,
0000
0000
0000
1001
,
0000
0000
0000
0110
,
0000
0000
0000
1001
,
0000
0000
0000
1001
,
0000
0000
0000
0110
,
0000
0000
0000
1001
,
0000
0110
0000
1001
,
0000
0000
0000
0000
,
0000
0000
0000
0010
,
0000
0000
0000
0000
,
0000
0000
0000
0100
,
0000
0000
0000
0001
,
0000
1000
0000
0010
,
0000
0000
0000
0000
,
0000
0000
0000
0100
,
0000
0000
0000
0000
,
0000
0000
0000
0001
,
0000
0000
0000
0000
,
0000
0000
0000
1000
,
0000
0000
0000
0000
,
0000
0000
0000
1000
,
0000
0000
0000
0000
,
0000
0000
0000
0001
,
0000
0000
0000
0000
,
0000
0000
0000
0100
,
0000
0000
0000
0000
,
0000
0000
0000
0001
,
0000
0000
0000
1000
,
0000
0000
0010
0000
,
0000
0000
0000
0000
,
0000
0000
0000
0000
,
0000
0000
0000
0000
,
0100
0000
0000
0000
,
0000
0000
0000
0000
,
0010
0000
0000
0000
,
0000
0000
0000
0000
,
1000
0000
0000
0000
,
0001
0000
0000
0000
,
1000
0000
0001
0000
,
0110
0000
0000
0000
,
0000
0000
0000
0000
,
0010
0000
0000
0100
,
0010
0000
0000
1000
,
0100
0000
1000
0000
,
0001
0001
0100
0000
,
0010
0000
0000
0100
,
0010
0000
0000
0100
,
0001
0000
0000
0000
,
1000
1000
0001
0100
,
0000
0000
0110
0000
,
0000
0000
1001
0001
,
0000
1000
0000
0010
,
0100
0001
1000
0001
,
0000
0000
1001
0000
,
0000
0000
0110
0000
,
0000
0000
1001
0001
,
0010
0100
1000
0001
,
0000
0000
0000
0000
,
0000
1001
0000
0000
;
