#TITLE:Snowman;
#SUBTITLE:;
#ARTIST:REDALiCE;
#TITLETRANSLIT:;
#SUBTITLETRANSLIT:;
#ARTISTTRANSLIT:;
#CREDIT:;
#BANNER:Snowman.png;
#BACKGROUND:Snowman-background.png;
#JACKET:Snowman.png;
#LYRICSPATH:;
#CDTITLE:cdtitle.png;
#MUSIC:Snowman.mp3;
#OFFSET:-5.356;
#SAMPLESTART:90.680;
#SAMPLELENGTH:12.000;
#SELECTABLE:YES;
#BPMS:0.000=180.000,16.000=90.000,64.000=180.000,148.000=90.000,151.000=45.000,151.500=22.500,152.000=180.000;
#STOPS:;
#BGCHANGES:;

//---------------dance-single - ----------------
#NOTES:
     dance-single:
     :
     Hard:
     9:
     0.485,0.518,0.325,0.415,0.030:
1000
0001
0000
0100
0000
0010
1000
0000
,
0010
0100
0000
0001
0000
0010
0100
0000
,
1000
0001
0100
0000
0010
1000
0001
0000
,
0010
0100
0010
0001
1000
0010
1000
0001
,
0100
0000
0010
1000
0000
0001
1000
0000
,
0000
0100
0010
0000
0000
0000
0000
0000
0001
0000
0000
0000
0010
0000
0100
0000
,
0000
0000
0100
0000
0010
0000
0000
0000
0000
0010
0100
0000
1000
0000
0001
0000
,
0100
0000
0000
0000
0000
0000
1000
0001
,
1000
1000
0001
0100
1000
0100
0010
0010
,
0100
0001
1000
0001
0100
0001
0010
0100
,
1000
0000
0001
1000
0000
0010
0100
0000
,
0000
0100
0001
0000
0000
0000
0000
0000
0100
0000
0000
0000
0010
0000
1000
0000
,
0000
0000
1000
0000
0100
0000
0000
0000
0000
0100
0010
0000
0001
0000
0010
0000
,
0001
0000
0000
2000
0000
0000
0000
3000
,
0000
0000
0000
0000
0100
1000
0010
0001
,
0010
0100
0010
1000
0001
1000
0010
1000
,
1002
0000
0100
0203
,
0000
0010
0320
0000
,
0130
0001
2000
0000
0000
0000
3000
0000
,
2001
0000
0001
3002
,
0000
0100
0203
0000
,
0310
1000
0100
0000
0010
0000
0001
0000
,
0201
0000
0001
0020
,
0030
0010
0320
0000
,
1000
2000
3000
0100
,
0230
0000
0010
0320
,
0000
1000
2030
0000
,
0001
3002
0000
0103
,
1010
0000
0011
0000
0010
0001
0011
0000
,
0101
0000
0010
0100
0110
0000
1010
0000
,
0001
1000
1100
0000
1001
0000
0001
0100
,
0010
1000
0000
0010
0000
1000
1000
0001
,
1000
0000
0100
0000
0010
0010
0000
0001
,
0000
0001
0010
0010
0100
0000
1000
0000
,
0001
0100
0010
1000
0001
0100
0010
1000
,
0001
0100
0010
1000
0001
0010
0100
1000
,
0001
0010
0100
1000
0100
0010
0001
0010
,
2002
0000
0000
0000
0000
0000
0000
0000
0000
0000
0000
0000
0003
0000
0000
3000
,
0201
0310
0100
0102
,
0013
0100
1002
0103
,
0001
1000
0001
1000
0200
0000
0000
0000
1000
0000
0000
0000
1300
0000
0000
0000
,
2001
0001
3100
0102
,
1000
0103
0002
0103
,
0001
0100
0001
0100
0002
0000
0000
0000
1003
0000
0000
0000
2000
0000
0000
0000
,
3200
1000
0010
2300
,
0001
0100
3020
0100
,
1000
0230
0001
0010
,
0301
0000
1000
0100
1000
0000
1100
0000
,
1000
0100
0010
0000
0011
0000
0001
0100
,
0010
0100
0002
0000
2003
0000
3002
0000
,
2003
0001
3001
0102
,
0100
0103
0210
0010
,
0310
0000
1020
0000
1000
0000
1030
0010
,
0200
0010
0310
1020
,
1000
0000
1030
0000
0010
1000
0001
0100
,
0010
1000
0001
0100
0010
1000
0001
0010
,
0002
1000
1003
2100
,
0100
3100
0120
0100
,
0130
0000
0021
0000
0001
0000
0031
0010
,
0200
0000
1000
2300
,
0000
0001
0002
0000
,
3003
0000
0001
0100
1000
0100
0010
1000
,
1002
1000
0103
2001
,
0100
3001
0120
1000
,
0031
0000
0210
0000
1000
0000
0301
0010
,
0200
0001
0301
0002
,
1000
0000
1003
0000
0001
1000
0100
0010
,
0100
1000
0001
0010
0100
0010
0001
1000
,
0001
1000
0010
0100
0001
1000
0000
1000
,
0000
0010
0000
0010
0000
0100
0000
0100
,
0000
0001
0000
0001
0000
1000
0000
0010
,
0000
0110
0000
0110
0000
1001
0000
1100
,
0000
0101
0000
1010
0000
1001
0000
0011
,
0000
1100
0000
0110
0000
0110
0000
0011
,
2200
0000
0000
0000
,
0000
0000
0000
0000
,
0000
3000
0300
0000
0000
0000
0000
0000
;

//---------------dance-single - ----------------
#NOTES:
     dance-single:
     :
     Challenge:
     9:
     0.634,0.959,0.332,0.551,0.253:
1000
0200
0000
0010
0000
1000
1300
0000
,
1000
0002
0000
0100
0000
0010
0013
0000
,
0001
0100
1000
0100
0010
1000
0001
0010
,
0200
0320
0032
0203
2300
3200
0320
2030
,
3100
0000
0010
0001
0000
0001
0100
0000
,
0000
0100
0001
1000
0100
0000
0000
0000
0000
0000
0000
0000
0000
0000
0000
0000
0100
0000
0000
0000
0000
0000
0000
0000
1000
0000
0000
0000
0001
0000
0000
0000
,
0000
0000
0000
0000
0001
0000
0000
0000
0100
0000
0000
0000
0000
0000
0000
0000
0000
0100
0010
0100
0001
0000
0000
0000
0100
0000
0000
0000
1000
0000
0000
0000
,
0200
0000
0000
0000
0000
0000
0000
0000
0000
0000
0300
0000
0100
0001
0010
0001
,
0100
1000
0100
0010
1000
0001
0100
1000
0100
1000
0100
0010
0100
0010
1000
0001
,
0010
0100
0010
0001
1000
0010
1000
0001
0100
0010
1000
0001
0100
0010
1000
0001
,
0020
0000
0001
0001
0000
0100
0100
0000
,
0030
0100
1000
0100
1000
0000
0000
0000
0000
0000
0000
0000
0000
0000
0000
0000
2000
0000
0000
0000
0000
0000
0000
0000
0001
0000
0000
0000
0001
0000
0000
0000
,
0000
0000
0000
0000
0010
0000
0000
0000
0010
0000
0000
0000
0000
0000
0000
0000
3000
0010
0100
0001
0100
0000
0000
0000
0010
0000
0000
0000
1000
0000
0000
0000
,
0020
0000
0000
2000
0000
0000
0000
0000
,
3030
0000
0000
0000
0000
0000
0000
0000
0100
0001
1000
0100
0010
0100
1000
0010
,
0100
0001
0010
0100
0010
0001
1000
0010
0001
0010
0100
1000
0100
0010
1000
0001
,
1020
0130
0200
0302
,
1000
2003
3200
1000
,
0010
0301
1000
0001
0200
0000
0000
0000
0010
0000
0000
0000
0310
0000
0000
0000
,
1002
1000
0010
0023
,
0001
0100
0230
1300
,
1000
0100
0010
0001
0200
0000
0000
0000
0002
0000
0003
0000
2000
0000
3000
0000
,
0320
1000
0230
0302
,
1000
2003
3200
0010
,
0320
0032
0100
0203
,
0310
1000
0001
0010
1000
0010
0001
0100
,
0010
1000
0100
0010
0100
1000
0010
0100
,
0001
0010
0100
0010
0001
1000
0010
1000
,
1000
0001
0000
0000
0000
0000
0000
0000
0001
1000
0000
0000
0010
0000
0000
0000
0100
0000
0000
0000
0010
0000
0000
0000
0100
0010
0000
0000
0000
0000
0000
0000
,
0100
0010
0000
0000
0000
0000
0000
0000
0100
0000
0000
0000
0001
0000
0000
0000
0001
0010
0000
0000
0000
0000
0000
0000
0010
0001
0000
0000
0010
0000
0000
0000
,
0100
0000
0000
0000
1000
0000
0000
0000
0100
1000
0000
0000
0000
0000
0000
0000
0100
1000
0000
0000
0000
0000
0000
0000
0100
0000
0000
0000
0010
0000
0000
0000
,
2001
0001
0000
0100
0000
0010
0010
0000
,
0001
0000
0100
0000
3002
1000
0000
0010
,
0000
0100
0100
0000
1000
0000
0010
0000
,
1003
0100
0010
0001
1000
0100
0010
0001
,
1000
0100
0010
0001
2000
3002
0203
0320
,
2030
0000
3002
0000
0203
0000
0320
0000
1030
0010
0100
0001
0010
0100
1000
0001
,
0010
0000
0000
0000
0000
0000
0000
0000
0000
0000
0000
0000
0000
0000
0000
0000
0000
0000
0000
0000
0000
0000
0000
0000
0000
0000
0000
0000
0000
0000
0000
0000
0000
0000
0000
0000
0000
0000
0000
0000
0000
0000
0000
0000
0000
0000
0000
0000
0010
0000
0000
0000
0100
0000
0000
0100
0000
0000
0000
2000
0000
0000
0000
3000
,
1001
0001
0100
1000
0100
0010
1000
0010
,
0001
0010
0100
0010
1000
0001
0010
0100
,
1000
0001
0010
0100
0020
0000
0000
0000
0001
0000
0000
0000
0031
0000
0000
0000
,
0010
0100
1000
0100
0010
1000
0001
0010
,
0001
1000
0010
1000
0001
0010
0001
0100
,
0001
1000
0001
0010
0100
0000
0000
0000
1100
0000
0000
0000
0011
0000
0000
0000
,
1001
1000
0001
1000
0001
1000
0010
0100
,
0010
0100
0010
0100
0001
0100
0010
1000
,
0001
0100
0010
1000
0001
0100
0010
1000
,
0001
0010
0100
0010
0001
0010
0100
1000
,
0100
0010
0100
1000
0010
0001
0010
1000
,
0100
0001
0100
1000
0001
1000
0001
0100
,
0202
0000
0303
2020
,
0000
3030
0220
0000
,
0330
0000
2002
0000
0000
3003
1010
0101
,
2020
0000
3030
0220
,
0000
0000
0330
0000
0001
0001
0100
0100
,
0010
1000
0001
0010
0010
0100
0001
0010
,
0200
0000
0300
0022
,
0000
0033
2200
0000
,
0000
3300
2002
0000
0000
3003
0101
0000
,
2020
0000
0000
3000
1000
0000
2000
0000
,
0000
0030
3002
0000
0010
0010
0010
0000
,
0013
0000
1000
0100
0001
0100
0010
0001
,
0100
0010
1000
0000
0010
0001
0010
1000
,
0100
0000
1100
0000
1000
0100
0010
0000
,
0100
1000
0010
0100
0001
0000
0001
0100
,
1000
0000
0100
0010
1000
0000
0001
0000
,
1000
0000
0101
0000
0001
0100
1000
0100
,
0010
1000
0001
0010
0100
1000
0100
1000
,
0100
1000
0010
0100
0010
1000
0000
0101
,
0000
1100
0000
0011
0000
1010
0000
0011
,
0000
1100
0000
0101
0000
1010
0000
0101
,
0000
1001
0000
1100
0000
0011
0000
0110
,
0000
1100
0000
0011
0000
1100
0000
0101
,
0000
1010
0000
0101
0000
1010
0000
1001
,
0220
0000
0000
0000
,
0000
0000
0000
0000
,
0330
0100
0001
1000
0200
0000
0000
0000
0000
0000
0000
0000
0000
0000
0000
0000
,
0300
0000
0000
0000
;

//---------------dance-single - ----------------
#NOTES:
     dance-single:
     :
     Medium:
     5:
     0.290,0.346,0.121,0.249,0.000:
1000
0000
0000
0020
0000
0000
0000
0000
,
0130
0000
0000
1001
0000
0000
0000
0000
,
0001
1000
0010
0100
,
0001
0100
0010
0000
0010
1000
0001
0000
,
0100
0000
0000
0001
0000
0000
1000
0000
,
0000
0100
0000
0000
1000
0000
0000
0010
,
0000
0000
0100
0000
0000
0001
0000
0000
,
1000
0000
0000
0010
,
0100
0001
1000
0100
,
0001
0100
0010
0001
,
0100
0000
0000
0001
0000
0000
1000
0000
,
0000
0010
0000
0000
1000
0000
0000
0001
,
0000
0000
1000
0000
0000
0100
0010
0100
,
0010
0000
0000
0001
0000
0000
0000
0000
,
0000
0000
0001
0100
,
0010
1000
0010
0100
,
0001
0000
1000
0010
,
0000
0100
0001
0000
,
1000
0001
0100
0000
0000
0000
0000
0000
,
1001
0000
0001
1000
,
0000
1000
0010
0000
,
0100
0010
0100
0000
0010
0000
1000
0000
,
1010
0000
1000
0100
,
0000
0010
0011
0000
,
0001
0010
0000
0100
,
1100
0000
0100
0110
,
0000
0010
0011
0000
,
0001
0101
0000
0001
,
1001
1001
0000
0110
,
0110
0000
1001
1001
,
0000
0110
0110
0000
,
0001
2000
0000
0020
0000
0000
0000
0000
,
0000
0000
3030
0000
0001
0200
0000
0020
,
0000
0000
0000
0330
,
0010
0100
0010
0000
0000
0000
0100
0010
,
0100
0000
0010
0010
,
0010
1000
0001
1000
0010
1000
0001
1000
,
0001
0000
0000
0000
,
0002
0000
1000
2003
,
0000
0010
3020
0000
,
0130
0010
0200
0000
0000
0000
0300
0000
,
0020
0000
1000
2030
,
0000
0010
3020
0000
,
0130
0001
1000
0000
0100
0000
0010
0000
,
0002
0000
0000
0200
,
0000
0000
0000
0000
,
0000
0000
0303
0000
,
0001
0100
0010
1000
,
0010
0100
0001
1000
,
0010
0100
0010
1000
,
0002
0000
0000
0023
,
0000
0000
0230
0000
,
0000
0000
0320
0000
0000
0000
0031
0010
,
0200
0000
0000
2300
,
0000
0000
3010
0100
,
0001
1000
1000
0001
,
0200
0000
0000
0302
,
0000
0000
2003
0000
,
0000
3200
0000
0310
,
0002
0000
0013
0200
,
0000
0000
1300
0000
0100
0010
0100
0000
,
1000
0000
1000
0100
0010
0001
0010
0001
,
0020
0000
0000
0230
,
0000
0000
0320
0000
,
0000
0000
0032
0000
0000
0000
0103
0010
,
2000
0000
0000
3002
,
0000
0000
0103
0001
,
0100
0010
1000
0010
,
0100
0000
0010
0000
1000
0001
0000
0001
,
0000
1000
0000
1000
0000
0010
0000
0010
,
0000
0100
0000
0100
0000
0010
0000
1000
,
0000
0001
0000
0100
0000
0010
0000
1000
,
0000
0100
0000
1000
0000
0010
0000
0100
,
0000
0001
0000
1000
0000
0010
0000
0100
,
0002
0000
0000
0000
,
0000
0000
0000
0000
,
0000
0003
0000
0000
;

//---------------dance-single - ----------------
#NOTES:
     dance-single:
     :
     Easy:
     4:
     0.240,0.287,0.030,0.227,0.000:
1001
0000
0000
0010
,
1000
0000
0000
1000
0000
0000
0000
0000
,
0001
0000
0100
0000
,
0010
0010
1000
1000
,
0001
0000
0000
1000
0000
0000
0010
0000
,
0000
0100
0000
0000
0001
0000
0000
1000
,
0000
0000
0100
0000
0000
1000
0000
0000
,
0020
0000
0000
0030
,
0000
0000
0000
0000
,
0000
0000
0000
0000
,
0100
0000
0000
0001
0000
0000
0010
0000
,
0000
0100
0000
0000
0010
0000
0000
0001
,
0000
0000
1000
0000
0000
0010
0000
0000
,
0100
0000
0000
0002
0000
0000
0000
0000
,
0000
0003
1000
0000
,
0000
0001
0000
0000
,
0100
0000
0010
1000
,
0000
0100
0010
0000
,
0001
0020
0000
0000
,
0130
0000
0100
1000
,
0000
1000
0001
0000
,
0001
0100
1000
0100
,
0010
0000
1000
0010
,
0000
0100
0001
0000
,
0010
0100
0000
0100
,
1000
0000
1000
0100
,
0000
0001
0100
0000
,
0001
0010
0000
0010
,
0100
0100
1000
0001
,
0001
0100
0010
0010
,
1000
0001
0001
0010
,
1001
0000
0000
0000
,
0001
0100
0010
0000
,
0000
0000
0100
0010
,
1000
0001
1000
0001
,
1000
0001
1000
1000
,
1000
1000
1000
0001
,
0100
0000
0000
0000
,
0101
0000
0001
0020
,
0000
0130
2000
0000
,
0100
3100
0000
0000
,
1000
0000
0010
0200
,
0000
0310
2000
0000
,
3001
0010
0010
0001
,
2000
0000
0000
0020
,
0000
0000
0000
0000
,
0000
3030
0000
0000
,
1000
0010
0100
0001
,
1000
0100
1000
0001
,
0100
0001
0010
0100
,
2000
0000
3000
0002
,
0000
0003
0200
0000
,
0300
0020
0000
1030
,
0020
0000
0030
0200
,
0000
0300
0001
0100
,
0010
0010
0100
0001
,
2000
0000
3000
0200
,
0000
0300
2000
0000
,
3000
0020
0000
0130
,
0002
0000
1003
0200
,
0000
1300
0020
0000
,
0030
0100
0001
1000
,
0200
0000
0300
2000
,
0000
3000
0020
0000
,
0030
0200
0000
0301
,
2000
0000
3000
0002
,
0000
0003
1000
0100
,
0001
0100
1000
0010
,
0100
0001
0100
0010
,
0010
0100
0100
0001
,
0001
1000
0100
1000
,
0001
0100
0001
0010
,
0001
1000
0010
0100
,
0001
0010
0100
1000
,
2002
0000
0000
0000
,
0000
0000
0000
0000
,
3003
0000
0000
0000
;

//---------------dance-single - ----------------
#NOTES:
     dance-single:
     :
     Beginner:
     2:
     0.137,0.251,0.060,0.000,0.000: // measure 1
1001
0000
0000
0000
,  // measure 2
0100
0000
0000
0000
,  // measure 3
1001
0000
0010
0000
,  // measure 4
0100
0100
0100
0100
,  // measure 5
0110
0000
0000
0000
,  // measure 6
0000
0000
0010
0000
,  // measure 7
0000
0000
0000
0000
,  // measure 8
1000
0000
0000
0001
,  // measure 9
0000
0100
0000
0001
,  // measure 10
0000
1000
0000
0100
,  // measure 11
0100
0000
0000
0010
,  // measure 12
0000
0000
0001
0000
,  // measure 13
0000
1000
0000
0000
,  // measure 14
0010
0000
0000
0010
0000
0000
0000
0000
,  // measure 15
0000
0000
0000
0000
0100
0000
0000
0001
,  // measure 16
0000
0000
1000
0000
0000
0100
0000
0000
,  // measure 17
1000
0000
0000
0001
,  // measure 18
0000
0000
0100
0000
,  // measure 19
0010
0010
0000
0000
,  // measure 20
0100
0000
0000
0001
,  // measure 21
0000
0000
1000
0000
,  // measure 22
0000
0100
0100
1000
,  // measure 23
0010
0000
0000
0100
,  // measure 24
0000
0000
0001
0000
,  // measure 25
0000
1000
0000
0000
,  // measure 26
0001
0000
0000
0001
,  // measure 27
0000
0000
0001
0000
,  // measure 28
0000
0001
0000
0000
,  // measure 29
0100
0100
0000
0010
,  // measure 30
0010
0000
0100
0100
,  // measure 31
0000
0010
0010
0000
,  // measure 32
1001
0000
0000
0000
,  // measure 33
0000
0000
1000
0000
,  // measure 34
0000
0000
0000
0000
,  // measure 35
0001
0000
0000
1000
,  // measure 36
0000
0000
0001
0000
,  // measure 37
1000
0000
0001
1000
,  // measure 38
1001
0000
0000
0000
,  // measure 39
0010
0000
0000
0100
,  // measure 40
0000
0000
0001
0000
,  // measure 41
1000
1001
0000
0000
,  // measure 42
1000
0000
0000
0010
,  // measure 43
0000
0000
0100
0000
,  // measure 44
0001
0101
0001
0100
,  // measure 45
0010
0000
0000
0010
,  // measure 46
0000
0000
0000
0000
,  // measure 47
0000
0000
0000
0000
,  // measure 48
0100
0000
0000
0100
,  // measure 49
0000
0000
0100
0000
,  // measure 50
0000
0001
1000
0100
,  // measure 51
0010
0000
0000
0100
,  // measure 52
0000
0000
1000
0000
,  // measure 53
0000
0001
0000
0000
,  // measure 54
0100
0000
0000
0001
,  // measure 55
0000
0000
1000
0000
,  // measure 56
0000
0001
0000
0000
,  // measure 57
0010
0000
0000
0001
,  // measure 58
0000
0000
1000
0000
,  // measure 59
0000
0100
0000
1000
,  // measure 60
0100
0000
0000
0010
,  // measure 61
0000
0000
0100
0000
,  // measure 62
0000
1000
0100
0010
,  // measure 63
0001
0000
0000
0010
,  // measure 64
0000
0000
0001
0000
,  // measure 65
0000
0010
0000
0000
,  // measure 66
1000
0000
0000
0010
,  // measure 67
0000
0000
0100
0000
,  // measure 68
0000
1000
0000
0000
,  // measure 69
0001
0000
0000
0000
,  // measure 70
1000
0000
0000
0000
,  // measure 71
0001
0000
0000
0000
,  // measure 72
0100
0000
0001
0000
,  // measure 73
0100
0000
0010
0000
,  // measure 74
1000
0000
0001
0000
,  // measure 75
1001
0000
0000
0000
;
