#TITLE:Shine On;
#SUBTITLE:(Intraspekt Remix);
#ARTIST:R.I.O;
#TITLETRANSLIT:;
#SUBTITLETRANSLIT:;
#ARTISTTRANSLIT:;
#CREDIT:;
#BANNER:Shine on (Intraspekt Remix).png;
#BACKGROUND:Shine on (Intraspekt Remix)-background.png;
#JACKET:Shine on (Intraspekt Remix)-jacket.png;
#LYRICSPATH:;
#CDTITLE:;
#MUSIC:Shine on (Intraspekt Remix).mp3;
#OFFSET:-0.022;
#SAMPLESTART:65.480;
#SAMPLELENGTH:12.000;
#SELECTABLE:YES;
#BPMS:0.000=174.000;
#STOPS:;
#BGCHANGES:;

//---------------dance-single - ----------------
#NOTES:
     dance-single:
     :
     Hard:
     8:
     0.480,0.540,0.018,0.126,0.058:
0000
0000
0000
0000
,
0000
0000
0000
0000
,
0000
0000
0000
0000
,
0000
0000
0000
0000
,
0000
0000
0000
0000
,
0000
0000
0000
0000
,
0000
0000
0000
0000
,
0000
0000
0000
0000
,
1000
0100
0010
0000
0010
0001
0100
0000
,
0000
0000
0000
0000
,
0010
0100
0001
0000
0001
1000
0100
0000
,
0000
0000
0000
0000
,
0010
0001
0010
0000
0001
0010
1000
0000
,
0000
0000
0000
0000
,
1000
0100
0010
0000
0010
0100
1000
0000
,
0001
0000
1000
0000
0010
1000
1010
0000
,
1000
0100
0010
0000
0010
0001
0100
0000
,
0010
1000
0001
0010
,
0100
1000
0010
0000
0100
0010
1000
0000
,
0001
0010
1000
0100
,
1000
0100
0010
0000
0010
0100
1000
0000
,
0100
1000
0010
0100
,
0001
0100
0010
0000
0100
0010
1000
0000
,
0001
0000
1000
0000
0001
0100
0001
0000
,
0001
0100
0010
0000
0010
1000
0100
0000
,
1000
0100
0010
0100
,
0100
0010
0001
0000
0001
0010
0100
0000
,
1000
0010
0001
0010
,
0100
0001
0010
0000
0100
0010
1000
0000
,
0001
0010
0001
1000
,
0010
0100
0001
0000
1000
0100
0010
0000
,
0100
1000
0100
1000
0100
1000
0100
1000
,
0010
0200
0301
0020
,
0130
0000
1000
0000
0001
0100
0010
1000
,
0200
0310
0200
1300
,
1000
0000
0010
0000
0100
0010
0001
0000
,
0020
1030
2000
3100
,
0100
0000
0010
0000
0100
1000
0001
0100
,
0020
1030
0020
0130
,
0100
0010
1000
0000
1000
0001
0010
0100
,
0020
0031
0020
0130
,
0100
0000
1000
0000
0010
0100
0001
1000
,
0020
1030
2000
3100
,
0100
0000
0010
0000
0001
0100
0010
0000
,
0100
0000
0001
0100
0000
0010
1000
0000
,
0001
0000
0100
0001
0000
0001
0010
0000
,
0010
0100
1000
0100
,
0010
0000
0001
0000
0001
0010
0100
1000
,
0001
0000
0000
1000
0000
0000
0100
0000
0000
1000
0000
0000
0010
0000
0000
0100
,
0000
0000
0000
0000
0010
1000
0001
0100
,
0010
0000
0000
0010
0000
0000
0100
0000
0000
0100
0000
0000
0001
0000
0000
0000
,
0000
0000
0000
0000
0000
0000
0000
0000
0000
0000
0001
0000
0000
0010
0000
0000
,
0100
0000
0000
0100
0000
0000
0010
0000
0000
0000
0001
0000
0000
1000
0000
0000
,
0010
0000
0000
0000
0100
0000
0010
1001
,
0001
1000
0100
0000
0100
1000
0001
0000
,
0000
0000
0000
0000
1000
0100
0010
0001
,
0010
0000
0000
0100
0000
0000
1000
0000
0000
0010
0000
0000
0100
0000
0000
0001
,
0000
0000
0000
0001
0010
0001
1000
0010
,
1000
0000
0000
0100
0000
0000
0001
0000
0000
0100
0000
0000
0010
0000
0000
0000
,
0000
0000
0000
0000
0000
0100
1000
0010
,
0000
0000
0100
0000
0010
1000
0001
0010
,
0000
0000
0100
0000
0100
0010
0002
0000
,
0000
1003
0000
0000
1000
0001
0100
0000
,
0010
1000
0001
0010
1000
0010
0001
0100
,
0001
0000
1000
0010
0000
0100
0000
0010
,
0000
0010
0000
0010
1000
0001
0010
0001
,
1000
0000
1000
0100
0000
0001
0000
0100
,
0000
0010
0000
0010
0001
0100
1000
0100
,
0010
0000
0010
1000
0000
0001
0000
0010
,
0000
0010
0000
0001
1000
0100
1000
0001
,
0100
0000
0100
0010
0000
1000
0000
1000
,
0000
0001
0000
0001
0010
0100
1000
0100
,
1000
0000
0001
0100
0000
0010
0000
0100
,
0000
0100
0000
0100
0001
1000
0100
1000
,
0001
0000
0001
0010
0000
1000
0000
0010
,
0000
0100
0000
0100
1000
0010
0001
0010
,
0100
0000
0100
0001
0000
1000
0000
0100
,
0000
0100
0000
1000
0001
0010
0001
1000
,
0010
0000
0010
0100
0000
0001
0000
0001
,
0000
1000
0000
1000
0100
0010
0001
0010
,
0200
0300
0000
0000
;

//---------------dance-single - ----------------
#NOTES:
     dance-single:
     :
     Medium:
     6:
     0.421,0.504,0.180,0.027,0.000:
0000
0000
0000
0000
,
0000
0000
0000
0000
,
0000
0000
0000
0000
,
0000
0000
0000
0000
,
0000
0000
0000
0000
,
0000
0000
0000
0000
,
0000
0000
0000
0000
,
0000
0000
0000
0000
,
1000
0100
1000
0000
0010
0001
0010
0000
,
0000
0000
0000
0000
,
0001
0100
0001
0000
0010
1000
0010
0000
,
0000
0000
0000
0000
,
0010
0100
0010
0000
0001
1000
0001
0000
,
0000
0000
0000
0000
,
1000
0100
0010
0000
0010
0001
0100
0000
,
0020
0000
0000
0030
,
0100
0010
0000
0010
0000
1000
0000
1000
,
0000
0001
0000
0001
0000
1000
0000
0100
,
0000
1000
0000
1000
0000
0010
0000
0010
,
0000
0100
0000
0100
0000
0001
0000
0001
,
0000
1000
0000
0100
0000
0001
0000
0100
,
0000
1000
0000
0010
0000
0001
0000
0010
,
0000
0100
0000
0100
0000
0010
0000
0010
,
0000
0100
0000
0001
0000
1000
0000
0100
,
0010
0001
0000
0010
0000
0100
0000
1000
,
0000
0100
0000
1000
0000
0010
0000
0100
,
0010
0100
0000
0010
0000
0010
0000
1000
,
0000
0001
0000
0010
0000
0100
0000
1000
,
0100
1000
0000
0100
0000
1000
0000
0010
,
0000
0001
0000
0010
0000
0100
0000
0010
,
1000
0001
0000
1000
0000
0100
0000
1000
,
0100
0000
0010
0000
0001
0010
0001
0000
,
0101
1010
0101
1010
,
0010
0100
0010
1000
,
1001
0101
1001
0101
,
0001
1000
0100
0010
,
0011
1010
0011
1010
,
0010
0100
0010
1000
,
1001
0101
1001
0101
,
0001
0000
0100
0000
0010
0000
1000
0010
,
0100
0100
0010
0010
,
0100
0000
0001
0000
1000
0000
0100
0010
,
0001
0010
0100
1000
,
0010
0000
0100
0000
0001
1000
0010
0000
,
0100
0000
0101
0000
0001
0100
0010
0000
,
0100
0000
0110
0000
0010
1000
0010
0000
,
0100
0000
0110
0000
0010
1000
0001
0000
,
1001
0000
0000
0000
0001
0100
0010
1000
,
0010
0100
1000
0100
,
0001
0000
0100
0000
0001
0010
0100
1000
,
0100
1000
0010
0010
,
0000
0000
0000
0100
,
0010
1000
0001
0010
,
0100
0000
0010
0000
0001
0000
1000
0001
,
0000
0000
0000
0000
0000
0001
0100
0010
,
0000
0000
0000
0000
0010
1000
0001
0100
,
0010
1000
0100
0001
,
0100
0000
0000
0000
0010
0001
0010
0100
,
1000
0000
0100
0000
1000
0010
1000
0000
,
0000
0000
0000
0000
0000
0010
0100
0010
,
0000
0000
0000
0000
0000
0001
1000
0001
,
0000
0000
0000
0000
0000
1000
0200
0000
,
0000
0310
0000
0000
0000
0000
0000
0000
,
0001
1000
0001
1000
0010
0100
0010
0100
,
0010
0000
1000
0010
0000
0100
0000
0010
,
0000
1000
0000
0001
0010
0000
0100
0000
,
1000
0000
0100
0000
0000
0100
0000
1000
,
0000
0010
0000
0100
0010
0000
1000
0001
,
1000
0000
0001
0000
0000
0100
0000
0100
,
0000
0010
0000
0010
0100
0000
0001
0010
,
0100
0000
1000
0000
0000
0100
0000
1000
,
0000
0010
0000
0100
0001
0000
0001
0100
,
0010
0000
1000
0001
0000
1000
0000
0100
,
0000
0010
0000
0100
0010
0000
0100
0010
,
0001
0000
0010
0100
0000
0010
0000
0001
,
0000
1000
0000
0010
0100
0000
0001
0100
,
0010
0000
1000
1000
0000
0010
0000
0100
,
0000
0001
0000
1000
0100
0000
0100
1000
,
0010
0000
0100
0010
0000
0100
0000
0010
,
0000
1000
0000
0001
0010
0000
0001
0010
,
0200
0300
0000
0000
;

//---------------dance-single - ----------------
#NOTES:
     dance-single:
     :
     Easy:
     3:
     0.262,0.324,0.027,0.063,0.000:
0000
0000
0000
0000
,
0000
0000
0000
0000
,
0000
0000
0000
0000
,
0000
0000
0000
0000
,
0000
0000
0000
0000
,
0000
0000
0000
0000
,
0000
0000
0000
0000
,
0000
0000
0000
0000
,
1000
1000
0001
0001
,
0000
0000
0000
0000
,
0100
0100
0010
0010
,
0000
0000
0000
0000
,
0001
0001
1000
1000
,
0000
0000
0000
0000
,
0010
0010
0100
0100
,
2002
0000
0000
3003
,
0001
1000
0100
1000
,
0000
0000
0000
0000
,
0100
0010
0001
0010
,
0000
0000
0000
0000
,
0100
1000
0010
0001
,
0000
0000
0000
0000
,
0001
0100
1000
0100
,
0000
0000
0000
0000
,
0010
1000
0001
1000
,
0000
0000
0000
0000
,
1000
0100
0001
0100
,
0000
0000
0000
0000
,
0010
0001
0010
0100
,
0000
0000
0000
0000
,
0100
1000
0010
0100
,
0002
0000
0000
0000
,
1003
0100
1000
0100
,
0000
0000
0010
0001
,
0100
0100
0100
0100
,
0000
0000
0000
0000
,
0010
1000
0001
1000
,
0000
0000
1000
0100
,
0020
0000
0030
0000
,
0000
0000
0000
0000
,
0100
1000
0001
0100
,
0000
0000
0001
1000
,
0010
0010
0000
0000
,
0000
0000
0000
1000
,
0100
1000
0001
0100
,
0001
0000
0001
0010
,
0100
1000
0000
0001
,
0000
1000
0001
0100
,
0110
0010
1000
0010
,
0010
0000
0100
0001
,
1000
1000
0001
0100
,
0000
0000
0000
0100
,
0001
1000
0100
1000
,
0010
0000
0100
0010
,
0000
0000
0000
0100
,
0000
0000
0010
1000
,
1001
0001
1000
0100
,
0100
0000
1000
0010
,
0100
0100
0001
1000
,
0000
0000
0000
0100
,
0010
0000
0000
0100
,
1000
0000
0000
1000
,
0010
0000
0100
0000
,
0002
0000
0000
0000
,
1003
0100
1000
0010
,
0100
0001
1000
0001
,
1000
0100
1000
0010
,
0100
0100
0010
0010
,
0100
0001
1000
0100
,
1000
0010
0100
0001
,
0100
0001
1000
0010
,
1000
0100
0020
0000
,
0130
1000
0100
1000
,
0010
0100
0001
0001
,
1000
0010
0100
0001
,
0010
0100
0010
0001
,
1000
0010
0001
0010
,
0100
0001
1000
0100
,
0001
0100
0010
0001
,
1000
0010
0100
0001
,
0200
0300
0000
0000
;

//---------------dance-single - ----------------
#NOTES:
     dance-single:
     :
     Beginner:
     1:
     0.123,0.216,0.036,0.000,0.000: // measure 1
0000
0000
0000
0000
,  // measure 2
0000
0000
0000
0000
,  // measure 3
0000
0000
0000
0000
,  // measure 4
0000
0000
0000
0000
,  // measure 5
0000
0000
0000
0000
,  // measure 6
0000
0000
0000
0000
,  // measure 7
0000
0000
0000
0000
,  // measure 8
0000
0000
0000
0000
,  // measure 9
1000
0000
1000
0000
,  // measure 10
0000
0000
0000
0000
,  // measure 11
0001
0000
0001
0000
,  // measure 12
0000
0000
0000
0000
,  // measure 13
0010
0000
0010
0000
,  // measure 14
0000
0000
0000
0000
,  // measure 15
0100
0000
0100
0000
,  // measure 16
0000
0000
0000
0000
,  // measure 17
1001
0000
0010
0000
,  // measure 18
0000
0000
0000
0000
,  // measure 19
0100
0000
0100
0000
,  // measure 20
0000
0000
0000
0000
,  // measure 21
0001
0000
0001
0000
,  // measure 22
0000
0000
0000
0000
,  // measure 23
1000
0000
1000
0000
,  // measure 24
0000
0000
0000
0000
,  // measure 25
0010
0000
0010
0000
,  // measure 26
0000
0000
0000
0000
,  // measure 27
0100
0000
0100
0000
,  // measure 28
0000
0000
0000
0000
,  // measure 29
1000
0000
1000
0000
,  // measure 30
0000
0000
0000
0000
,  // measure 31
0001
0000
0001
0000
,  // measure 32
0100
0000
0000
0000
,  // measure 33
0010
0010
0000
0000
,  // measure 34
0000
0000
1000
0000
,  // measure 35
0001
0001
0000
0000
,  // measure 36
0000
0000
0000
0000
,  // measure 37
0100
0100
0000
0000
,  // measure 38
0000
0000
0010
1000
,  // measure 39
0100
0000
0000
0000
,  // measure 40
0000
0000
0000
0000
,  // measure 41
0010
0010
0000
0000
,  // measure 42
0000
0000
0001
0001
,  // measure 43
0001
0000
0000
0000
,  // measure 44
0000
0000
0000
0000
,  // measure 45
1000
0000
0000
0010
,  // measure 46
0000
0000
0100
0000
,  // measure 47
0010
0000
0000
0000
,  // measure 48
1000
0000
0001
0001
,  // measure 49
1001
0000
0000
0000
,  // measure 50
0000
0000
1000
1000
,  // measure 51
0100
0000
0000
0000
,  // measure 52
0000
0000
0000
0000
,  // measure 53
0010
0000
0000
0100
,  // measure 54
0000
0000
0001
0001
,  // measure 55
1000
0000
0000
0010
,  // measure 56
0000
0000
0100
0100
,  // measure 57
0110
0000
0000
0000
,  // measure 58
0000
0000
0010
0010
,  // measure 59
1000
0000
0000
0000
,  // measure 60
0000
0000
0000
0001
,  // measure 61
0000
0000
0000
1000
,  // measure 62
0000
0000
0000
0010
,  // measure 63
0000
0000
0000
0000
,  // measure 64
0100
0000
0010
0000
,  // measure 65
1001
0000
0000
0000
,  // measure 66
1000
0000
0001
0001
,  // measure 67
0100
0000
0000
0000
,  // measure 68
0001
0000
1000
0000
,  // measure 69
0010
0000
0000
0000
,  // measure 70
1000
0000
0100
0000
,  // measure 71
1000
0000
0000
0000
,  // measure 72
0010
0000
0100
0100
,  // measure 73
0100
0000
0000
0000
,  // measure 74
0010
0000
0000
0000
,  // measure 75
1000
0000
0000
0000
,  // measure 76
0001
0000
0000
0000
,  // measure 77
1000
0000
0000
0000
,  // measure 78
0100
0000
0000
0000
,  // measure 79
1000
0000
0000
0000
,  // measure 80
0010
0000
0100
0000
,  // measure 81
0001
0000
0000
0000
;
