#TITLE:Shine On;
#SUBTITLE:;
#ARTIST:R.I.O;
#TITLETRANSLIT:;
#SUBTITLETRANSLIT:;
#ARTISTTRANSLIT:;
#CREDIT:;
#BANNER:Shine On.png;
#BACKGROUND:Shine On-background.png;
#JACKET:Shine On-jacket.png;
#LYRICSPATH:;
#CDTITLE:;
#MUSIC:Shine On.mp3;
#OFFSET:-7.820;
#SAMPLESTART:29.360;
#SAMPLELENGTH:12.000;
#SELECTABLE:YES;
#BPMS:0.000=128.000,112.000=64.000,128.000=128.000;
#STOPS:;
#BGCHANGES:;

//---------------dance-single - ----------------
#NOTES:
     dance-single:
     :
     Hard:
     6:
     0.317,0.389,0.185,0.088,0.104:
0000
0000
0000
0000
,
0000
0000
0000
0000
,
0000
0000
0000
0000
,
0000
0000
0000
0000
0000
0000
0000
1000
,
0001
0100
0001
0100
,
0010
1000
0010
0010
,
0100
0001
1000
0100
,
1000
0000
0010
0000
0100
0000
0001
0100
,
0001
0100
0010
1000
,
0010
0001
0010
0100
,
1000
0001
1000
0100
,
0010
0001
0010
0100
1000
1000
0001
0001
,
1001
0000
0000
0001
0000
0000
0100
0000
0000
0001
0000
0000
0010
0000
0000
0100
,
0000
0000
0000
0000
1000
0100
0010
0001
,
0010
0000
0000
0010
0000
0000
0100
0000
0000
0100
0000
0000
0100
0000
0000
0000
,
0000
0000
0000
0000
0000
0000
0000
0000
0000
0000
1000
0000
0000
0100
0000
0000
,
0001
0000
0000
0100
0000
0000
0010
0000
0000
0000
0001
0000
0000
0100
0000
0000
,
0010
0000
0000
0000
0100
0000
0010
1001
,
0000
0000
0000
0000
0000
0001
0100
0010
,
0000
0000
0000
0000
0100
0001
1000
0001
,
1000
0000
0000
1000
0000
0000
0001
0000
0000
0100
0000
0000
0010
0000
0000
0010
,
0000
0000
0000
0100
0001
1000
0100
0010
,
0100
0000
0000
0100
0000
0000
1000
0000
0000
0010
0000
0000
0100
0000
0000
0000
,
0000
0000
0000
0000
0000
0100
0001
1000
,
0100
0000
0010
0000
0100
1000
0001
0000
,
1000
0000
0001
0000
0001
0010
0100
0000
,
1000
0000
0001
0000
0100
0001
0100
0000
,
0001
0000
1000
0000
0001
0010
0100
0000
,
2000
3100
0010
0010
0001
0001
1000
0000
,
1000
0000
0100
0000
1000
0010
0001
0010
,
0100
0000
0010
0000
1000
1000
0001
1000
,
0100
0000
1000
0000
0010
0100
0001
1000
,
1001
0001
0100
0001
,
1000
0100
1000
0001
,
0100
0001
0100
0010
,
1000
0010
0001
0010
,
0100
0000
0101
0000
0000
0000
0000
1000
,
0002
0013
0100
1000
,
0100
0000
1000
0000
0010
0100
0001
1000
,
0200
0000
0010
0000
0310
0001
0010
0100
,
1100
0000
0000
0100
0000
0000
1100
0000
0000
1000
0000
0000
1100
0000
0000
0011
,
0000
0000
0000
0000
0001
0100
0010
1000
,
1010
0000
0000
0010
0000
0000
0110
0000
0000
1001
0000
0000
0202
0000
0000
0000
,
0000
0000
0303
0000
0000
0000
0000
0000
0000
0000
0001
0000
0000
0100
0000
0000
,
0010
0000
0000
1000
0000
0000
0100
0000
0000
0000
0001
0000
0000
0100
0000
0000
,
0010
0000
0000
0000
0110
0000
0010
1001
,
0001
0000
0001
0000
1000
0000
1000
0010
,
0100
0000
0010
0000
0100
0100
0010
0010
,
0110
0000
0000
0010
0000
0000
1001
0000
0000
0010
0000
0000
0101
0000
0000
0011
,
0000
0000
0000
0001
0010
1000
0010
0100
,
1100
0000
0000
0100
0000
0000
0110
0000
0000
0011
0000
0000
2020
0000
0000
0000
,
0000
0000
3030
0000
0000
0000
1000
0001
,
0100
0000
0010
0000
1000
0010
0100
0001
,
0010
0000
0100
0000
0100
1000
0020
0000
,
0000
0000
0000
0130
0000
0100
0001
1000
,
0002
0003
0000
0000
,
2020
0000
0000
0000
,
3030
0000
0000
0000
;

//---------------dance-single - ----------------
#NOTES:
     dance-single:
     :
     Medium:
     4:
     0.246,0.270,0.016,0.040,0.040:
0000
0000
0000
0000
,
0000
0000
0000
0000
,
0000
0000
0000
0000
,
0000
0000
0000
0000
,
0100
0100
1000
0010
,
0100
0000
0010
0000
1000
0000
0001
0010
,
0100
0010
0001
1000
,
0010
0000
1000
0000
0001
0000
0010
0100
,
1000
0000
0100
0000
1000
0000
0010
0100
,
0010
0000
0100
0000
0001
0000
1000
0001
,
0100
0001
1000
0010
,
0100
0000
0000
0000
0010
0100
0001
1000
,
0001
1000
0100
1000
,
0001
0000
0000
0000
1000
0100
0010
0100
,
1000
0100
0010
0001
,
0000
0000
0000
0001
,
0100
0001
1000
0100
,
1000
0000
0000
0000
0010
0000
0100
0100
,
0000
0000
0000
0010
0000
0100
0001
1000
,
0000
0000
0000
0000
0010
0100
0001
1000
,
0100
1000
0010
0100
,
0100
0000
0000
0000
0100
0000
0010
1000
,
0001
1000
0100
0100
,
0000
0000
0000
0000
0000
0000
1000
0100
,
0000
0000
0000
0000
0000
0000
0010
0001
,
0000
0000
0000
0002
,
0000
0000
1003
0000
0000
0000
1000
0001
,
0200
0000
0000
0300
,
0001
0000
1000
0000
0010
1000
0010
0000
,
0100
0000
0001
0000
1000
0100
0010
0001
,
1000
0001
0100
0001
,
1000
1000
0100
0010
,
0011
0000
0010
0000
0100
0010
0100
0010
,
0100
1000
0010
0100
,
0001
0000
1000
0000
0001
0100
0001
0100
,
0001
0000
0100
0000
0010
0000
1000
0010
,
0001
0000
0010
0000
0000
0000
0000
0100
,
0001
0000
1000
0100
0000
0000
0000
0000
,
0000
0000
0000
0000
0000
0000
0000
0000
0010
0000
0000
0010
0000
0000
0001
0000
,
1000
0000
1000
0000
0001
0010
0100
1000
,
0001
0000
0000
1000
0000
0000
0001
0000
0000
0100
0000
0000
0001
0000
0000
0000
,
1000
0000
0000
0000
1000
0100
1000
0100
,
1000
0000
0000
1000
0000
0000
0100
0000
0000
0100
0000
0000
0020
0000
0000
0000
,
0000
0030
0000
0010
,
0001
0000
0100
0000
0010
0000
0100
0010
,
0100
0000
0010
0000
1000
0000
0010
0100
,
0000
0000
0000
0010
0000
0100
0001
0100
,
0000
0000
0000
0000
0001
0010
0100
1000
,
0100
0000
0000
1000
0000
0000
0010
0000
0000
0100
0000
0000
0001
0000
0000
1000
,
0000
0000
0000
1000
0100
1000
0010
0100
,
0010
0000
0000
0010
0000
0000
0100
0000
0000
0100
0000
0000
0020
0000
0000
0000
,
0000
0000
0030
0000
0000
0100
0001
1000
,
0000
0000
0000
0000
0000
1000
0100
0010
,
0000
0000
0000
0000
0000
0010
0200
0000
,
0000
0000
0000
1300
0000
1000
0001
0100
,
0001
0000
0000
0000
,
1001
0000
0000
0000
;

//---------------dance-single - ----------------
#NOTES:
     dance-single:
     :
     Easy:
     2:
     0.143,0.202,0.056,0.032,0.000:
0000
0000
0000
0000
,
0000
0000
0000
0000
,
0000
0000
0000
0000
,
0000
0000
0000
0000
,
0001
0001
0000
0000
,
0000
0000
1000
0010
,
0100
0000
0000
0000
,
0000
0000
0000
0000
,
0010
0000
0000
0100
,
0000
0000
0001
0000
,
1000
0000
0000
0000
,
0000
0000
0100
0010
,
1001
0001
1000
0100
,
0100
0000
1000
0001
,
0100
0001
0010
0100
,
0000
0000
0000
1000
,
0001
0100
0100
0001
,
1000
0000
0100
0010
,
0000
0000
0000
0010
,
0000
0000
0100
1000
,
1001
0001
1000
0100
,
0100
0000
1000
0010
,
0100
0001
1000
0100
,
0000
0000
0000
0010
,
0000
0000
0000
0001
,
0000
0000
0000
1000
,
0000
0000
0000
0010
,
0100
0000
0000
0000
,
0100
0000
0000
0000
,
0001
0000
1000
0000
,
0100
0000
0000
1000
,
0001
0000
0000
0000
,
0100
0000
0001
1000
,
0100
1000
0100
0010
,
0000
0000
0100
1000
,
0001
0100
1000
0100
,
0010
0010
0000
0000
,
0100
0100
0100
0000
,
0000
0000
0002
0000
,
2000
0000
0000
3003
,
1001
0001
1000
0100
,
0100
0000
1000
0010
,
0100
0001
0010
0020
,
0000
0030
0000
0100
,
1000
0001
0100
0001
,
1000
0000
0001
1001
,
0000
0000
0000
0110
,
0000
0000
0100
0010
,
1010
0010
0001
0010
,
0100
0000
0001
1000
,
0100
1000
0010
2000
,
0000
3000
0000
0001
,
0000
0000
0000
1000
,
0000
0000
0000
0010
,
0000
0000
0000
0100
,
0100
0000
0000
0000
,
1001
0000
0000
0000
;

//---------------dance-single - ----------------
#NOTES:
     dance-single:
     :
     Beginner:
     1:
     0.085,0.135,0.056,0.000,0.000: // measure 1
0000
0000
0000
0000
,  // measure 2
0000
0000
0000
0000
,  // measure 3
0000
0000
0000
0000
,  // measure 4
0000
0000
0000
0000
,  // measure 5
0010
0000
0000
0000
,  // measure 6
0000
0000
1000
0000
,  // measure 7
0001
0000
0000
0000
,  // measure 8
0000
0000
0000
0000
,  // measure 9
0100
0000
0000
0000
,  // measure 10
0001
0000
0000
0000
,  // measure 11
1000
0000
0000
0000
,  // measure 12
0000
0000
0010
0010
,  // measure 13
1001
0000
0000
0000
,  // measure 14
0000
0000
1000
1000
,  // measure 15
1000
0000
0000
0000
,  // measure 16
0000
0000
0000
0000
,  // measure 17
0001
0000
0000
0000
,  // measure 18
0100
0000
0010
0010
,  // measure 19
0000
0000
0000
0100
,  // measure 20
0000
0000
0010
0010
,  // measure 21
0110
0000
0000
0000
,  // measure 22
0000
0000
0100
0100
,  // measure 23
0100
0000
0000
0000
,  // measure 24
0000
0000
0000
0001
,  // measure 25
0000
0000
0000
0001
,  // measure 26
0000
0000
0000
0001
,  // measure 27
0000
0000
0000
1000
,  // measure 28
1000
0000
0000
0000
,  // measure 29
0010
0000
0000
0000
,  // measure 30
0100
0000
0000
0000
,  // measure 31
0001
0000
0000
0000
,  // measure 32
1000
0000
0000
0000
,  // measure 33
0001
0000
0000
0000
,  // measure 34
1000
0000
0000
0000
,  // measure 35
0010
0000
0000
0000
,  // measure 36
0100
0000
0000
0000
,  // measure 37
0001
0001
0000
0000
,  // measure 38
1000
1000
1000
0000
,  // measure 39
0000
0000
0010
0000
,  // measure 40
0100
0000
0001
1000
,  // measure 41
1001
0000
0000
0000
,  // measure 42
0000
0000
0010
0100
,  // measure 43
1001
0000
0000
0000
,  // measure 44
0000
0000
0000
1000
,  // measure 45
1000
0000
0000
0001
,  // measure 46
0000
0000
0100
0010
,  // measure 47
0000
0000
0000
0010
,  // measure 48
0000
0000
1000
1000
,  // measure 49
1001
0000
0000
0000
,  // measure 50
0000
0000
0001
0001
,  // measure 51
1001
0000
0000
0000
,  // measure 52
0000
0000
0000
0010
,  // measure 53
0000
0000
0000
0010
,  // measure 54
0000
0000
0000
0100
,  // measure 55
0000
0000
0000
0001
,  // measure 56
0001
0000
0000
0000
,  // measure 57
1001
0000
0000
0000
;
