#TITLE:Shadows;
#SUBTITLE:;
#ARTIST:Lindsey Stiling;
#TITLETRANSLIT:;
#SUBTITLETRANSLIT:;
#ARTISTTRANSLIT:;
#CREDIT:;
#BANNER:Shadows.png;
#BACKGROUND:Shadows-background.png;
#JACKET:Shadows-jacket.png;
#LYRICSPATH:;
#CDTITLE:cdtitle.png;
#MUSIC:Shadows.mp3;
#OFFSET:0.315;
#SAMPLESTART:93.020;
#SAMPLELENGTH:12.000;
#SELECTABLE:YES;
#BPMS:0.000=125.970;
#STOPS:;
#BGCHANGES:;

//---------------dance-single - ----------------
#NOTES:
     dance-single:
     :
     Hard:
     9:
     0.521,0.536,0.008,0.291,0.809:
0000
0000
0000
0000
,
0000
0000
0000
0000
,
0000
0000
0000
0000
,
0020
0000
0000
0000
,
0030
0000
0200
0300
,
0002
0000
0000
0003
,
1000
0100
1000
0001
,
0020
0000
0000
0000
,
0230
0000
0000
0000
0000
0000
1300
0100
1000
0001
0000
0001
,
2000
0000
0000
3000
,
0010
0100
0001
1000
,
0001
0000
1000
0001
0000
0001
1000
0000
1000
0100
0000
0000
,
1000
0000
1000
0001
0000
0001
1000
0000
1000
0010
0000
0000
,
1000
0000
1000
0001
0000
0001
0010
0000
0000
0010
0100
1000
,
0001
0000
0000
0100
0000
0000
0010
0100
0010
1000
0000
0000
,
0001
0100
0010
1000
0001
0100
0010
0000
0010
0100
0000
0000
,
0100
0010
1000
0001
0100
0010
1000
0001
0100
0010
0000
0100
,
0001
1000
0001
0100
0001
0100
0020
0000
0000
0030
0000
0000
,
0100
0001
1000
0100
0010
0100
1000
0001
1000
0100
0000
0000
,
0010
0001
0010
0001
,
1000
0100
1000
0100
,
1000
1000
0001
0001
,
1000
0001
0100
0010
,
2020
0000
0000
0000
0000
0000
0000
0000
0000
3030
0000
0000
1000
0000
0001
0000
0100
0000
0001
0000
0010
0000
0001
0000
,
1000
0000
0000
0001
0000
0000
0001
0100
0010
0100
0000
0000
,
0001
0010
0100
0010
0001
0100
0010
1000
0001
0020
0000
0000
,
0130
1000
0100
0010
0100
1000
0020
0000
0000
1030
0000
0000
,
0002
0000
0000
0013
0100
0010
0001
0100
0010
0100
0001
0010
,
0001
1000
0100
0010
0001
1000
0100
0010
0001
2000
0000
0000
,
3002
0000
0000
0103
0001
0100
0010
1000
0100
0010
0000
0000
,
0100
0010
0001
0010
0100
1000
0100
0000
0000
1000
0000
0000
,
0001
1000
0100
1000
0010
0100
0001
0010
0001
0100
0000
0001
,
0100
0010
1000
0010
0100
0010
1000
0001
1000
0010
0000
0000
,
0100
0001
0010
0000
0100
0010
0001
0000
0000
0010
0100
0010
,
0000
0100
1000
0001
0100
0001
2000
0000
0000
3002
0000
0000
,
0103
0000
0000
0000
0000
0000
0010
0001
0100
0001
1000
0100
,
1000
0100
0010
0001
1000
0100
0010
0100
1000
0020
0000
0000
,
0230
0000
0000
0300
0001
0100
0001
0100
0001
0020
0000
0000
,
0130
0010
0001
0010
0100
0010
0002
0000
0000
2003
0000
0000
,
3100
0010
0001
0010
,
0100
1000
0100
0010
,
0001
0010
0100
1000
,
0100
0010
0100
1000
,
0001
1000
0020
0030
,
1000
0001
0020
0030
,
0001
0001
0010
0100
0000
0000
0001
0001
0010
0100
0000
0000
,
0001
0001
0010
0100
0000
0000
0001
0001
0010
0100
0000
0000
,
0010
0010
0100
1000
0000
0000
0010
0010
0100
1000
0000
0000
,
0010
0010
0100
1000
0000
0000
0010
0010
0100
0020
0000
0000
,
0230
0000
0000
0000
0000
0000
0301
1000
0010
1000
0100
1000
,
0001
0000
0000
0000
1000
0000
0000
0000
0001
1000
0001
1000
0001
0000
0000
0000
,
1000
0100
0010
0100
1000
0010
0100
0001
1000
0200
0000
0000
,
0310
0001
0010
0100
0010
0001
0200
0000
0000
0301
0000
0000
,
2000
0000
0000
3100
0010
0100
1000
0010
0100
0010
0000
0010
,
1000
0001
0010
0100
1000
0001
0010
0100
1000
0002
0000
0000
,
2003
0000
0000
3010
1000
0010
0100
0001
0010
0100
0000
0000
,
0010
0100
1000
0100
0010
0001
0010
0000
0000
0001
0000
0000
,
1000
0001
0010
0001
0100
0010
1000
0100
1000
0010
0000
1000
,
0010
0100
0001
0100
0010
0100
0001
1000
0001
0100
0000
0000
,
0010
1000
0100
0000
0010
0100
1000
0000
0000
0100
0010
0100
,
0000
0010
0001
1000
0010
1000
0002
0000
0000
2003
0000
0000
,
3010
0000
0000
0000
0000
0000
0010
1000
0010
1000
0001
0010
,
0001
0010
0100
1000
0001
0010
0100
0010
0001
0200
0000
0000
,
0320
0000
0000
0030
1000
0010
1000
0010
1000
0200
0000
0000
,
0310
0100
1000
0100
0010
0100
2000
0000
0000
0002
0000
0000
,
3003
0000
0000
0000
;

//---------------dance-single - ----------------
#NOTES:
     dance-single:
     :
     Medium:
     6:
     0.341,0.383,0.188,0.298,0.133:
0000
0000
0000
0000
,
0000
0000
0000
0000
,
0000
0000
0000
0000
,
0002
0000
0000
0000
,
0000
0000
0000
0000
0003
0000
2000
0000
0000
0000
0000
0000
,
3200
0000
0000
0300
,
0100
0010
0001
1000
,
0020
0000
0000
0030
,
0200
0000
0301
1000
,
0200
0000
0000
0300
,
1000
0100
1000
0010
,
0100
0010
0100
1001
,
0010
0100
0010
1001
,
0001
0100
0010
1000
,
0200
1300
0200
0310
,
0100
1000
1010
0101
,
0001
0010
0110
1100
,
0100
0010
0002
0003
,
1000
0001
0100
0001
,
0010
0010
0010
0010
,
0100
0100
0100
0100
,
1000
1000
0001
0001
,
1000
0010
0100
0001
,
2020
3030
0010
0100
,
0001
0000
0000
1000
0000
0000
0001
0100
0001
0100
0000
0000
,
0001
0000
0000
0100
0000
0000
1000
0100
0010
0100
0000
0000
,
0010
0100
0110
1001
,
0202
0303
0001
1000
,
0100
0000
0000
0010
0000
0000
0001
0010
0100
1000
0000
0000
,
1100
0000
1000
0100
,
1000
0000
0000
0010
0100
0010
0100
0000
0000
0010
0000
0000
,
1000
0010
0200
0301
,
0001
0010
0200
0310
,
0100
0110
0010
0011
,
0001
1001
0101
1001
,
1200
0000
0310
0001
,
0010
0000
0000
1000
0000
0000
0010
0100
1000
0010
0000
0000
,
0200
0000
0000
0000
0000
0000
0310
0100
0010
0100
0000
0000
,
0010
1000
0002
0013
,
0001
0010
0100
1000
,
0001
0010
0100
1000
,
0001
0010
0100
1000
,
0100
0010
0100
1000
,
0002
0000
0000
0003
,
2000
0000
0000
3000
,
0020
0030
0200
0300
,
0020
0030
0200
0300
,
0002
0003
2000
3000
,
0002
0003
2000
0010
,
3200
0000
0310
0001
,
0011
0000
0000
1100
0000
0000
1000
0010
1000
0010
0000
0000
,
0110
0010
1001
0010
,
0100
0000
0000
0001
0100
0010
1000
0000
0000
0010
0000
0000
,
0210
0000
0310
1000
,
0001
0000
0000
1000
0000
0000
0010
0100
0010
0100
0000
0000
,
2002
0000
0000
3003
0000
0000
0001
0100
0001
0100
0000
0000
,
0001
0000
0000
0100
0010
0100
0010
0000
0000
1000
0000
0000
,
1000
0000
0000
0100
0000
0000
0010
0001
0010
0001
0000
0000
,
0010
0000
0000
0100
0000
0000
1000
0001
1000
0001
0000
0000
,
2000
3100
0200
0310
,
0100
1000
0001
0100
,
2002
3003
0001
0100
,
0010
1000
0010
1000
0000
0000
1000
0010
1000
0010
0000
0000
,
0200
0000
0000
0000
0000
0000
0310
0100
0001
1000
0000
0000
,
0001
0000
0000
0010
0100
1000
0100
0000
0000
0020
0000
0000
,
0030
0000
0000
0000
;

//---------------dance-single - ----------------
#NOTES:
     dance-single:
     :
     Easy:
     4:
     0.250,0.332,0.165,0.110,0.000:
0000
0000
0000
0000
,
0000
0000
0000
0000
,
0000
0000
0000
0000
,
0002
0000
0000
0000
,
0000
0003
2000
3000
,
0020
0000
0000
0030
,
0100
0001
0100
0001
,
2000
0000
0000
3000
,
0001
0000
0100
0001
,
0020
0000
0000
0030
,
0100
1000
0100
1000
,
0001
0100
0010
1000
,
0010
0100
0010
1000
,
0010
0100
0001
1000
,
0100
0100
1000
1000
,
0100
0010
0001
0011
,
0001
0010
0100
0110
,
0010
0100
2000
3000
,
0001
1000
0100
1000
,
0010
0000
0100
0000
,
0001
0000
1000
0000
,
0100
0000
1000
0000
,
0010
0000
0100
0000
,
1001
0000
0001
1000
,
0100
1000
0100
0010
,
0001
1000
0001
0100
,
0001
0010
0001
1000
,
1100
0000
0100
1000
,
0010
0010
0010
0100
,
0010
0000
1000
1000
,
0001
1000
0100
0010
,
0100
0010
0001
1001
,
0001
0100
0010
1001
,
0001
1000
0001
0100
,
0001
0010
0100
1000
,
1100
0000
1000
0100
,
1000
0010
0001
0010
,
0100
0000
0100
0001
,
1000
0100
0001
0100
,
0020
0000
0030
0000
,
0002
0000
0003
0000
,
2000
0000
3000
0000
,
0020
0000
0030
0000
,
0100
0000
0000
0000
,
0001
0000
0000
0000
,
1000
0000
1000
0000
,
1000
0000
1000
0000
,
0010
0000
0010
0000
,
0010
0000
0100
0010
,
2002
3003
0001
1000
,
0100
0010
0011
0011
,
0001
0100
1000
0100
,
0010
1000
1010
1010
,
1001
0000
1000
0100
,
1000
1000
0001
0001
,
0100
0000
0001
0010
,
0001
0010
0100
1000
,
0100
0010
0100
1100
,
1000
0010
0100
0110
,
0011
0001
0101
0001
,
1001
0001
1000
1000
,
0020
0000
0130
0001
,
1000
0001
0100
0011
,
0101
0000
0001
0101
,
0001
0100
0010
2000
,
3000
0000
0000
0000
;

//---------------dance-single - ----------------
#NOTES:
     dance-single:
     :
     Beginner:
     1:
     0.095,0.127,0.016,0.031,0.000: // measure 1
0000
0000
0000
0000
,  // measure 2
0000
0000
0000
0000
,  // measure 3
0000
0000
0000
0000
,  // measure 4
1000
0000
0000
0000
,  // measure 5
0000
0000
0001
0000
,  // measure 6
0001
0000
0000
0000
,  // measure 7
0100
0000
0100
0000
,  // measure 8
0100
0000
0000
0000
,  // measure 9
0001
0000
0001
0000
,  // measure 10
1000
0000
0000
0000
,  // measure 11
1000
0000
0000
0000
,  // measure 12
0100
0000
0000
0000
,  // measure 13
1000
0000
0000
0000
,  // measure 14
0010
0000
0000
0000
,  // measure 15
0100
0000
0000
0000
,  // measure 16
0001
0000
0000
0000
,  // measure 17
0001
0000
0000
0000
,  // measure 18
1000
0000
0000
0000
,  // measure 19
0100
0000
0000
0000
,  // measure 20
1000
0000
0000
0000
,  // measure 21
1000
0000
0000
0000
,  // measure 22
1000
0000
0000
0000
,  // measure 23
1000
0000
0000
0000
,  // measure 24
0110
0000
0000
0000
,  // measure 25
0100
0000
0100
0000
,  // measure 26
0001
0000
0000
0000
,  // measure 27
1000
0000
0001
0000
,  // measure 28
0100
0000
0000
0000
,  // measure 29
0001
0000
0001
0000
,  // measure 30
1000
0000
0000
0000
,  // measure 31
0100
0000
1000
0000
,  // measure 32
0010
0000
0000
0000
,  // measure 33
0010
0000
0000
0000
,  // measure 34
0100
0000
0000
0000
,  // measure 35
0100
0000
0000
0000
,  // measure 36
0001
0000
0000
0000
,  // measure 37
1000
0000
0001
0000
,  // measure 38
0010
0000
0001
0000
,  // measure 39
0100
0000
0001
0000
,  // measure 40
2000
0000
0000
3000
,  // measure 41
0002
0000
0000
0003
,  // measure 42
2000
0000
0000
3000
,  // measure 43
0002
0000
0000
0003
,  // measure 44
0100
0000
0000
0000
,  // measure 45
0001
0000
0000
0000
,  // measure 46
0100
0000
0100
0000
,  // measure 47
0100
0000
0100
0000
,  // measure 48
0010
0000
0010
0000
,  // measure 49
0010
0000
0010
0000
,  // measure 50
1001
0000
0000
0000
,  // measure 51
0001
0000
0000
0000
,  // measure 52
1000
0000
0000
0000
,  // measure 53
0100
0000
0000
0000
,  // measure 54
1000
0000
0000
0000
,  // measure 55
0010
0000
0000
0000
,  // measure 56
0100
0000
0000
0000
,  // measure 57
0001
0000
0001
0000
,  // measure 58
1000
0000
0000
0000
,  // measure 59
0100
0000
0000
0000
,  // measure 60
1000
0000
0000
0000
,  // measure 61
0010
0000
0100
0100
,  // measure 62
0100
0000
0000
0000
,  // measure 63
0001
0000
0000
0000
,  // measure 64
1000
0000
0000
0000
,  // measure 65
0100
0000
0010
0000
;
