#TITLE:Session 12;
#SUBTITLE:-Esther-;
#ARTIST:PRASTIK DANCEFLOOR;
#TITLETRANSLIT:;
#SUBTITLETRANSLIT:;
#ARTISTTRANSLIT:;
#CREDIT:;
#BANNER:Session 12 -Esther.png;
#BACKGROUND:Session 12 -Esther--bakcground.png;
#LYRICSPATH:;
#CDTITLE:;
#MUSIC:24 Session 12 -Esther-.mp3;
#OFFSET:-4.566;
#SAMPLESTART:50.350;
#SAMPLELENGTH:8.700;
#SELECTABLE:YES;
#BPMS:0.000=172.000,7.500=163.000,9.000=146.000,10.500=118.000,12.000=64.000,12.250=69.000,12.500=75.000,12.750=82.000,13.000=88.000,13.250=94.000,13.500=101.000,13.750=107.000,14.000=113.000,14.250=120.000,14.500=126.000,14.750=133.000,15.000=139.000,15.250=145.000,15.500=152.000,15.750=158.000,16.000=164.000,16.250=172.000,16.500=177.000,16.750=183.000,17.000=190.000,17.250=196.000,17.500=203.000,17.750=209.000,18.000=193.000;
#STOPS:329.500=0.155
,330.500=0.155
,331.500=0.155
,332.500=0.155
,333.500=0.155
,334.500=0.155
,335.500=0.155
,336.500=0.155
;

//---------------dance-single - ----------------
#NOTES:
     dance-single:
     :
     Hard:
     9:
     0.708,1.000,0.683,0.099,0.041:
0001
0000
0000
0100
0000
0000
0010
0000
,
0000
0100
0000
0000
0001
0000
0000
1000
,
0000
0000
0100
0000
0000
0010
0000
0000
,
2002
0000
0000
0000
,
0000
0000
0000
3003
1001
1000
0001
0100
,
0010
1000
0100
0001
0100
1000
0010
0001
,
0010
1000
0100
0010
1000
0010
0100
0010
,
0001
0000
1000
0000
0001
0000
0001
0000
0000
0100
0000
0000
0010
0000
0000
1000
,
0000
0010
0000
0100
0010
1000
0001
0100
,
1000
0100
0010
1000
0001
0100
0001
1000
,
0001
1000
0100
0001
0100
0001
0100
1000
,
0010
0000
0000
0100
0000
0000
0001
0000
0000
0010
0000
0000
0100
0000
0000
1000
,
0000
0000
0001
0000
0000
1000
0000
0000
0001
0000
0001
0000
0010
0000
0100
0000
,
1000
0100
0001
0100
1000
0100
0010
0010
,
0100
1000
0010
0001
0010
1010
0000
0100
,
0101
0000
1000
1001
0000
0000
0110
0000
,
0001
1000
0100
1000
0010
0001
0010
1000
,
0001
0010
0001
1000
0100
0001
0100
0010
,
0001
0010
1000
0010
0100
0010
0001
1000
,
0010
0100
1001
0000
0001
0000
1000
0000
,
0001
1000
0001
1000
,
0001
0100
0010
0100
,
0010
0100
0010
0100
,
1001
0000
0001
0001
1000
0100
1000
0010
,
0001
0010
0100
0100
0010
1000
0001
1000
,
0100
0000
0010
0001
0000
0001
0010
0000
,
0010
0100
0000
0100
1000
0000
0001
0100
,
0100
0010
1000
0100
1000
1000
0100
0001
,
0100
1000
0001
0000
0010
0100
0000
0010
,
0001
0000
0100
0010
0000
0010
1000
0100
,
0010
0001
1000
0001
1000
0010
0000
0100
,
0000
0001
0000
0010
0100
0000
0010
0100
,
0000
0100
1000
0010
1000
0001
0010
0100
,
0010
0001
1000
0001
0000
1000
0000
1000
,
0000
0001
0000
0010
0100
1000
0010
0100
,
0001
1000
0220
0000
0000
0000
0000
0330
,
0010
0101
1100
1000
,
1010
0101
0001
0011
,
1100
1000
1100
1001
,
0001
0101
1001
0001
,
0011
1001
1000
1010
,
1001
0110
0101
0110
,
1000
1010
0110
0100
,
0101
0110
0100
0011
,
0110
0100
1100
0110
,
0100
0011
1001
0100
,
0101
1001
0001
0101
,
1010
0000
0001
1000
0010
1000
0001
1000
,
0001
0100
0001
1000
0001
1000
0001
0010
,
0100
1000
0100
1000
0010
0100
0001
0100
,
0010
0100
0001
1000
0100
1000
0010
0100
,
0001
1000
0100
0010
0001
0010
0001
0010
,
0100
1000
0100
0010
0100
0010
0001
0010
,
0100
0010
0001
0100
1000
0100
0010
1000
,
0010
1000
0010
0100
0010
1000
0001
0010
,
1000
0010
0100
0010
0001
0100
1000
0100
,
0010
1000
0010
0100
1000
0100
0001
0010
,
0100
1000
0100
0001
0100
1000
0001
0010
,
0100
1000
0100
0010
0001
0010
0100
0010
,
0001
0100
2010
3010
0000
0201
0301
0000
,
2001
0000
3001
0000
0000
0000
0102
0000
0103
0000
0000
0000
0101
0000
0000
1010
,
0000
0000
1100
0000
0000
0110
0000
0000
0011
0000
0000
0110
0000
0000
1001
0000
,
0000
0101
0000
0000
2002
0000
0000
0000
0000
0000
3003
0000
1000
0000
1000
0000
,
0100
0010
0001
0010
1000
0010
0001
0010
,
0100
0100
0010
0001
0100
1000
0100
0101
,
0000
0010
1010
0000
0001
1001
0000
0000
,
0110
0000
1000
0001
0010
0001
0100
1000
,
0100
0001
1000
0100
1000
0001
0010
1000
,
0010
0100
1000
0100
0001
0100
0010
0100
,
1000
0001
0100
0010
1000
0010
0100
0001
,
1000
0100
0010
0100
0001
0100
1000
0100
,
0010
1000
0010
0001
1000
0100
1000
0001
,
0100
1000
0100
0001
0010
0001
1000
0000
,
0001
1000
0100
0001
0100
0010
0100
0010
,
0001
0010
1000
0010
0001
0010
0100
1000
,
0001
0100
1000
0100
0010
1000
0001
0010
,
0100
0010
0011
0000
0000
1100
0000
0000
,
0101
0000
0000
1010
0000
0000
0101
0000
,
0000
0110
0000
0000
1001
0000
0000
1100
,
0000
0110
0010
0001
,
0010
1000
0010
0100
,
0010
0001
0100
1000
,
0100
0000
1001
0101
1001
1100
0110
0011
,
0101
1010
1100
1010
1100
1010
0101
0011
,
1010
1100
2002
0000
0000
0000
0000
0000
,
0000
0000
0000
3003
;

//---------------dance-single - ----------------
#NOTES:
     dance-single:
     :
     Medium:
     7:
     0.508,0.565,0.453,0.082,0.025:
0001
0000
0000
0001
0000
0000
1000
0000
,
0000
1000
0000
0000
0010
0000
0000
0100
,
0000
0000
0001
0000
0000
0020
0000
0000
,
0130
0000
0000
0000
,
0000
0000
0000
0000
0100
0000
0000
0010
,
0000
0001
0000
1000
0000
0010
0000
0100
,
0000
0010
1000
0000
0000
0010
0000
0000
,
0100
0000
0000
0000
0000
0000
0010
0000
0000
1000
0000
0000
0010
0000
0000
0100
,
0000
0010
0000
0000
0100
0000
0010
0000
,
1000
0000
0001
0000
0100
0000
0001
1000
,
0000
1000
0001
0000
0000
0100
0000
0000
,
0001
0000
0000
0010
0000
0000
0100
0000
0000
1000
0000
0000
0100
0000
0000
0010
,
0000
0000
0001
0000
0000
0010
0000
0000
0100
0000
0000
0000
0010
0000
0001
0000
,
0000
0011
0000
0011
0000
0001
0100
0000
,
0010
1000
0000
1010
0000
0101
0000
0000
,
1001
0000
0000
1100
0000
0000
1002
0000
,
0013
0000
0001
0010
0000
0100
0000
1000
,
0000
0100
1000
0000
0010
0100
0000
0110
,
0000
0110
0100
0000
0001
0000
0010
0000
,
0100
2002
0000
0000
,
0000
0000
0000
0000
,
0000
0000
0000
0000
,
0000
0000
0000
0000
,
3003
0000
0001
0100
0010
1000
0001
0100
,
0010
1000
0000
0001
0100
0010
1000
0001
,
0100
0000
0000
0010
0000
0000
1000
0000
,
0000
0100
0000
0000
0000
1000
0001
0100
,
0001
0010
0100
1000
0100
0010
0100
1000
,
0001
1000
0100
0000
0010
0001
0000
0001
,
0010
0000
0010
0100
0000
0100
2000
0000
,
3002
0000
0103
0001
0100
0001
0000
0100
,
0000
0010
0000
1000
0010
0000
0010
0100
,
0000
0100
0010
1000
0001
0010
0100
1000
,
0100
0010
0001
0010
0000
0010
0000
0001
,
0000
0010
0000
0100
0010
0001
1000
0010
,
1000
0001
0010
0000
0110
0000
0110
0000
,
0010
0011
0011
0001
,
0101
0101
0100
0110
,
0110
0010
1010
1010
,
1000
1100
1100
0100
,
0110
0110
0010
0011
,
0011
0001
1001
1001
,
1000
1010
1010
0010
,
0110
0110
0100
0101
,
0101
0001
1001
1001
,
1000
1001
1001
0001
,
1001
1001
1000
1001
,
1001
0000
0001
0100
0010
1000
0001
0100
,
0010
1000
0100
0010
,
0001
0010
1000
0010
,
0100
0010
0001
0010
,
0001
0010
0100
0010
0001
0010
0100
0000
,
0010
0000
0001
0000
0001
1000
0010
1000
,
0001
1000
0010
0000
0100
0010
1000
0001
,
0100
0000
0010
0000
1000
0000
0100
1000
,
0010
0100
0001
0010
0100
0000
0010
0000
,
0001
0000
0010
0100
1000
0100
1000
0000
,
0100
0000
1000
0000
0010
0000
0100
0010
,
1000
0001
0100
0010
1000
0000
0001
0000
,
0100
0000
0101
0000
0000
1010
0000
0000
,
0101
0000
0000
1001
0000
0000
2000
0000
,
0000
0000
0000
0000
,
0000
0000
0000
3100
,
0010
0001
0000
0010
0000
0001
0000
0010
,
0100
0000
1000
0100
0000
1000
0000
0010
,
0000
0000
0100
0000
0000
0010
0000
0000
,
0100
0000
0001
0000
1000
0001
0000
0001
,
0000
0001
0000
1000
0001
0000
0001
0100
,
0000
0100
0000
0100
0000
0000
0000
0000
,
0020
0000
0000
0000
0130
0010
0100
0010
,
1000
0001
0100
0010
1000
0000
0001
0010
,
0100
0010
0001
0010
0100
1000
0100
0000
,
1000
0100
0010
0100
,
0010
0100
1000
0001
0100
0010
1000
0001
,
1000
0000
0001
0100
0010
1000
0001
0100
,
0010
1000
0010
0000
0000
0000
0100
0000
,
0000
0000
0110
0000
0000
1001
0000
0000
,
0101
0000
0000
1010
0000
0000
0101
0000
,
0000
1100
0000
0000
0011
0000
0000
0110
,
0000
0010
0001
0100
,
0010
1000
0001
0100
,
0010
1000
0010
0100
,
0010
0000
1000
1000
0001
0001
0100
0100
,
0001
0001
0010
0010
0100
0100
0010
0010
,
0100
0100
2002
0000
0000
0000
0000
0000
,
0000
0000
0000
3003
;

//---------------dance-single - ----------------
#NOTES:
     dance-single:
     :
     Easy:
     6:
     0.387,0.529,0.239,0.156,0.000:
0000
0000
0000
0000
,
0000
0000
0000
0000
,
0000
0000
0000
0000
,
2002
0000
0000
0000
,
0000
0000
0000
3003
0001
0000
0000
1000
,
0000
0100
0000
1000
0000
0010
0000
0100
,
0000
0010
0100
0000
0000
0010
0000
0000
,
0100
0000
0000
0002
0000
0000
0000
0000
,
0000
1003
0000
0000
0100
0000
1000
0000
,
0010
0000
0100
0000
0010
0000
1000
0010
,
0000
0000
0100
0000
0000
0010
0000
0000
,
0200
0000
0000
0000
,
0000
0000
0310
1000
,
0010
0100
0010
1000
,
0001
0000
0010
0000
0100
0010
0000
0000
,
0010
0000
0000
0001
0000
0000
1000
0000
,
1001
0001
0100
0001
,
1000
0100
1000
0010
,
0100
0010
1000
0010
,
0100
2002
0000
0000
,
0000
0000
0000
0000
,
0000
0000
0000
0000
,
0000
0000
0000
0000
,
3003
0000
0001
0100
0001
0100
0001
0100
,
0001
0100
0001
0100
0001
0100
0001
0100
,
0001
0000
0000
0100
0000
0000
0010
0000
,
0000
1000
0000
0000
0010
1000
0010
1000
,
0010
1000
0010
1000
0010
1000
0010
1000
,
0010
1000
0010
0000
0000
0100
0000
0000
,
0001
0000
0000
1000
0000
0000
0100
0000
,
1000
0000
0010
0000
0100
0010
0000
0100
,
0000
0001
0000
1000
0001
0000
0001
0100
,
0000
0100
0010
0100
0010
1000
0001
1000
,
0001
0010
0100
1000
0000
0100
0000
1000
,
0000
0010
0000
0100
0010
0100
0001
1000
,
0001
0010
0200
0000
0000
0000
0010
0000
,
0310
0000
0010
1001
,
0000
0001
0101
0000
,
1000
1100
0000
0001
,
0101
0000
1000
1100
,
0000
0001
0101
0000
,
1000
1100
0000
0001
,
1001
0000
1000
1001
,
0000
0001
1001
0000
,
1000
1010
0000
0001
,
0011
0000
1000
1010
,
0000
0001
0011
0000
,
1000
0110
0010
1000
,
1001
0001
0010
0010
,
0001
0100
1000
0100
,
0010
1000
0010
0010
,
0100
0001
0001
1000
,
0100
0001
0100
0010
,
1000
0010
0010
0010
,
0100
0100
0100
0010
,
0010
0010
0100
0100
,
0100
0001
1000
0001
,
0001
1000
0100
1000
,
0001
0100
0001
0010
,
0100
0000
0110
0000
0000
0010
0000
0000
,
0001
0000
0000
1000
0000
0000
0020
0000
,
0000
0000
0000
0000
,
0000
0200
0030
0301
,
0000
1000
0000
0001
0000
1000
0000
0000
,
0010
0000
0000
0100
0000
0001
0000
0100
,
0000
0000
0010
0000
0000
0100
0000
0000
,
0001
0000
1000
0000
0000
0100
0000
0100
,
0000
0100
0000
0000
1000
0000
0000
0010
,
0000
0010
0000
0010
0000
0000
0000
0000
,
0100
0000
0001
0100
,
0010
0100
0001
1000
,
0100
0001
0100
0010
,
0001
0010
0001
0010
,
0100
0010
0001
1000
,
0010
0100
0001
1000
,
0010
0100
0010
1000
,
0001
0000
0200
0000
0000
0320
0000
0000
,
2030
0000
0000
3002
0000
0000
0023
0000
,
0000
0230
0000
0000
2300
0000
0000
3200
,
0000
1300
0100
0000
0100
0000
0010
0000
,
0010
0001
0001
1000
,
1000
0001
0100
0010
,
1000
0000
0101
0000
1010
0000
0000
0101
,
0000
1100
0000
0011
0000
1100
0000
0011
,
0000
1010
2002
0000
0000
0000
0000
0000
,
0000
0000
0000
3003
;

//---------------dance-single - ----------------
#NOTES:
     dance-single:
     :
     Beginner:
     3:
     0.174,0.243,0.074,0.000,0.000: // measure 1
0000
0000
0000
0000
,  // measure 2
0000
0000
0000
0000
,  // measure 3
0000
0000
0000
0000
,  // measure 4
1001
0000
0000
0000
,  // measure 5
0000
0000
0010
0000
,  // measure 6
0000
0000
0100
0000
,  // measure 7
0000
0010
0000
0000
,  // measure 8
1000
0000
0000
0000
,  // measure 9
0000
0001
0000
0000
,  // measure 10
1000
0000
0000
0000
,  // measure 11
0010
0000
0000
0000
,  // measure 12
0100
0000
0000
0000
,  // measure 13
0000
0000
0010
0000
,  // measure 14
0000
0000
0000
1000
,  // measure 15
0000
0000
0000
1000
,  // measure 16
0000
0100
0000
1000
,  // measure 17
1000
0000
0000
0000
,  // measure 18
0000
0001
0000
0000
,  // measure 19
0000
0100
0000
0010
,  // measure 20
0000
1001
0000
0000
,  // measure 21
0000
0000
0000
0000
,  // measure 22
0000
0000
0000
0000
,  // measure 23
0000
0000
0000
0000
,  // measure 24
0001
0100
0000
0000
,  // measure 25
0010
0000
0000
0100
,  // measure 26
0001
0000
0000
1000
,  // measure 27
0000
0000
0100
0000
,  // measure 28
1000
0000
0010
0000
,  // measure 29
0100
0100
0000
0000
,  // measure 30
0010
0000
0000
1000
,  // measure 31
0000
0000
0001
0000
0000
0000
0000
1000
,  // measure 32
0000
0000
0000
0001
,  // measure 33
0000
0100
0000
0000
,  // measure 34
0000
0000
0010
0000
0000
0000
0000
0100
,  // measure 35
0000
0000
0010
0000
,  // measure 36
0000
1001
0000
0000
,  // measure 37
0000
0001
0001
0000
,  // measure 38
1000
1000
0000
0001
,  // measure 39
0001
0000
1000
1000
,  // measure 40
0000
0001
0001
0000
,  // measure 41
1000
1000
0000
0001
,  // measure 42
0001
0000
0010
0010
,  // measure 43
0000
0100
0100
0000
,  // measure 44
0010
0010
0000
0100
,  // measure 45
0100
0000
0010
0010
,  // measure 46
0000
0100
0100
0000
,  // measure 47
1000
1000
0000
0001
,  // measure 48
0001
0100
0000
0010
,  // measure 49
0000
0010
0100
0000
,  // measure 50
0010
1000
0000
0010
,  // measure 51
0100
0000
0100
0001
,  // measure 52
0000
0001
0010
0000
,  // measure 53
0010
0100
0000
0100
,  // measure 54
1000
0001
0100
0010
,  // measure 55
0000
0100
0010
0000
,  // measure 56
0010
0100
0000
0100
,  // measure 57
0010
0000
0010
1000
,  // measure 58
0000
1000
0010
0000
,  // measure 59
0010
0100
0000
0100
,  // measure 60
0010
1001
0000
0000
,  // measure 61
0000
0000
0000
0000
,  // measure 62
0000
0000
0000
0000
,  // measure 63
0000
0000
0000
0001
,  // measure 64
0000
0000
0000
0000
,  // measure 65
1000
0000
0000
0000
,  // measure 66
0010
0000
0100
0000
,  // measure 67
0001
1000
0000
0000
,  // measure 68
0000
0000
0100
0000
,  // measure 69
0000
0000
1000
0000
,  // measure 70
0001
0000
0100
0000
,  // measure 71
0000
0000
0000
0010
,  // measure 72
0000
0000
0000
0100
,  // measure 73
0000
0000
0000
0000
,  // measure 74
0001
0000
0000
0000
,  // measure 75
0000
1000
0000
0000
,  // measure 76
0000
0001
0000
0100
,  // measure 77
0000
0110
0000
0000
,  // measure 78
1001
0000
0000
0110
,  // measure 79
0000
0000
1001
0000
,  // measure 80
0000
0010
0000
0100
,  // measure 81
0000
0010
0000
1000
,  // measure 82
0000
0001
0000
0100
,  // measure 83
0000
0000
0010
0000
0000
0100
0000
0010
,  // measure 84
0000
1000
0000
0100
0000
0010
0000
0001
,  // measure 85
0000
1000
0110
0000
0000
0000
0000
0000
;
