#TITLE:Secret Agent;
#SUBTITLE:(007 Radio Mix);
#ARTIST:Captain Jack;
#TITLETRANSLIT:;
#SUBTITLETRANSLIT:;
#ARTISTTRANSLIT:;
#CREDIT:;
#BANNER:Secret Agent (007 Radio Mix).png;
#BACKGROUND:Secret Agent (007 Radio Mix)-background.png;
#JACKET:Secret Agent (007 Radio Mix)-jacket.png;
#LYRICSPATH:;
#CDTITLE:cdtitle.png;
#MUSIC:Secret Agent (007 Radio Mix).mp3;
#OFFSET:-0.016;
#SAMPLESTART:70.580;
#SAMPLELENGTH:12.000;
#SELECTABLE:YES;
#BPMS:0.000=150.000;
#STOPS:;
#BGCHANGES:;

//---------------dance-single - ----------------
#NOTES:
     dance-single:
     :
     Hard:
     7:
     0.406,0.456,0.125,0.000,0.116:
0000
0000
0000
0000
,
0000
0000
0000
0000
,
0000
0000
0000
0000
,
0000
0000
0000
0000
,
1001
0001
0000
1000
,
0000
0010
0010
1000
,
0000
0100
0010
0100
,
1000
0001
0100
1000
,
0100
0010
0000
0010
,
0000
0010
0100
0001
,
0000
1000
0100
1000
,
0001
0000
0100
0000
0000
0000
0000
0001
,
1000
0100
1000
0000
0000
0000
0000
0001
,
0100
0000
0010
0000
1000
0000
0000
0001
0000
0000
0100
0000
0000
0000
0000
0000
,
0010
0000
1000
0000
0010
0000
0000
0010
0000
0000
0100
0000
0000
0000
0010
0000
,
0000
0100
0001
0000
1000
0001
0000
0010
,
0100
1000
0001
0000
0000
0000
0000
1000
,
0001
0000
0010
0000
0100
0000
0000
0100
0000
0000
1000
0000
0000
0000
0000
0000
,
0100
0010
0001
0000
0100
0000
1000
0000
,
0100
0010
0000
0000
,
1001
0000
0000
0000
0001
0000
1000
0000
0100
0000
1000
0000
0001
0000
0010
0100
,
0000
0000
1000
0000
0001
0000
0010
0100
0000
0000
0000
0000
0000
0000
0000
0000
,
0000
0000
0000
0000
0100
0000
0010
0000
0001
0000
0100
0000
0010
0000
0100
0001
,
0000
1000
1001
0000
0000
0000
0000
0000
,
0000
0000
0000
0000
0001
0000
1000
0000
0100
0000
1000
0000
0010
0000
0100
0010
,
0000
0000
1000
0000
0010
0000
0100
0010
0000
0000
0000
0000
0000
0000
0000
0000
,
0000
0000
0000
0000
0100
0000
0001
0000
0010
0000
0100
0000
0010
0000
0001
1000
,
0000
0110
0000
0000
,
0000
0000
1000
0100
0001
0100
1000
0010
,
0100
0000
0010
0100
0010
0000
0100
0010
,
0100
0000
0001
0100
0010
0000
1000
0100
,
0010
0000
0010
0000
0010
0100
1000
0000
,
1100
0000
0000
0000
1000
0000
0100
0000
0010
0000
0100
0000
1000
0000
0010
0100
,
0000
0000
0000
0000
0001
0000
0100
0001
0000
0000
0000
0000
0001
0000
0100
0001
,
0000
0000
1000
0001
0100
0010
1000
0001
,
0010
0000
0100
0000
0100
1000
0010
0000
,
1001
0000
0001
1000
0100
1000
0001
0100
,
0001
0000
0000
0100
0010
0000
0000
0100
,
0010
0000
0100
0100
0001
1000
0100
0010
,
0001
0000
0010
0000
0010
0100
0010
0000
,
0010
0000
0000
0000
0001
0000
0001
0000
1000
0000
1000
0000
0010
0000
0100
0010
,
0000
0000
0000
0000
0010
0000
0100
0010
0000
0000
0000
0000
0010
0000
0100
0010
,
0000
0000
0010
0100
0001
1000
0100
0010
,
0001
0011
1100
0101
,
1010
0010
0100
0000
0010
1000
0001
0000
,
0010
0000
0100
0000
0010
0000
0000
0100
0000
0000
1000
0000
0000
0000
0000
0000
,
0100
0010
0100
1000
0000
0001
0000
0010
,
0000
1000
0000
0010
0000
0010
0000
0100
,
0010
0001
1000
0000
0000
0000
1000
0000
,
0000
0000
0000
0000
0100
0000
0000
0010
0000
0000
0001
0000
0000
0000
0000
0000
,
0000
1000
0010
0000
0100
0000
0001
0000
,
0010
0100
0000
0000
0000
0000
0000
0100
,
0010
0001
1001
0000
0000
0000
0000
0001
,
0100
0000
0010
0000
1000
0000
0000
1000
0000
0000
1000
0000
0000
0000
0000
0000
,
1000
0000
0100
0000
0010
0000
0000
0100
0000
0000
1000
0000
0000
0000
0100
0000
,
0000
0010
0100
0000
0010
0100
0000
0010
,
0001
1000
0001
0000
0000
0000
0000
0001
,
0100
0000
0010
0000
0100
0000
0000
0100
0000
0000
0100
0000
0000
0000
0000
0000
,
0010
1000
0001
0000
0010
0000
1000
0000
,
0010
0100
0000
0000
,
0000
0000
0000
0000
1000
0000
0001
0000
1000
0000
0001
0000
1000
0000
0010
1000
,
0000
0000
0001
0000
1000
0000
0010
1000
0000
0000
0000
0000
0000
0000
0000
0000
,
0000
0000
0000
0000
1000
0000
0100
0000
1000
0000
0100
0000
1000
0000
0100
0010
,
0000
0011
0000
0000
,
0000
0000
0000
0000
0001
0000
0100
0000
0010
0000
1000
0000
0001
0000
0100
0010
,
0000
0000
0001
0000
0100
0000
0010
0100
0000
0000
0000
0000
0000
0000
0000
0000
,
0000
0000
0000
0000
0000
0000
0001
0000
1000
0000
0001
0000
1000
0000
0001
0100
,
0000
1001
0000
0000
,
0000
0110
0000
0000
;

//---------------dance-single - ----------------
#NOTES:
     dance-single:
     :
     Medium:
     5:
     0.331,0.393,0.142,0.000,0.000:
0000
0000
0000
0000
,
0000
0000
0000
0000
,
0000
0000
0000
0000
,
0000
0000
0000
0000
,
1001
0001
0000
1000
,
0000
0100
1000
0100
,
0000
0010
0001
0100
,
0001
1000
0100
1000
,
0010
0100
0000
0100
,
0000
0100
0100
0001
,
0000
1000
0001
0010
,
0001
0100
0000
0000
,
0010
0100
0000
0000
,
0010
1000
0100
0010
,
0100
1000
1000
0001
,
0001
1000
0010
0100
,
0001
0010
0000
0000
,
0100
0010
0001
1000
,
0001
0100
1000
0100
,
0010
0100
0000
0000
,
0110
0000
0010
1000
0010
1000
0010
0100
,
0010
0000
0010
0100
0010
0000
0000
0000
,
0000
0000
0001
0100
0001
0100
0001
0100
,
0001
1001
0000
0000
,
0000
0000
1000
0100
1000
0100
1000
0100
,
1000
0000
0100
1000
0100
0000
0000
0000
,
0000
0000
0010
0100
0010
0100
0010
0100
,
0010
1001
0000
0000
,
0000
0000
0001
0000
0100
0000
0010
1000
,
0010
0000
0100
0010
0100
0000
0010
1000
,
0010
0000
1000
0000
0100
0000
0010
0001
,
0010
0000
0011
0000
0001
0100
0010
0000
,
0000
0000
0010
0100
0001
0000
1000
0000
,
1100
0100
1100
0100
,
1100
0000
1000
0000
0100
0000
0010
0001
,
0010
0000
0001
0000
0100
0010
1000
0000
,
0001
0000
1000
0000
0001
0000
0100
0001
,
0100
0000
0000
0010
0100
0000
0000
0010
,
0100
0000
0001
0000
1000
0000
0100
0010
,
0100
0000
1000
0000
0100
0010
0001
0000
,
0011
0000
0001
0100
0010
0000
0100
0010
,
1000
0010
0100
0010
,
1000
0000
0001
0010
0100
1000
0100
0010
,
0001
1000
0001
0100
,
0101
1010
0000
0101
,
0000
0001
1000
0100
,
1000
0010
0010
0100
,
0100
0001
1000
0100
,
0010
0100
0000
1000
,
0000
0010
0100
0001
,
0000
1000
0001
0100
,
0001
0010
0000
0000
,
0100
0110
0000
0000
,
0010
0001
1000
0100
,
1000
0010
0010
0100
,
0100
0010
1000
0001
,
0010
0110
0000
0000
,
0000
0001
1000
0100
,
1000
0010
0100
0010
,
1000
0100
0000
0000
,
0000
0000
1000
0000
0001
0000
0100
0001
,
0100
0000
0001
0100
0001
0000
0000
0000
,
0000
0000
0001
0000
0100
0000
0010
0100
,
0001
1001
0000
0000
,
0000
0000
0001
0000
1000
0000
0100
1000
,
0100
0000
1000
0100
1000
0000
0000
0000
,
0000
0000
0100
0000
0010
0000
0010
0100
,
1000
0001
0000
0000
,
1001
0000
0000
0000
;

//---------------dance-single - ----------------
#NOTES:
     dance-single:
     :
     Easy:
     3:
     0.225,0.273,0.009,0.000,0.000:
0000
0000
0000
0000
,
0000
0000
0000
0000
,
0000
0000
0000
0000
,
0000
0000
0000
0000
,
0000
0001
0000
1000
,
0000
0100
0100
0100
,
0000
1000
0000
0001
,
0000
0100
0100
0100
,
0001
0010
0000
0010
,
0000
0010
0010
0010
,
0000
0100
0000
1000
,
0000
0001
0000
0000
,
1000
0100
0000
0000
,
1000
1000
0000
0000
,
0001
0100
0000
0010
,
0000
0100
0100
0001
,
0000
1000
0000
0000
,
0000
0100
0000
0000
,
1000
0100
0010
0001
,
0010
0001
0000
0000
,
1001
0001
0100
0010
,
0000
0010
0000
0000
,
0000
0100
0010
1000
,
0100
1000
0000
0000
,
0000
1000
0001
0100
,
0000
0010
0000
0000
,
0000
0010
0100
0001
,
1000
0000
0000
0000
,
0000
0001
1000
0010
,
0010
1000
0100
1000
,
0100
1000
0010
0100
,
0001
0010
0010
0010
,
0000
0001
1000
0100
,
1000
0010
0000
0010
,
0000
0100
0010
1000
,
0001
0010
0010
0010
,
0000
0100
0010
0001
,
1000
0000
0010
0000
,
0010
0100
0001
0010
,
0100
0010
0001
1000
,
0000
1000
1000
0100
,
0010
0000
0010
0000
,
0010
0100
0010
0001
,
1000
0100
0001
0100
,
1000
0010
0000
0100
,
0000
0001
1000
0100
,
0000
1000
0010
1000
,
0001
0010
0001
0100
,
0001
1000
0000
1000
,
0000
1000
1000
1000
,
0000
0100
0010
0100
,
1000
0001
0000
0000
,
0100
0100
0000
0000
,
0010
0100
0001
1000
,
0100
1000
1000
0001
,
0001
0100
0001
0010
,
0001
1000
0000
0000
,
0100
0010
0100
1000
,
0010
0001
0010
0100
,
0100
0001
0000
0000
,
0000
1000
0001
0100
,
0000
0001
0000
0000
,
0000
0001
0100
0010
,
0000
0100
0000
0000
,
0000
0100
0010
1000
,
0000
1000
0000
0000
,
0000
0100
0010
0001
,
0000
1000
0000
0000
,
0000
0100
0000
0000
;

//---------------dance-single - ----------------
#NOTES:
     dance-single:
     :
     Beginner:
     1:
     0.117,0.152,0.062,0.000,0.000: // measure 1
0000
0000
0000
0000
,  // measure 2
0000
0000
0000
0000
,  // measure 3
0000
0000
0000
0000
,  // measure 4
0000
0000
0000
0000
,  // measure 5
0000
1000
0000
0000
,  // measure 6
0000
0001
0000
0000
,  // measure 7
0000
0100
0000
0000
,  // measure 8
0000
0001
0000
0000
,  // measure 9
0000
1000
0000
1000
,  // measure 10
0000
1000
0000
0000
,  // measure 11
0000
0001
0000
0000
,  // measure 12
0000
0000
0000
0000
,  // measure 13
0000
0100
0000
0000
,  // measure 14
0000
0010
0000
0000
,  // measure 15
0000
1000
0000
0000
,  // measure 16
0000
1000
0000
0000
,  // measure 17
0000
0001
0000
0000
,  // measure 18
0000
0100
0000
0000
,  // measure 19
0000
0001
0000
0001
,  // measure 20
0000
0001
0000
0000
,  // measure 21
0000
1001
0000
0000
,  // measure 22
0000
0000
0000
0000
,  // measure 23
0000
0010
0000
0000
,  // measure 24
0000
0100
0000
0000
,  // measure 25
0000
0110
0000
0000
,  // measure 26
0000
0000
0000
0000
,  // measure 27
0000
0001
0000
0000
,  // measure 28
0000
1000
0000
0000
,  // measure 29
0000
0010
0000
0000
,  // measure 30
0000
0100
0000
0100
,  // measure 31
0000
0001
0000
0000
,  // measure 32
0000
1000
1000
1000
,  // measure 33
0000
0001
0000
0000
,  // measure 34
0000
0100
0000
0100
,  // measure 35
0000
0010
0000
0000
,  // measure 36
0000
1000
1000
1000
,  // measure 37
0000
1001
0000
0000
,  // measure 38
0000
0010
0000
0000
,  // measure 39
0000
0100
0000
0100
,  // measure 40
0000
0001
0001
0001
,  // measure 41
0000
1001
0000
0000
,  // measure 42
0000
0100
0000
0100
,  // measure 43
0000
0010
0000
0000
,  // measure 44
0000
0010
0010
0010
,  // measure 45
0000
1001
0000
0100
,  // measure 46
0000
0001
0000
0000
,  // measure 47
0000
1000
0000
0000
,  // measure 48
0000
0001
0000
0000
,  // measure 49
0000
0100
0000
0100
,  // measure 50
0000
0010
0000
0000
,  // measure 51
0000
0100
0000
0010
,  // measure 52
0000
0100
0000
0000
,  // measure 53
0000
1001
0000
0000
,  // measure 54
0000
0001
0000
0000
,  // measure 55
0000
1000
0000
0000
,  // measure 56
0000
0100
0000
0000
,  // measure 57
1000
1000
0000
0000
,  // measure 58
0000
0010
0000
0000
,  // measure 59
0000
0100
0000
0001
,  // measure 60
0000
1000
0000
0000
,  // measure 61
0000
0010
0000
0100
,  // measure 62
0000
0100
0000
0000
,  // measure 63
0000
0001
0000
1000
,  // measure 64
0000
0100
0000
0000
,  // measure 65
0000
1000
0000
0010
,  // measure 66
0000
0010
0000
0000
,  // measure 67
0000
0100
0000
0001
,  // measure 68
0000
0001
0000
0000
,  // measure 69
0000
1001
0000
0000
;
