#TITLE:Sagittarius;
#SUBTITLE:(Alphazone Remix);
#ARTIST:Nish;
#TITLETRANSLIT:;
#SUBTITLETRANSLIT:;
#ARTISTTRANSLIT:;
#CREDIT:;
#BANNER:Sagittarius (Alphazone Remix).png;
#BACKGROUND:Sagittarius (Alphazone Remix)-background.png;
#JACKET:Sagittarius (Alphazone Remix)-jacket.png;
#LYRICSPATH:;
#CDTITLE:cdtitle.png;
#MUSIC:Sagittarius (Alphazone Remix).mp3;
#OFFSET:-13.442;
#SAMPLESTART:80.580;
#SAMPLELENGTH:12.000;
#SELECTABLE:YES;
#BPMS:0.000=143.000;
#STOPS:156.000=1.254
;
#BGCHANGES:;

//---------------dance-single - ----------------
#NOTES:
     dance-single:
     :
     Hard:
     7:
     0.365,0.377,0.039,0.164,0.328:
0001
0000
0000
0000
0100
0000
0000
0001
0000
0000
1000
0000
0100
0000
0000
0000
,
1000
0000
0000
0000
0001
0000
0000
0010
0000
0000
0001
0000
0010
0000
0100
0000
,
0010
0000
0000
0000
0100
0000
0000
1000
0000
0000
0001
0000
0100
0000
0000
0000
,
1000
0000
0000
0000
0100
0000
0000
0100
0000
0000
0100
0000
0001
0000
0000
0000
,
0010
0000
0100
0000
1000
0000
0000
0001
0000
0000
1000
0000
0100
0000
0000
0000
,
0100
0000
0010
0000
0001
0000
0000
0001
0000
0000
0100
0000
0010
0000
0000
0000
,
1000
0000
0010
0000
1000
0000
0000
0010
0000
0000
0100
0000
0001
0000
0000
0000
,
0010
0000
0100
0000
1000
0000
0000
0010
0000
0000
0100
0000
0001
0000
0000
0000
,
2000
0000
0000
3000
,
0002
0000
0000
0003
,
0020
0000
0000
0030
,
0002
0000
0000
0003
,
0020
0000
0000
0030
,
0002
0000
2003
0000
,
3200
0000
0000
0000
,
2300
0000
3002
0000
,
2003
0000
0000
3000
,
0002
0000
0000
0003
,
0200
0000
0000
0300
,
0002
0000
2003
0000
,
3200
0000
0000
0000
,
0320
0000
0032
0000
,
0200
0000
0000
0000
0303
0000
0001
0100
,
1000
0100
0010
0000
0000
0000
0000
0000
,
0010
1000
0010
0000
0100
0000
0010
0000
,
0100
0001
0100
0000
0001
0000
0010
0000
,
0100
0010
0100
0000
1000
0000
0100
0000
,
1000
0100
1000
0000
0100
0010
0001
0010
,
0100
1000
0010
0000
0100
0000
0010
0000
,
0100
0001
1000
0000
0100
0000
0010
0000
,
0001
0010
0100
0000
1000
0000
0010
0000
,
0100
0001
1000
0000
0010
0000
1000
0001
,
0010
0000
0110
0000
0100
1000
0010
0000
,
0100
0000
0101
0000
0001
0100
0010
0000
,
0100
0000
1001
0000
0001
0010
0100
0000
,
1000
0000
1100
0000
1000
0010
0100
0000
,
0010
0100
0001
0000
0001
0010
1000
0000
,
1000
0010
0100
0000
0100
1000
0010
0000
,
0100
0001
0100
0010
1000
0001
0100
0010
,
0100
0000
0000
0000
1001
0000
0001
0000
0000
1000
0000
0000
0001
0000
0000
0100
,
0000
0000
0001
0100
0000
0000
0010
0000
0000
0010
0000
0000
0100
0000
0000
0001
,
0000
0000
0001
1000
0000
0000
1000
0000
0000
1000
0000
0000
0100
0000
0000
0010
,
0000
0000
0001
0010
0000
0000
0001
0000
0000
0100
0000
0000
0010
0000
0000
1000
,
0000
1000
0000
0001
0000
0000
1000
0000
0000
0100
0000
0000
0010
0000
0000
0100
,
0000
0000
0100
0010
0000
0000
0010
0000
0000
0001
0000
0000
0010
0000
0000
0100
,
0000
0000
1000
0100
0000
0000
1000
0000
0000
0010
0000
0000
0100
0000
0000
0010
,
0000
0000
0010
0100
0000
0000
0010
0000
0000
1000
0000
0000
0001
0000
0000
0010
,
0000
0000
0100
1000
0000
0000
0010
0000
0000
0010
0000
0000
0100
0000
0000
0100
,
0000
0000
0010
0100
0000
0000
0001
0000
0000
0001
0000
0000
1000
0000
0000
1000
,
0000
0000
0001
1000
0000
0000
0010
0000
0000
0010
0000
0000
0100
0000
0000
0100
,
0000
0000
0001
0100
0000
0000
0010
0000
0000
1000
0000
0000
0100
0000
0000
0001
,
0000
0100
0000
0100
0000
0000
0010
0000
0000
0010
0000
0000
0100
0000
0000
0100
,
0000
0000
0100
1000
0000
0000
0100
0000
0000
0010
0000
0000
0001
0000
0000
0100
,
0000
0000
0010
1000
0000
0000
0001
0000
0000
0100
0000
0000
0010
0000
0000
1000
,
0000
0000
1000
0100
0000
0000
1000
0000
0000
0001
0000
0000
0001
0000
0000
1000
,
0000
0000
0001
0100
0001
0000
0100
0000
0000
1000
0000
0000
0100
0000
0000
0010
,
0000
0000
0100
0001
0000
0000
0001
0000
0000
0010
0000
0000
1000
0000
0000
0010
,
0000
0000
0100
0010
0000
0000
0001
0000
0000
0010
0000
0000
1000
0000
0000
0010
,
0000
0000
0100
0010
0000
0000
0010
0000
0000
0001
0000
0000
0010
0000
0000
0100
,
0000
0100
0000
1000
0000
0000
0100
0000
0000
1000
0000
0000
0010
0000
0000
0001
,
0000
0000
0010
0100
0000
0000
0001
0000
0000
1000
0000
0000
0100
0000
0000
0010
,
0000
0000
0001
0010
0000
0000
0100
0000
0000
1000
0000
0000
0100
0000
0000
1000
,
0000
0000
0010
0100
0000
0000
0001
0000
0000
0001
0000
0000
1000
0000
0000
0001
,
0000
0100
0000
0010
0200
0000
0002
0000
0000
0000
0000
0000
0000
0000
0000
0000
,
0000
0000
0000
0303
0000
0000
0000
0000
;

//---------------dance-single - ----------------
#NOTES:
     dance-single:
     :
     Medium:
     5:
     0.306,0.321,0.055,0.148,0.199:
0001
1000
0100
1000
,
0100
1000
0010
0100
,
0010
1000
0001
0010
,
0001
0100
0010
1000
,
0001
0100
0001
0000
0100
0000
0010
0000
,
1000
0001
0100
0100
,
0001
1000
0010
0010
,
0100
0001
0010
0100
,
2000
0000
0000
3000
,
0200
0000
0000
0300
,
2000
0000
0000
3000
,
0020
0000
0000
0030
,
0200
0000
0000
0300
,
0002
0003
2000
3000
,
0002
0000
0000
0003
,
2000
0000
0000
0000
0000
0000
0000
3000
0002
0000
0000
0000
0000
0000
0000
0003
,
0200
0000
0000
0300
,
0020
0000
0000
0030
,
0200
0000
0000
0300
,
0002
0003
2000
3000
,
0200
0000
0000
0300
,
2000
3000
0002
0003
,
0200
0000
0000
0000
0000
0000
0000
0000
0000
0000
0000
0300
0010
0000
0100
0000
,
0001
0100
0001
0000
0000
0000
0000
0000
,
0001
1000
0100
0100
,
1000
0001
0100
0100
,
0001
1000
0100
0100
,
1000
0001
1000
1000
,
0001
1000
0010
0010
,
1000
0001
0010
0010
,
0001
1000
0010
0010
,
1000
0001
0010
0100
,
1000
0100
1000
0000
0100
0000
0010
0000
,
0001
0010
0001
0000
0010
0000
0100
0000
,
1000
0010
0100
0000
0010
0000
0100
0000
,
0001
0100
1000
0000
0100
0000
0010
0000
,
0100
0001
1000
0000
0100
0000
0010
0000
,
0001
0010
0100
0000
1000
0000
0010
0100
,
0001
1000
0010
0100
,
1001
0000
0000
0000
0000
0000
0001
0000
0000
0100
0000
0000
0001
0000
0000
0100
,
0000
0000
0001
0000
0000
0000
0100
0000
0000
0010
0000
0000
0100
0000
0000
0010
,
0000
0000
0100
0000
0000
0000
0010
0000
0000
1000
0000
0000
0010
0000
0000
1000
,
0000
0000
0010
0000
0000
0000
1000
0000
0000
0100
0000
0000
0010
0000
0000
0001
,
0000
0001
0000
0001
0000
0000
0001
0000
0000
0010
0000
0000
0100
0000
0000
1000
,
0000
0000
0100
0000
0000
0000
1000
0000
0000
0010
0000
0000
0100
0000
0000
0100
,
0000
0000
0010
0000
0000
0000
0100
0000
0000
0001
0000
0000
1000
0000
0000
0100
,
0000
0000
1000
0000
0000
0000
0100
0000
0000
1000
0000
0000
0010
0000
0000
0100
,
0000
0000
0001
0000
0000
0000
0100
0000
0000
0100
0000
0000
0100
0000
0000
0100
,
0000
0000
0010
0000
0000
0000
1000
0000
0000
1000
0000
0000
1000
0000
0000
1000
,
0000
0000
0001
0000
0000
0000
0010
0000
0000
0010
0000
0000
0010
0000
0000
0010
,
0000
0000
0100
0000
0000
0000
1000
0000
0000
0100
0000
0000
1000
0000
0000
0010
,
0000
0100
0000
0001
0000
0000
1000
0000
0000
1000
0000
0000
0001
0000
0000
0001
,
0000
0000
0100
0000
0000
0000
0001
0000
0000
0100
0000
0000
0010
0000
0000
0010
,
0000
0000
0100
0000
0000
0000
0010
0000
0000
1000
0000
0000
0001
0000
0000
0010
,
0000
0000
0100
0000
0000
0000
0100
0000
0000
0010
0000
0000
0001
0000
0000
0010
,
0000
0000
0001
0000
0000
0000
0100
0000
0000
0010
0000
0000
0100
0000
0000
0010
,
0000
0000
0110
0000
0000
0000
0010
0000
0000
1000
0000
0000
0001
0000
0000
1000
,
0000
0000
1001
0000
0000
0000
1000
0000
0000
0100
0000
0000
0010
0000
0000
0001
,
0000
0000
0011
0000
0000
0000
0001
0000
0000
0010
0000
0000
0100
0000
0000
1000
,
0000
0100
0000
0010
0000
0000
0100
0000
0000
0100
0000
0000
1000
0000
0000
0010
,
0000
0000
0110
0000
0000
0000
0010
0000
0000
0100
0000
0000
0001
0000
0000
1000
,
0000
0000
1001
0000
0000
0000
0001
0000
0000
0100
0000
0000
0010
0000
0100
0000
,
0100
0001
0010
0100
1000
0000
0000
0000
,
0000
1001
0000
0000
;

//---------------dance-single - ----------------
#NOTES:
     dance-single:
     :
     Easy:
     3:
     0.206,0.272,0.023,0.125,0.000:
0001
0000
0000
0000
,
1000
0000
0000
0000
,
0010
0000
0000
0000
,
0100
0000
0000
0000
,
0001
1000
0000
0000
,
1000
0100
0000
0000
,
1000
0010
0000
0000
,
0100
0001
0000
0000
,
0200
0000
0000
0300
,
0002
0000
0000
0003
,
2000
0000
0000
3000
,
0200
0000
0000
0300
,
0020
0000
0000
0030
,
0100
0000
1000
0000
,
0002
0000
0000
0003
,
0100
0000
0010
0000
,
2000
0000
0000
3000
,
0002
0000
0000
0003
,
2000
0000
0000
3000
,
0001
0000
1000
0000
,
0200
0000
0000
0300
,
0010
0000
0100
0000
,
2000
0000
0000
0002
,
0000
0003
0000
0000
,
3001
0000
0100
0000
,
0001
0000
1000
0000
,
0100
0000
1000
0000
,
0010
0000
0100
0001
,
1000
0000
0001
0000
,
1000
0000
0100
0000
,
1000
0000
0010
0000
,
0100
0000
0001
0000
,
1000
0001
0100
0100
,
0000
0001
1000
0010
,
0000
1000
0100
0010
,
0000
0010
0100
1000
,
0001
0001
1000
1000
,
0010
0010
0100
0100
,
0001
0100
0010
1000
,
0100
0100
0010
0001
,
0001
0010
0100
1000
,
1000
0100
0010
0001
,
0001
0010
0100
1001
,
1001
0001
0100
0010
,
0010
0100
0010
0100
,
0100
0010
1000
0001
,
0001
1000
0100
0020
,
0000
0130
1000
0010
,
0010
0100
0001
1000
,
1000
0001
0100
0010
,
0010
0100
0001
0010
,
0100
1000
0100
1000
,
1000
0100
1000
0010
,
0010
0100
0001
1000
,
0100
0020
0000
0000
,
0030
0100
1000
0010
,
0010
0100
0001
1000
,
1000
0100
1000
0010
,
0010
0100
0001
1000
,
0001
1000
0001
0000
0100
0000
0001
0000
,
0010
0001
0100
0010
,
1000
0010
0100
0001
,
2000
0200
0000
0000
,
3300
0011
0000
0000
;

//---------------dance-single - ----------------
#NOTES:
     dance-single:
     :
     Beginner:
     1:
     0.081,0.099,0.023,0.008,0.000: // measure 1
0001
0000
0000
0000
,  // measure 2
1000
0000
0000
0000
,  // measure 3
0001
0000
0000
0000
,  // measure 4
1000
0000
0000
0000
,  // measure 5
0100
0000
0000
0000
,  // measure 6
1000
0000
0000
0000
,  // measure 7
0001
0000
0000
0000
,  // measure 8
1000
0000
0000
0000
,  // measure 9
0010
0000
0000
0000
,  // measure 10
0100
0000
0000
0000
,  // measure 11
0001
0000
0000
0000
,  // measure 12
1000
0000
0000
0000
,  // measure 13
0001
0000
0000
0000
,  // measure 14
1000
0000
0100
0000
,  // measure 15
0010
0000
0000
0000
,  // measure 16
0100
0000
0000
0000
,  // measure 17
1000
0000
0000
0000
,  // measure 18
0001
0000
0000
0000
,  // measure 19
0100
0000
0000
0000
,  // measure 20
0001
0000
0001
0000
,  // measure 21
0001
0000
0000
0000
,  // measure 22
0001
0000
0010
0000
,  // measure 23
0100
0000
0000
0000
,  // measure 24
0000
0000
0000
0000
,  // measure 25
1000
0000
0000
0000
,  // measure 26
0001
0000
0000
0000
,  // measure 27
0100
0000
0000
0000
,  // measure 28
0001
0000
0000
0000
,  // measure 29
1000
0000
0000
0000
,  // measure 30
0100
0000
0000
0000
,  // measure 31
1000
0000
0000
0000
,  // measure 32
0010
0000
0000
0000
,  // measure 33
0110
0000
0000
0000
,  // measure 34
0100
0000
0000
0000
,  // measure 35
0001
0000
0000
0000
,  // measure 36
1000
0000
0000
0000
,  // measure 37
0100
0000
0000
0000
,  // measure 38
1000
0000
0000
0000
,  // measure 39
0001
0000
0000
0000
,  // measure 40
1001
0000
0000
0001
0000
0000
0000
0000
,  // measure 41
0000
0000
0000
1000
0000
0000
0000
0000
,  // measure 42
0000
0000
0000
0001
0000
0000
0000
0000
,  // measure 43
0000
0000
0000
1000
0000
0000
0000
0000
,  // measure 44
0000
0000
0000
0100
0000
0000
0000
0000
,  // measure 45
0000
0000
0000
0100
0000
0000
0000
0000
,  // measure 46
0000
0000
0000
0100
0000
0000
0000
0000
,  // measure 47
0000
0000
0000
0010
0000
0000
0000
0000
,  // measure 48
0000
0000
0000
0001
0000
0000
0000
0000
,  // measure 49
0000
0000
0000
1000
0000
0000
0000
0000
,  // measure 50
0000
0000
0000
0010
0000
0000
0000
0000
,  // measure 51
0000
0000
0000
1000
0000
0000
0000
0000
,  // measure 52
0000
0000
0000
0100
0000
0000
0000
0000
,  // measure 53
0000
0000
0000
1000
0000
0000
0000
0000
,  // measure 54
0000
0000
0000
0001
0000
0000
0000
0000
,  // measure 55
0000
0000
0000
0100
0000
0000
0000
0000
,  // measure 56
0000
0010
0000
0000
,  // measure 57
0000
0100
0000
0000
,  // measure 58
0000
0001
0000
0000
,  // measure 59
0000
1000
0000
0001
,  // measure 60
0000
0100
0000
0000
,  // measure 61
0000
0001
0000
1000
,  // measure 62
0000
0100
0000
0000
,  // measure 63
0020
0000
0030
0000
,  // measure 64
0000
1001
0000
0000
;
