#TITLE:SINister Evolution;
#SUBTITLE:;
#ARTIST:TAK;
#TITLETRANSLIT:;
#SUBTITLETRANSLIT:;
#ARTISTTRANSLIT:;
#CREDIT:;
#BANNER:SINister Evolution.png;
#BACKGROUND:SINister Evolution-background.png;
#JACKET:SINister Evolution-jacket.png;
#LYRICSPATH:;
#CDTITLE:;
#MUSIC:SINister Evolution.mp3;
#OFFSET:-0.119;
#SAMPLESTART:12.960;
#SAMPLELENGTH:12.000;
#SELECTABLE:YES;
#BPMS:0.000=149.000,28.000=37.245,29.000=74.500,45.000=149.000,73.000=74.550,76.000=149.000,98.000=74.550,99.000=149.000,129.000=74.550,133.000=37.275,137.000=74.500,145.000=149.000,173.000=74.500,177.000=37.275,178.000=74.550,179.000=149.000,181.000=74.500,182.000=149.000,204.000=74.500,205.000=149.000,235.000=74.550,239.000=149.100;
#STOPS:;
#BGCHANGES:;

//---------------dance-single - ----------------
#NOTES:
     dance-single:
     :
     Hard:
     9:
     0.573,0.636,0.243,0.350,0.468:
0000
0000
0000
0000
,
0000
0000
0000
0000
,
0000
0000
0000
0000
,
0000
0000
0000
0000
,
0001
0000
1000
0001
0000
0000
0100
0000
0000
0001
0000
0000
0010
0000
0000
0000
,
0100
0000
0010
0001
0000
0000
0100
0000
0000
0010
0000
0000
1000
0000
0000
0000
,
0002
0000
0203
0000
1300
0000
0100
0000
0020
0000
1030
0020
0100
0000
0130
0000
,
0010
1100
0021
0000
0130
0000
0100
0010
,
0011
0000
0000
0000
0201
0000
0310
1000
1100
0000
0000
0000
1000
0000
0001
0000
,
0011
0000
0000
0000
2001
0000
3100
0010
0100
0000
0000
0000
0010
0000
1000
0000
,
0011
0000
0000
0000
0000
0000
0000
0000
0000
0000
0000
0000
0210
0000
0000
0000
0000
0000
1300
0000
0000
0010
0000
0000
0100
0000
0000
0000
0000
0000
0001
0000
0000
0000
0000
0000
1000
0000
0100
0000
1000
0000
0010
0000
0100
0000
0001
0000
,
0010
0000
0100
0000
1000
0000
0001
0000
0100
0000
0001
0000
0010
0000
0000
0000
0000
0000
0000
0000
0000
0100
0000
0000
1000
0000
0000
0000
0000
0000
0010
0000
0000
0000
0000
0000
0100
0000
0000
0000
0000
0000
0000
0000
0000
0001
0000
0000
,
0010
0000
0100
0000
1000
0000
0000
0001
0100
0000
0010
0000
1000
0000
0000
1000
,
0010
0000
0100
0000
0010
0000
0000
0100
0001
0000
1000
0000
0100
0000
0000
1000
,
0100
0000
0010
0000
0001
0000
0000
0001
0100
0000
0000
0010
1000
0000
0000
1000
,
0001
0000
1000
0000
0010
0000
0000
1000
0000
0000
0010
0000
0000
1000
0000
0000
,
0010
0000
0000
0100
0000
0000
0001
0000
0000
0010
0000
0000
0100
0000
0000
1000
,
0000
0001
0100
0010
1000
0100
0010
0001
,
0010
0000
0100
0000
2000
0000
0000
0000
0020
0000
0000
0030
3200
0000
0000
0000
,
0320
0000
0000
0000
0000
0000
0000
0000
0130
0000
1000
0100
1000
0000
0010
0000
,
0100
0000
0010
1000
0010
0000
1000
0000
0001
0000
0000
1000
0001
0100
0010
0100
,
0020
0230
0302
0023
0230
0000
0000
0000
1300
0000
0100
0000
0001
0000
0100
0000
,
0010
0001
0100
1000
2200
0000
3300
0000
,
1000
0100
0010
1000
0001
1000
0001
0100
0001
0000
0100
0000
0010
0000
0010
0000
,
0100
0000
0001
0000
1000
0000
1000
0000
0200
0000
0000
0000
0310
0000
0000
0001
,
0000
0000
0100
0000
0010
0000
0000
1000
0000
0000
0001
0000
0010
0000
0000
0100
,
0000
0000
0000
1000
0000
0000
1010
0000
0000
0000
0101
0000
0000
0000
1001
0000
0000
0000
2200
0000
0000
0000
0000
0000
,
0000
0000
0000
0000
3300
0000
0000
0000
0000
0000
0000
0000
0100
0000
0000
0000
0000
0000
1000
0000
0000
0000
0000
0000
0010
0000
0000
0100
0000
0000
0001
0000
0000
0000
0000
0000
1000
0000
0000
0000
0000
0000
0010
0000
0000
0000
0000
0000
,
0100
0000
0000
0001
0000
0000
0100
0000
0000
0000
0000
0000
0001
0000
0000
0000
0000
0000
0000
0000
0000
0000
0000
0000
1000
0000
0000
0100
0000
0000
1000
0000
0000
0010
0000
0000
1000
0000
0000
0000
0010
0000
0000
0000
1000
0000
0000
0000
,
0002
0000
1003
0100
0010
0100
1000
0010
,
0100
0000
0001
0000
0010
0100
0010
0000
0001
0000
0100
0000
0010
1000
0010
0000
,
0100
0000
0000
0000
0010
1000
0010
0000
0100
0000
0001
0000
0010
0100
0010
0000
,
0100
0000
0001
0100
1000
0010
0001
0100
,
1000
0010
1001
0000
0001
0000
0100
0000
,
0001
0000
1000
0000
0100
0010
0100
1000
0010
0000
0000
0100
0000
0010
0100
0001
,
1000
0000
0000
0000
0000
0000
0000
0000
1000
0000
0100
0000
1000
0000
0100
0000
0010
0000
0000
0100
0000
0000
0010
0000
0001
0000
1000
0000
0001
0000
0100
0010
,
1000
0000
0000
0001
0100
0000
0000
0000
0010
0000
0000
0000
0000
0000
1000
0000
0010
0000
0000
0000
0100
0000
0000
0000
0101
0000
0000
0000
0000
0000
0001
0000
,
0010
0000
0100
0000
1100
0000
0000
1000
0010
0000
0100
0000
0101
0000
0000
0001
,
0010
0000
0100
0000
0110
0000
0000
0100
0010
0000
0001
0000
1001
0000
0000
0001
,
0100
0000
0010
0000
1010
0000
0000
1000
0100
0000
1000
0000
1001
0000
0010
0000
,
1001
0000
0000
0000
0002
0000
0000
1000
0103
0000
0010
0000
0002
0000
0000
0013
,
0100
0000
1000
0000
0020
0000
0000
0100
0031
0000
0010
0000
0200
0000
0000
1000
,
0310
0000
0001
0000
1000
0001
1000
0001
1000
0001
1000
0001
1000
0001
1000
0001
,
1000
0001
1000
0001
0020
0000
0000
0000
0000
0000
0000
0000
0000
0000
0030
0000
,
0000
1200
0320
0002
,
0033
0000
0000
0000
2002
0000
0000
3003
2002
0000
0000
0000
0000
0000
3003
0000
,
1000
0000
1000
0100
0010
0000
0001
0000
1000
0000
1000
0010
0100
0000
0001
0000
,
0010
0000
0000
0100
0010
0001
1000
0010
0200
0302
0203
2300
3200
0000
0000
0000
,
0310
1000
0010
0100
0001
0010
0100
1000
,
0022
0000
0000
0000
0033
0000
0000
0000
1000
0001
0010
0100
0010
0001
0100
0010
,
1000
0001
0100
0001
0010
0100
0010
0001
,
1000
0000
0000
0000
0000
0000
0000
0000
0001
0000
0000
0000
0000
0000
0000
0000
1000
0000
0000
0000
0000
0000
0000
0000
0000
0000
0000
0002
0000
0000
0000
0000
0000
0003
0000
0000
1000
0000
0000
0000
0000
0000
0000
0000
0000
0000
0000
0000
0001
0000
0000
0000
0000
0000
0000
0000
0000
0000
0000
0000
0000
0000
0000
0000
0000
0000
0000
0000
0000
0000
0000
0000
0000
0000
0000
0000
0000
0000
0000
0000
0000
0000
0000
0000
0001
0000
0000
0000
0000
0000
0000
0000
0000
0000
0000
0000
0000
0000
0000
0000
0000
0000
0000
0000
0000
0000
0000
0000
0000
0000
0000
0000
0000
0000
0000
0000
0000
0000
0000
0000
1000
0000
0000
0000
0000
0000
0000
0000
0000
0000
0000
0000
0000
0000
0000
0000
0000
0000
0000
0000
0000
0000
0000
0000
0010
0000
0000
0000
0000
0000
0000
0000
0000
0000
0000
0000
0000
0000
0000
0000
0000
0000
0000
0000
0000
0000
0000
0000
0000
0000
0000
0000
0000
0000
0000
0000
0000
0000
0000
0000
0001
0000
0000
0000
0000
0000
0000
0000
0000
0000
0000
0000
,
0000
0000
0000
0000
0000
0000
0010
0000
0000
0000
0000
0000
0100
0000
0000
0000
0000
0000
0000
0000
0000
0010
0000
0000
0000
0000
0000
0000
0000
0000
1000
0000
0000
0000
0000
0000
0011
0000
0000
0000
0000
0000
0000
0000
1010
0000
0000
0000
,
0000
0000
0101
0000
0000
0000
0022
0000
0000
0000
0000
0000
0000
0000
0033
0000
0000
0000
1000
0000
0000
0001
0000
0000
,
0100
0010
1000
0000
0010
0000
0100
0000
0010
0100
1000
0000
0010
0000
0000
0000
,
0100
0000
0000
0010
0000
0000
1000
0000
0000
0010
0000
0000
1000
0000
0000
0000
0100
0000
0000
0000
0010
0000
0000
0000
0200
0000
0000
0000
0000
0000
0000
0000
0000
0000
0000
0000
0310
0000
0000
0000
0000
0000
0100
0000
0000
0000
0000
0000
,
1000
0000
0001
0000
0010
0000
0100
0000
1000
0000
0001
0000
0010
0100
1000
0001
,
1000
0000
0001
1000
0010
0100
0001
0000
0100
0000
0000
0000
0010
1000
0100
0010
,
0001
0000
0001
0010
0001
1000
0001
0100
0001
0000
0000
0000
1000
0000
0010
0000
,
0001
0100
1000
0010
0001
0100
1001
0000
;

//---------------dance-single - ----------------
#NOTES:
     dance-single:
     :
     Medium:
     6:
     0.404,0.477,0.167,0.441,0.095:
0000
0000
0000
0000
,
0000
0000
0000
0000
,
0000
0000
0000
0000
,
0000
0000
0000
0000
,
0002
0000
0000
0003
,
2000
0000
0000
3000
,
0020
0230
0320
2030
,
3020
0001
0230
0000
0010
0000
0001
0000
,
0320
2030
0100
3020
,
0100
2030
0001
0100
,
0010
0000
3020
0000
0100
0000
0230
0301
,
0200
0310
2002
0000
0000
0000
0000
0000
,
3003
0202
0000
0000
,
0303
2020
0000
0000
,
3030
1010
0101
2002
,
3003
0000
0000
0000
0001
0000
0000
1000
0000
0000
0010
0000
0000
0100
0000
0000
,
0010
0000
0000
1000
0000
0000
0001
0000
0000
0010
0000
0000
0100
0000
0000
0010
,
0000
0001
1000
0001
0100
0001
0100
0010
,
1000
0100
0020
0000
0100
0000
0032
0000
,
0203
0000
0000
0000
0310
0100
0010
0000
,
0100
0010
1000
0000
0001
0000
1000
0001
,
0200
0001
0302
0000
0013
0100
1000
0000
,
0100
1000
0010
0000
0200
0000
0310
0000
,
0100
0100
0010
0100
0100
0000
0001
0000
,
1000
0100
0010
0000
0200
0000
1300
0000
,
0010
0100
0001
1000
,
0100
0000
0000
1000
0000
0100
0000
0010
0000
0022
0000
0000
,
0000
0033
0001
0010
0010
0000
0001
0100
,
0100
0000
0010
0000
0100
0010
0100
0100
,
0100
0010
1000
0010
,
0100
0000
0001
0100
0010
0000
0100
0010
,
1000
0000
0001
0010
1000
0000
1000
0010
,
0001
0000
0001
0100
0010
1000
0100
0010
,
0001
1000
1001
0000
0000
0000
0000
0000
,
0000
0000
0000
0000
0001
0100
0001
0100
0010
0000
0000
0100
0000
0010
1000
0010
,
2000
0000
0000
0000
3100
0010
0001
0010
0001
0000
0010
0000
0100
0000
1000
0010
,
0100
0001
1000
0100
0010
0001
0020
0000
,
0031
0000
0001
0100
0010
1000
0020
0000
,
0130
0000
0010
1000
0010
0100
0002
0000
,
1003
0000
0100
0010
0001
0010
0200
0000
,
0310
0000
0000
0000
0001
0000
0000
0100
0000
0000
0010
0000
0000
1000
0000
0000
,
0010
0000
0000
0100
0000
0000
0010
0000
0000
1000
0000
0000
0001
0000
0000
0010
,
0000
0100
0010
0001
0100
1000
0100
0010
,
1000
0000
0000
0001
0000
0000
0020
0000
0000
0000
0000
0000
0000
0000
0000
0000
0000
0000
0000
0000
0030
0000
0000
0000
,
0000
0000
0000
0000
2002
0000
0000
3003
0220
0000
0000
0330
2002
0000
0000
0000
,
0000
0000
0000
3003
0000
0000
0000
0000
0000
0000
0000
0000
0220
0000
0000
0000
0000
0000
0000
0000
0330
0000
0000
0000
2002
0000
0000
0000
0000
0000
0000
0000
0000
0000
0000
0000
0000
0000
0000
0000
0000
0000
3003
0000
0000
0000
0000
0000
,
0001
0100
0100
0001
0100
0100
0010
1000
,
0020
0000
0000
0000
0000
0000
0130
0000
0000
0001
0000
0000
1000
0000
0000
1000
0000
0000
2002
0000
0000
0000
3003
0000
,
0001
0100
0010
1000
0100
0010
1000
0010
,
0200
0000
0320
0000
0031
0100
0010
0000
,
0100
0010
1000
0000
0001
0010
0100
0000
,
2002
0000
0000
3003
0001
0000
0000
0100
0000
0000
0010
0000
1000
0000
0000
0010
,
0000
0000
0000
0000
0000
0000
0100
0000
0000
0000
0000
0000
0010
0000
0000
0000
0000
0000
0000
0000
0000
1000
0000
0000
0000
0000
0000
0000
0000
0000
0001
0000
0000
0000
0000
0000
0011
0000
0000
0000
0000
0000
0000
0000
1100
0000
0000
0000
,
0000
0000
0101
0000
0000
0000
2002
0000
0000
0000
0000
0000
3003
0000
0000
0000
0000
0000
0001
0000
0000
0100
0000
0000
,
0010
1000
0010
0100
0010
1000
0002
0000
,
1003
0100
0010
0010
0010
0000
0100
1000
,
0010
0000
0100
0010
1000
0000
0001
0010
,
0100
1000
0100
0010
0001
0000
0001
0010
,
0100
1000
0100
0010
0001
0000
1000
0001
,
0100
1000
0100
0010
1010
0101
1001
0000
;

//---------------dance-single - ----------------
#NOTES:
     dance-single:
     :
     Easy:
     4:
     0.301,0.341,0.145,0.495,0.000:
0000
0000
0000
0000
,
0000
0000
0000
0000
,
0000
0000
0000
0000
,
0000
0000
0000
0000
,
0002
0000
0000
0003
,
2000
0000
0000
3000
,
0020
0000
0000
0030
,
0100
1001
0102
0000
0000
0000
0203
0000
,
0010
0320
1000
2030
,
0100
3200
0010
0320
,
0001
0000
0032
0000
1000
0000
1003
0100
,
0010
0001
2200
0000
0000
0000
0000
0000
,
3300
0202
0000
0000
,
0303
0220
0000
0000
,
0330
1001
0110
0202
,
0303
0102
0100
0100
,
0103
2100
0100
0100
,
3100
1000
0100
0010
,
0001
0000
2002
0000
0000
3003
0120
0000
,
0230
0000
0301
0100
,
0010
1000
0010
0100
,
0002
0003
1000
1000
,
0001
0001
1000
0100
,
0020
0000
0130
0010
,
0001
0100
0020
0230
,
0000
0302
0000
2003
,
0000
3100
0010
0022
,
0033
0001
0100
0001
,
1000
0100
1000
0020
,
0030
0100
0001
1000
,
0010
0100
0001
0010
,
0100
0010
0001
1000
,
0010
0000
0100
0001
0100
0010
1000
0100
,
0010
0001
1001
0000
0000
0000
0000
0000
,
0000
0000
0001
0100
0020
0000
0130
0001
,
2000
0000
3001
0100
0001
1000
0100
0010
,
0100
1000
0200
0000
0000
0000
2300
0000
,
0000
3020
0000
0230
,
0000
0302
0000
2003
,
0000
3200
0000
0320
,
0000
0230
0000
2300
,
0000
3020
0000
0032
,
0000
0023
0000
0230
,
0000
0000
0302
0000
0000
0000
0000
0003
,
0000
1002
0203
0320
,
0000
2030
3200
0000
,
0310
0100
0010
0001
,
2000
0000
0001
0000
3001
0100
0002
0000
,
0103
0001
1000
0100
,
0010
0000
0100
0000
1000
0100
1000
0100
,
0010
0001
0100
0010
,
2000
3001
0100
0001
,
1000
0100
1000
1010
,
0101
2002
3003
0001
,
0100
0100
0010
1000
,
0010
0000
0100
0010
2000
0000
3001
0000
,
0010
0100
0010
0002
,
0013
0002
0103
0002
,
0103
0000
0200
0000
0310
0000
0100
0010
,
1000
0100
0010
0001
0010
0100
1100
0000
;

//---------------dance-single - ----------------
#NOTES:
     dance-single:
     :
     Beginner:
     2:
     0.123,0.159,0.061,0.000,0.000: // measure 1
0000
0000
0000
0000
,  // measure 2
0000
0000
0000
0000
,  // measure 3
0000
0000
0000
0000
,  // measure 4
0000
0000
0000
0000
,  // measure 5
0001
0000
0000
0000
,  // measure 6
0001
0000
0000
0000
,  // measure 7
1001
0000
1000
0000
,  // measure 8
0010
0100
0010
0000
0000
0000
0000
0000
,  // measure 9
1000
0001
0000
0100
,  // measure 10
0000
0010
0000
0000
,  // measure 11
0000
1000
0000
0100
,  // measure 12
0010
0001
0000
0000
,  // measure 13
0000
1000
0000
0000
,  // measure 14
0000
0001
0000
0000
,  // measure 15
0000
0100
0100
0100
,  // measure 16
0000
0110
0000
0000
,  // measure 17
0000
1001
0000
0000
,  // measure 18
0000
0110
0000
0000
,  // measure 19
0000
1001
0001
1000
,  // measure 20
0010
0000
0100
0000
,  // measure 21
0100
0000
0010
0000
,  // measure 22
0100
0000
0010
0000
,  // measure 23
0000
0000
0100
0000
,  // measure 24
0001
0001
1000
0000
,  // measure 25
0001
0000
0100
0010
,  // measure 26
0000
0100
0000
0001
,  // measure 27
0000
1000
1000
1000
,  // measure 28
0000
0001
0000
0000
,  // measure 29
0000
1000
0000
0010
,  // measure 30
0000
0100
0000
0000
,  // measure 31
0000
0001
0000
0100
,  // measure 32
0000
0010
0000
1000
,  // measure 33
0000
0100
0000
0000
,  // measure 34
0000
1001
0000
0000
,  // measure 35
0000
0010
0000
0100
,  // measure 36
0000
0001
0000
1000
,  // measure 37
0000
0001
0000
0100
,  // measure 38
0000
0001
0000
1000
,  // measure 39
0000
0100
0000
0010
,  // measure 40
0000
0100
0000
1000
,  // measure 41
0000
0010
0000
0100
,  // measure 42
0000
0001
0000
1000
,  // measure 43
0000
0010
0000
0100
,  // measure 44
0000
0001
0000
0000
,  // measure 45
0000
1000
0001
0100
,  // measure 46
0000
0010
1001
0000
,  // measure 47
0001
0000
1000
0000
,  // measure 48
0010
0000
0100
0000
,  // measure 49
0001
0000
0100
0000
,  // measure 50
0010
0000
1000
1000
,  // measure 51
1000
0000
0010
0000
,  // measure 52
0000
0100
0000
0010
,  // measure 53
0000
1000
0000
0100
,  // measure 54
0100
1000
0000
0010
,  // measure 55
0000
0100
0000
0001
,  // measure 56
0000
0000
0000
1000
,  // measure 57
0000
0100
0000
1000
,  // measure 58
0000
0001
0000
0100
,  // measure 59
0000
0010
0000
0000
,  // measure 60
0000
0000
0000
1001
;
