#TITLE:差無来!!;
#SUBTITLE:;
#ARTIST:Des-ROW · 組;
#TITLETRANSLIT:SAMURAI!!;
#SUBTITLETRANSLIT:;
#ARTISTTRANSLIT:Des-ROW UNITED;
#CREDIT:;
#BANNER:SAMURAI!!.png;
#BACKGROUND:SAMURAI!!-background.png;
#JACKET:SAMURAI!!-jacket.png;
#LYRICSPATH:;
#CDTITLE:;
#MUSIC:SAMURAI!!.mp3;
#OFFSET:-0.514;
#SAMPLESTART:23.340;
#SAMPLELENGTH:12.000;
#SELECTABLE:YES;
#BPMS:0.000=168.000,128.000=87.000,160.000=174.001,210.000=210.001;
#STOPS:;
#BGCHANGES:;

//---------------dance-single - ----------------
#NOTES:
     dance-single:
     :
     Hard:
     9:
     0.667,0.806,0.499,0.037,0.245: // measure 1
0000
0000
0000
0000
,  // measure 2
0000
0000
0000
0000
,  // measure 3
0000
0000
0000
0000
,  // measure 4
0000
0000
0000
0000
,  // measure 5
0000
0000
0000
0000
,  // measure 6
0000
0000
1000
0000
0100
0010
0000
0100
,  // measure 7
0010
0001
0100
0000
0010
1000
0000
0001
,  // measure 8
0000
1001
0001
0000
0100
0010
0000
0100
,  // measure 9
0001
0010
1000
0000
1000
0010
0000
0001
,  // measure 10
0010
0000
0001
0000
0000
0000
0011
0000
0000
1100
0000
0000
1010
0000
0000
0101
,  // measure 11
0000
0000
0011
0000
0000
1100
0000
0000
1010
0000
0000
0101
0000
0000
1010
0000
,  // measure 12
0000
1100
0000
0000
0110
0000
0000
0011
0000
0000
0101
0000
0000
0000
0010
0000
,  // measure 13
1000
0000
0010
0100
0000
0010
1000
0100
,  // measure 14
0001
0000
0100
0010
0000
0001
0000
0000
,  // measure 15
0102
0100
0100
0103
,  // measure 16
2100
0000
0100
0100
0000
0200
3300
0000
,  // measure 17
1001
0000
0000
0010
0100
0000
0001
0000
1001
0000
0000
0100
0010
0000
0001
0000
,  // measure 18
1001
0000
0000
0010
0100
0000
0001
0000
1001
0000
0000
0000
0101
0000
0000
0000
,  // measure 19
0011
0000
0000
0100
1000
0000
0010
0000
0101
0000
0000
0001
0100
0000
0010
0000
,  // measure 20
1010
0000
0000
1000
0100
0000
0010
0000
0011
0000
0000
0000
1010
0000
0000
0000
,  // measure 21
0110
0000
0000
0100
0001
0000
0010
0000
0110
0000
0000
0100
1000
0000
0010
0000
,  // measure 22
0110
0000
0000
0100
0001
0000
0010
0000
0110
0000
0000
0000
1001
0000
0000
0000
,  // measure 23
0101
0000
0000
0010
1000
0000
0100
0000
0001
0000
0000
0001
0100
0000
0010
0000
,  // measure 24
0001
0000
0000
0010
0000
0000
0100
0000
1001
0000
0000
0000
0000
0000
0000
0000
,  // measure 25
0001
0010
1000
0010
0001
0010
1000
0010
,  // measure 26
0001
0100
1000
0100
0110
0110
0110
0000
,  // measure 27
0100
1000
0100
0001
0010
1000
0010
0001
,  // measure 28
0010
0100
0010
0001
0011
0011
0011
0000
,  // measure 29
0001
0100
1000
0100
0010
1000
0001
0010
,  // measure 30
0100
0010
0001
0100
0110
0110
0110
0000
,  // measure 31
0001
0100
0010
1000
0010
0100
0001
0010
,  // measure 32
0100
1000
0100
1000
1100
0011
0110
1000
,  // measure 33
0011
0000
0000
0010
0000
0000
0100
0000
0010
0000
0000
0000
0001
0000
0000
0000
,  // measure 34
0100
0010
0100
0001
,  // measure 35
1000
0000
0000
0100
0000
0000
1000
0000
0010
0000
0000
0000
0100
0000
0000
0000
,  // measure 36
0001
0000
0010
0000
,  // measure 37
0100
0000
0000
0010
0000
0000
0001
0000
1000
0000
0010
0000
1000
0000
0100
0000
,  // measure 38
1000
0100
0010
0001
,  // measure 39
0010
0000
0000
0100
0100
0000
0010
0000
,  // measure 40
0001
0010
0100
0010
0001
0100
1000
0100
0010
0100
0001
0100
1000
0010
0100
0010
,  // measure 41
1000
0000
0001
0100
0001
0000
0100
0000
0010
1000
0010
0000
0100
0000
0001
0100
,  // measure 42
0001
0000
0100
0000
0010
1000
0010
0000
1001
0000
1001
0000
1001
0000
0000
0000
,  // measure 43
0001
0000
1000
0010
1000
0000
0010
0000
0100
0001
0100
0000
0010
0000
1000
0010
,  // measure 44
1000
0000
0010
0000
0100
0001
0100
0000
0001
0000
0010
0000
0001
0000
0010
0000
,  // measure 45
0100
0010
0001
1000
0100
0010
0100
1000
,  // measure 46
0100
0010
0001
1000
0010
1000
0000
1000
,  // measure 47
0010
0100
0010
1000
0010
0000
0000
0100
,  // measure 48
0001
0010
0100
0010
1000
0000
0000
0000
,  // measure 49
0100
0010
0001
0010
0100
0010
0100
0010
,  // measure 50
0001
0010
0001
1000
0010
0100
0000
0000
,  // measure 51
0010
0100
0001
0010
0001
0010
0100
1000
,  // measure 52
0100
0001
0100
0010
0001
0100
1000
0100
,  // measure 53
1001
0000
0000
0000
,  // measure 54
0001
0010
1000
0010
0001
0010
0100
1000
,  // measure 55
0001
0100
1000
0100
0010
1001
0000
0000
,  // measure 56
0001
0010
0001
0100
0010
0100
0001
1000
,  // measure 57
0010
1000
0001
1000
0100
1100
0000
0000
,  // measure 58
0001
1000
0001
0010
0100
1000
0001
1000
,  // measure 59
0010
1000
0001
0010
0100
0110
0000
0000
,  // measure 60
0010
0001
0100
1000
0100
0010
1000
0100
,  // measure 61
0010
0001
0010
0100
0010
1001
0000
0000
,  // measure 62
1000
0010
1000
0001
0010
0100
0001
1000
,  // measure 63
0001
0100
1000
0100
0001
0010
0001
1000
,  // measure 64
0100
0010
0001
0100
0001
1000
0001
1000
,  // measure 65
0010
0100
0010
1000
0100
0000
0000
0000
,  // measure 66
0100
1000
0010
0001
0010
0100
0001
1000
,  // measure 67
0100
0010
0100
1000
0010
0100
0001
1000
,  // measure 68
0001
1000
0001
1000
0001
1000
0001
1000
0001
1000
0001
1000
0001
1000
0001
1000
,  // measure 69
0001
1000
0001
1000
0001
1000
0001
1000
0001
1000
0001
1000
0001
1000
0001
1000
,  // measure 70
0020
0000
0000
0030
;

//---------------dance-single - ----------------
#NOTES:
     dance-single:
     :
     Medium:
     7:
     0.443,0.581,0.250,0.009,0.000: // measure 1
0000
0000
0000
0000
,  // measure 2
0000
0000
0000
0000
,  // measure 3
0000
0000
0000
0000
,  // measure 4
0000
0000
0000
0000
,  // measure 5
0000
0000
0000
0000
,  // measure 6
0000
0000
0010
0000
0100
0010
0000
1000
,  // measure 7
0010
0000
0100
0000
0001
0010
0000
0100
,  // measure 8
0000
1001
0001
0000
1000
0100
0000
1000
,  // measure 9
0010
0100
0010
0000
0100
0001
0000
0010
,  // measure 10
1000
0100
0000
1000
0000
0000
0000
0000
,  // measure 11
0000
0000
0000
0000
,  // measure 12
0000
0000
0000
0000
,  // measure 13
0001
0000
0100
0010
0000
0100
0010
1000
,  // measure 14
0010
0000
0100
0001
0000
0010
0000
0000
,  // measure 15
1001
0000
0000
0000
,  // measure 16
0000
0000
0000
0000
,  // measure 17
0001
0000
0100
0010
1000
0000
0010
0100
,  // measure 18
0001
0000
1000
0100
0110
0000
1001
0000
,  // measure 19
0010
0000
0100
0010
1000
0000
0010
0100
,  // measure 20
0001
0001
1000
1000
,  // measure 21
0001
0000
1000
0010
0100
0000
0010
0100
,  // measure 22
0001
0000
1000
0100
0110
0000
0011
0000
,  // measure 23
1100
0000
0100
0010
0001
0000
0010
0001
,  // measure 24
1000
0000
0101
0000
,  // measure 25
0001
1000
0100
0001
,  // measure 26
0100
0000
0010
0000
0001
0100
1000
0000
,  // measure 27
0100
0010
0001
0010
,  // measure 28
1000
0000
0100
0000
0010
0001
1000
0000
,  // measure 29
0001
0100
0001
0000
0100
0010
0100
0000
,  // measure 30
0010
1000
0010
0100
0010
1000
0001
0000
,  // measure 31
1000
0100
1000
0000
0100
0010
0100
0000
,  // measure 32
0010
0001
0010
0100
0010
0001
1000
0010
,  // measure 33
1000
0000
0100
1000
,  // measure 34
0010
1000
0001
1000
,  // measure 35
0100
0000
0000
1000
1000
0000
0001
0000
,  // measure 36
0100
0000
0001
0000
,  // measure 37
1000
0000
0001
0000
0100
0001
0010
0100
,  // measure 38
1000
0100
1000
0010
,  // measure 39
0100
0000
0000
0001
1000
0000
0100
0000
,  // measure 40
1000
1000
0001
0001
0010
0010
0100
0100
,  // measure 41
1000
0100
0010
0001
1000
0100
0010
0001
,  // measure 42
1000
0100
0010
0001
0010
0100
1000
0000
,  // measure 43
0010
0100
0001
1000
0010
0100
0001
1000
,  // measure 44
0010
0100
0001
1000
0010
0100
0001
1000
,  // measure 45
0010
0000
1010
0000
0100
0010
1000
0000
,  // measure 46
0001
0000
0011
0000
0010
0100
1000
0000
,  // measure 47
0100
0000
0010
0001
0010
0000
0000
0000
,  // measure 48
0001
0000
0100
0010
0100
0000
0000
0000
,  // measure 49
0010
0000
1000
0000
0100
1000
0010
0000
,  // measure 50
0100
0000
0010
0000
0001
0010
1000
0000
,  // measure 51
0100
0000
0001
0000
0100
0010
0001
0000
,  // measure 52
1000
0100
1000
0001
0100
0001
1000
0010
,  // measure 53
1000
0000
0000
0000
,  // measure 54
0001
1000
0100
1000
,  // measure 55
0010
0000
0100
0000
0010
1001
0000
0000
,  // measure 56
0001
0001
1000
1000
,  // measure 57
0010
0000
0100
0000
0010
1001
0000
0000
,  // measure 58
0001
0100
0010
0000
0100
0010
1000
0000
,  // measure 59
0100
0010
0001
0010
0100
1000
0000
0000
,  // measure 60
0100
1000
0010
0000
0100
0001
0010
0000
,  // measure 61
0100
0010
0001
1000
0010
0100
0000
0000
,  // measure 62
0101
0101
1100
1100
,  // measure 63
0011
0011
1010
1010
,  // measure 64
0101
0101
1010
1010
,  // measure 65
0101
1100
1001
0000
,  // measure 66
0001
0010
0100
0010
,  // measure 67
0001
1000
0010
0100
,  // measure 68
0001
1000
0001
1000
0001
1000
0001
1000
,  // measure 69
0001
1000
0001
1000
0001
1000
0001
1000
,  // measure 70
0020
0000
0000
0030
;

//---------------dance-single - ----------------
#NOTES:
     dance-single:
     :
     Easy:
     4:
     0.329,0.419,0.139,0.065,0.000: // measure 1
0000
0000
0000
0000
,  // measure 2
0000
0000
0000
0000
,  // measure 3
0000
0000
0000
0000
,  // measure 4
0000
0000
0000
0000
,  // measure 5
0000
0000
0000
0000
,  // measure 6
0000
0001
1000
0100
,  // measure 7
1000
0001
0100
0001
,  // measure 8
0000
0001
1000
0100
,  // measure 9
1000
0010
0100
0001
,  // measure 10
1000
0000
0000
0100
0000
0000
0000
0010
,  // measure 11
0000
0000
0001
0000
,  // measure 12
0000
1000
0000
0000
0000
0010
0000
0000
,  // measure 13
0100
0000
0000
0010
0000
0000
1000
0000
,  // measure 14
0001
0000
1000
0001
0000
0100
0000
0000
,  // measure 15
0220
0000
0000
0000
,  // measure 16
0000
0000
0000
0000
0000
0330
0000
0000
,  // measure 17
0100
0010
0100
0010
,  // measure 18
0100
0010
1001
1001
,  // measure 19
1000
0100
1000
0100
,  // measure 20
1100
0000
0011
0000
,  // measure 21
0001
0100
0001
0100
,  // measure 22
0001
0100
0101
1010
,  // measure 23
1000
0010
1000
0010
,  // measure 24
0100
0001
0010
0000
,  // measure 25
0100
0001
0100
1000
,  // measure 26
0010
0001
0110
1001
,  // measure 27
1000
0100
1000
0001
,  // measure 28
0100
0001
0011
1100
,  // measure 29
0100
0100
1000
1000
,  // measure 30
0010
0100
0001
1001
,  // measure 31
1000
0100
1000
0010
,  // measure 32
0100
0001
0010
0100
,  // measure 33
2000
0000
3001
0001
,  // measure 34
0100
0001
0010
0100
,  // measure 35
0010
0000
0000
0100
0100
0000
1000
0000
,  // measure 36
0001
0000
0100
0000
,  // measure 37
0001
1000
0100
1000
,  // measure 38
0010
0100
0001
1000
,  // measure 39
0100
0000
0000
1000
0010
0000
0100
0000
,  // measure 40
0010
1000
0100
0010
0001
0010
0100
1000
,  // measure 41
0001
0001
1000
1000
,  // measure 42
0001
1000
0001
1000
,  // measure 43
0010
0010
0100
0100
,  // measure 44
0010
0100
0010
0100
,  // measure 45
0001
0100
0010
1000
,  // measure 46
0100
1000
0001
0000
,  // measure 47
0100
0001
0010
0000
,  // measure 48
0100
0010
0001
0000
,  // measure 49
1000
0001
0100
0001
,  // measure 50
0010
0100
0010
0000
,  // measure 51
0100
1000
0010
0100
,  // measure 52
0001
1000
0010
0100
,  // measure 53
2002
0000
3003
0000
,  // measure 54
0001
1000
0010
1000
,  // measure 55
0001
0010
0100
0000
,  // measure 56
0010
0001
0100
0010
,  // measure 57
1000
0100
0010
0000
,  // measure 58
0100
1000
0010
0100
,  // measure 59
0001
1000
0100
0000
,  // measure 60
1000
0010
0100
0001
,  // measure 61
0010
0010
0010
0000
,  // measure 62
0001
0100
0010
1000
,  // measure 63
0001
0100
0010
1000
,  // measure 64
0100
1000
0010
0100
,  // measure 65
0001
0001
1001
0000
,  // measure 66
1000
0100
0001
0100
,  // measure 67
1000
0010
0001
0010
,  // measure 68
0100
0100
0010
0010
,  // measure 69
1000
1000
0001
0001
,  // measure 70
2002
0000
0000
3003
;

//---------------dance-single - ----------------
#NOTES:
     dance-single:
     :
     Beginner:
     2:
     0.165,0.255,0.111,0.000,0.000: // measure 1
0000
0000
0000
0000
,  // measure 2
0000
0000
0000
0000
,  // measure 3
0000
0000
0000
0000
,  // measure 4
0000
0000
0000
0000
,  // measure 5
0000
0000
0000
0000
,  // measure 6
0000
0010
0000
0000
,  // measure 7
0000
0100
0000
0000
,  // measure 8
0000
0001
0000
0000
,  // measure 9
0000
1000
0000
0000
,  // measure 10
0010
0100
0000
0000
,  // measure 11
0000
0000
0000
0000
,  // measure 12
0000
0000
0000
0000
,  // measure 13
0010
0000
0000
0000
,  // measure 14
0000
0000
0000
0000
,  // measure 15
1001
0000
0000
0000
,  // measure 16
0001
0000
0000
0000
,  // measure 17
1000
0000
1000
0000
,  // measure 18
1000
0000
1000
0000
,  // measure 19
0001
0000
0001
0000
,  // measure 20
0001
0000
0100
0000
,  // measure 21
0010
0000
0010
0000
,  // measure 22
0010
0000
0010
0000
,  // measure 23
0100
0000
0010
0000
,  // measure 24
1000
0001
1001
0000
,  // measure 25
0010
0000
0010
0000
,  // measure 26
0010
0000
0010
0110
,  // measure 27
0100
0000
0100
0000
,  // measure 28
0100
0000
0100
0110
,  // measure 29
0001
0000
0001
0000
,  // measure 30
0001
0000
0001
1001
,  // measure 31
1000
0000
1000
0000
,  // measure 32
1000
0000
1000
1001
,  // measure 33
0010
0000
0100
0000
,  // measure 34
0001
0000
1000
1000
,  // measure 35
0100
0000
0100
0000
,  // measure 36
1000
0000
0000
0000
,  // measure 37
0010
0000
0100
0000
,  // measure 38
0001
0000
0000
0000
,  // measure 39
1000
0000
0000
0000
,  // measure 40
0100
0000
1000
0000
,  // measure 41
0010
0000
0000
0010
,  // measure 42
0000
0000
0100
0100
,  // measure 43
0001
0000
0000
1000
,  // measure 44
0000
0000
0100
0100
,  // measure 45
1000
0000
0010
0000
,  // measure 46
0100
0100
0100
0000
,  // measure 47
0010
0000
0000
0000
,  // measure 48
0100
0000
0000
0000
,  // measure 49
0001
0000
0000
0000
,  // measure 50
1000
0000
0000
0000
,  // measure 51
0010
0000
0000
0000
,  // measure 52
0100
0000
0010
0000
,  // measure 53
1001
0000
0000
0000
,  // measure 54
0001
0000
0000
0000
,  // measure 55
1000
0000
0010
0000
,  // measure 56
0100
0000
0000
0000
,  // measure 57
0010
0000
0010
0000
,  // measure 58
1000
0000
0000
0000
,  // measure 59
0001
0000
0001
0000
,  // measure 60
1000
0000
0000
0000
,  // measure 61
0100
0100
0100
0000
,  // measure 62
1000
0000
0010
0000
,  // measure 63
0100
0000
0010
0000
,  // measure 64
1000
0000
0001
0000
,  // measure 65
1000
1000
1000
0000
,  // measure 66
0010
0000
0100
0000
,  // measure 67
0010
0000
0100
0000
,  // measure 68
1001
0000
0110
0000
,  // measure 69
1001
0000
0110
0010
,  // measure 70
1001
0000
0000
0000
;
