#TITLE:SABER WING;
#SUBTITLE:(satellite silhouette remix);
#ARTIST:TAG;
#TITLETRANSLIT:;
#SUBTITLETRANSLIT:;
#ARTISTTRANSLIT:;
#CREDIT:;
#BANNER:SABER WING.png;
#BACKGROUND:SABER WING-bg.png;
#JACKET:SABER WING-jacket.png;
#LYRICSPATH:;
#CDTITLE:;
#MUSIC:SABER WING (satellite silhouette remix).mp3;
#OFFSET:-2.427;
#SAMPLESTART:2.400;
#SAMPLELENGTH:12.000;
#SELECTABLE:YES;
#BPMS:0.000=138.000;
#STOPS:62.000=0.435
;
#BGCHANGES:;

//---------------dance-single - ----------------
#NOTES:
     dance-single:
     :
     Hard:
     8:
     0.479,0.494,0.065,0.097,0.401:
0001
0000
1000
0000
0100
0000
0000
0010
0000
0000
0001
0000
0100
0000
0001
0000
,
1000
0000
0100
0000
1000
0000
0000
0001
0000
0000
0100
0000
0001
0000
0100
0000
,
0010
0000
0100
0000
0001
0000
0000
1000
0000
0000
0100
0000
1000
0000
0010
0000
,
0100
0000
0000
0001
0000
0000
0000
0000
0000
0000
0000
0000
0000
0000
0000
0000
,
0010
0000
0100
0000
1000
0000
0000
0100
0000
0000
1000
0000
0001
0000
0100
0000
,
0001
0000
0010
0000
0100
0000
0000
0010
0000
0000
0001
0000
0100
0000
0001
0000
,
1000
0000
1000
0000
0001
0000
0000
0010
0000
0000
0100
0000
0010
0000
0001
0000
,
1000
0000
0000
0010
0000
0000
0010
0000
0000
0000
0000
0000
0000
0000
0100
0000
,
0001
0000
0000
0010
0100
0000
0000
0100
,
1000
0000
0000
0100
0000
0000
1000
0000
0010
0000
0000
0000
0000
0000
0100
0000
,
0001
0000
0000
0100
0010
0000
0000
0100
,
0001
0000
0000
1000
0000
0000
0100
0000
0000
0000
1100
0000
0000
0000
0100
0000
,
1000
0000
0000
0100
0010
0000
0000
0100
,
0001
0000
0000
0100
0000
0000
1000
0000
0010
0000
0000
0000
0000
0000
0100
0000
,
0010
0000
0000
0100
0001
0000
0000
0100
,
1000
0000
0000
0100
0000
0000
0010
0000
1001
0000
0000
0000
0001
0000
0100
0000
,
0001
0100
0000
0001
0000
0000
0100
0000
0010
0000
1000
0000
0010
0000
1000
0000
,
0010
1000
0000
0010
0000
0000
1000
0000
0010
0000
0100
0000
0001
0000
1000
0000
,
0001
1000
0000
0001
0000
0000
0001
0100
0001
0000
0100
0000
0010
0000
0000
1000
,
0000
0000
1000
0100
0010
0000
0001
0000
1000
0000
0001
0000
0100
0000
0010
0000
,
1000
0010
0000
0100
0000
0000
0010
0000
1000
0000
0100
0000
0010
0000
0001
0000
,
0010
0001
0000
0100
0000
0000
0010
0000
0100
0000
0100
0000
0001
0000
0001
0000
,
1000
0001
0000
0100
0000
0000
0001
1000
0100
0000
1000
0000
0000
0000
1100
0000
,
0000
0011
0000
0000
1001
0000
0000
0000
0020
0000
0000
0000
2030
0000
0000
0000
,
3010
0000
0000
0001
0000
0000
0010
0000
1000
0000
0000
0000
0001
0000
0000
0000
,
1000
0000
0000
0010
0000
0000
1000
0000
0001
0000
0000
0000
0020
0000
0000
0000
,
0130
0000
0000
1000
0000
0000
0010
0000
0100
0000
0000
0000
0001
0000
0000
0000
,
0100
0000
0000
1000
0000
0000
0100
0000
0001
0000
0000
0000
2000
0000
0000
0000
,
3001
0000
0000
0010
0000
0000
0100
0000
1000
0000
0000
0000
0001
0000
0000
0000
,
0100
0000
0000
0001
0000
0000
1000
0000
0001
0000
0000
0000
2000
0000
0000
0000
,
3001
0000
0000
0001
0000
0000
0010
0000
0001
0000
0000
0000
0100
0000
0000
0000
,
0001
0000
0000
0010
0000
0000
1000
0000
0010
0000
0000
0000
0002
0000
0000
0000
,
1003
0000
0000
0010
0000
0000
0100
0000
0001
0000
0000
0000
1000
0000
0000
0000
,
0010
0000
0000
1000
0000
0000
0001
0000
0010
0000
0000
0000
0200
0000
0000
0000
,
1300
0000
0000
0010
0000
0000
0100
0000
0001
0000
0000
0000
1000
0000
0000
0000
,
0010
0000
0000
0001
0000
0000
0010
0000
1000
0000
0000
0000
0002
0000
0000
0000
,
1003
0000
0000
0001
0000
0000
0100
0000
0010
0000
0000
0000
0100
0000
0000
0000
,
0001
0000
0000
1000
0000
0000
0001
0000
0100
0000
0000
0000
0020
0000
0000
0000
,
0130
0000
0000
0010
0000
0000
1000
0000
0001
0000
0000
0000
0010
0000
0000
0000
,
0100
0000
0000
1000
0000
0000
1000
0000
0010
0000
0000
0000
2002
0000
0000
0000
,
0000
0000
0000
0000
,
0000
0000
0000
0000
3003
0001
0100
0010
,
0000
0000
0100
0000
0001
0000
0000
1000
0000
0000
0001
0000
1000
0000
0000
1000
,
0000
0000
1000
0000
0001
0000
0000
0001
0000
0000
0001
0000
0100
0000
0000
0001
,
0000
0100
0000
0000
0000
0010
1000
0100
,
0010
0001
0000
1000
0000
0000
0100
0000
0010
0000
0001
0000
1001
0000
0000
0000
,
0000
0000
0001
0100
0001
0000
0100
0000
0001
0000
1000
0000
0100
0000
0000
0010
,
0000
0000
0100
0000
0010
0000
0000
0001
0000
0000
0010
0000
0100
0000
0000
0100
,
0000
0000
1000
0000
0010
0000
0000
0001
0000
0000
0010
0000
0100
0000
0000
0001
,
0000
0000
1000
0000
0000
0010
0000
0000
0100
0000
0001
0000
1000
0000
0000
0100
,
0000
0000
0001
0000
0000
0100
0000
0000
1000
0000
0000
0100
0000
0000
0001
0000
,
0000
0100
0000
0000
1000
0000
0000
0100
0000
0000
0001
0000
0000
0010
0000
0000
,
1000
0000
0000
0010
0000
0000
0001
0000
0000
0010
0000
0000
1000
0000
0000
0010
,
0000
0000
0001
0000
0000
0010
0000
0000
0100
0000
0010
0000
0001
0000
1000
0020
,
0000
0000
0000
0000
0130
0010
1000
0001
,
0010
0100
0000
0100
0000
1000
0000
0001
0100
0000
0001
0000
0010
0000
0000
0100
,
0000
0000
0010
0000
0000
0001
0000
0000
1000
0000
0000
0010
0100
0000
0000
0010
,
0000
0000
1000
0000
0000
0001
0000
0000
0100
0000
0010
0000
0000
0000
0000
0000
,
0000
0000
0000
0000
0000
0000
1001
0001
,
0100
0001
0000
0100
0000
0000
0010
0000
1000
0000
0010
0000
0100
0000
0001
0000
,
1000
0100
0000
0001
0000
0000
0001
0000
0100
0000
0010
0000
0001
0000
0100
0000
,
1000
0100
0000
1000
0000
0000
1000
0100
0010
0000
1000
0000
0001
0000
0000
0001
,
0000
0000
1000
0001
0100
0000
0001
0000
0010
0000
0100
0000
1000
0000
0100
0000
,
1000
0010
0000
0100
0000
0000
1000
0000
0100
0000
0010
0000
1000
0000
0001
0000
,
0010
1000
0000
0010
0000
0000
0100
0000
0010
0000
0001
0000
1000
0000
0000
0000
,
0000
0000
0100
0000
1000
0001
0000
0100
,
0001
0100
0000
0010
0000
0000
0100
0000
0010
1000
0000
0001
0000
0000
0010
0000
,
0100
1000
0000
0100
0000
0000
0010
0000
0001
1000
0000
0010
0000
0000
0000
0000
;

//---------------dance-single - ----------------
#NOTES:
     dance-single:
     :
     Medium:
     6:
     0.386,0.384,0.089,0.081,0.195:
0001
0000
0000
0000
0100
0000
0000
0001
0000
0000
0100
0000
0010
0000
0000
0000
,
1000
0000
0000
0000
0010
0000
0000
0100
0000
0000
0010
0000
1000
0000
0000
0000
,
0010
0000
0000
0000
0100
0000
0000
0010
0000
0000
1000
0000
0001
0000
0000
0000
,
1000
0000
0000
1000
0000
0000
0000
0000
0000
0000
0000
0000
0000
0000
0000
0000
,
0110
0000
0000
0000
0100
0000
0000
1000
0000
0000
0010
0000
0100
0000
0000
0000
,
0010
0000
0000
0000
0100
0000
0000
0001
0000
0000
1000
0000
0010
0000
0000
0000
,
0100
0000
0000
0000
0010
0000
0000
1000
0000
0000
0010
0000
0100
0000
0001
0000
,
1000
0000
0000
1000
0000
0000
0100
0000
0000
0000
0000
0000
0000
0000
0100
0000
,
0010
0000
0000
0010
0001
0000
0000
0001
,
0100
0000
0000
0001
0000
0000
0100
0000
0010
0000
0000
0000
0000
0000
0100
0000
,
0010
0000
0000
0010
0100
0000
0000
0100
,
0010
0000
0000
1000
0000
0000
0001
0000
0000
0000
1000
0000
0000
0000
0001
0000
,
0100
0000
0000
0010
1000
0000
0000
1000
,
0100
0000
0000
0010
0000
0000
0001
0000
0010
0000
0000
0000
0000
0000
0001
0000
,
0100
0000
0000
0100
0010
0000
0000
0100
,
0110
0000
0000
0110
0000
0000
0001
0000
1001
0000
0000
0000
1000
0000
0100
0000
,
1000
0000
0000
0100
0000
0000
1000
0000
0100
0000
0000
0000
1000
0000
0010
0000
,
0100
0000
0000
0001
0000
0000
0010
0000
1000
0000
0000
0000
0010
0000
0100
0000
,
0010
0000
0000
0001
0000
0000
0001
0000
0010
0000
0100
0000
0010
0000
0000
0001
,
0000
0000
0000
0000
0000
0000
1000
0001
,
0100
0000
0000
0100
0000
0000
0001
0000
1000
0000
0000
0000
0010
0000
1000
0000
,
0010
0000
0000
0010
0000
0000
0100
0000
0010
0000
0000
0000
0100
0000
0010
0000
,
1000
0000
0000
0010
0000
0000
0100
0000
0001
0000
1000
0000
0000
0000
1001
0000
,
0000
0110
0000
0000
1001
0000
0000
0000
0000
0000
0000
0000
0002
0000
0000
0000
,
0100
0100
0103
0100
,
0010
1000
0010
0200
,
0010
0010
0310
0010
,
1000
0001
0010
0200
,
1000
1000
1300
0100
,
1000
0010
0100
0002
,
1000
1000
1003
1000
,
0100
1000
0010
0200
,
0010
1000
0310
0100
,
0001
0010
0100
2000
,
0100
0010
3100
0010
,
0001
0010
0001
0200
,
0010
0001
0310
0100
,
0001
1000
0100
0020
,
0001
0100
0031
0010
,
0100
1000
0100
2002
,
0000
0000
0000
0000
,
0000
0000
0000
0000
3003
0000
0000
0001
,
0000
0000
0100
0000
0010
0000
0000
1000
0000
0000
0010
0000
0100
0000
0000
0010
,
0000
0000
1000
0000
0010
0000
0000
0100
0000
0000
0001
0000
1000
0000
0000
0000
,
0001
1000
0100
1000
,
0010
0000
0000
0100
0000
0000
0010
0000
0010
0000
0000
0000
0100
0000
0000
0000
,
0001
0000
0000
0100
0000
0000
0010
0000
1000
0000
0000
0000
0010
0000
0000
0000
,
0100
0000
0000
0001
0000
0000
1000
0000
0100
0000
0010
0000
0001
0000
0000
0000
,
0010
0000
0000
0001
0000
0000
0100
0000
0001
0000
0000
0000
0100
0000
0000
0000
,
0010
0000
0000
0100
0000
0000
0010
0000
1000
0000
0000
0000
0010
0000
0000
0100
,
0000
0000
0001
0000
0000
1000
0000
0000
0100
0000
0000
1000
0000
0000
0010
0000
,
0000
0100
0000
0000
0001
0000
0000
1000
0000
0000
0001
0000
0000
0100
0000
0000
,
0010
0000
0000
1000
0000
0000
0010
0000
0000
0100
0000
0000
0010
0000
0000
1000
,
0000
0000
0001
0000
0000
1000
0000
0000
0001
0000
0100
0000
0001
0000
0000
0000
,
1000
0100
1000
0010
,
0100
0010
1000
0001
,
0010
0100
1000
0100
,
1000
0000
0010
0000
0100
0010
0000
0000
,
0000
0000
0000
0000
0000
0000
0100
0010
,
1000
0000
0000
1000
0000
0000
0010
0000
0100
0000
0000
0000
0001
0000
0010
0000
,
0100
0000
0000
0010
0000
0000
0001
0000
0010
0000
0000
0000
0001
0000
0010
0000
,
1000
0000
0000
0010
0000
0000
0100
0000
1000
0000
0010
0000
0100
0000
0000
0001
,
0000
1000
1000
0001
0100
0001
0100
0001
,
1000
0000
0000
0100
0000
0000
1000
0000
0010
0000
0000
0000
0100
0000
0001
0000
,
1000
0000
0000
0100
0000
0000
1000
0000
0010
0000
0000
0000
0101
0000
0000
0000
,
0000
0000
1001
0000
0000
0000
0000
1000
,
0100
0000
0000
1000
0000
0000
0010
0000
0100
0000
0000
0001
0000
0000
1000
0000
,
0010
0000
0000
0100
0000
0000
0001
0000
1000
0000
0000
1001
0000
0000
0000
0000
;

//---------------dance-single - ----------------
#NOTES:
     dance-single:
     :
     Easy:
     3:
     0.202,0.246,0.114,0.049,0.000:
0001
1000
0100
0000
,
1000
0001
0100
0000
,
0001
1000
0100
1000
,
0010
0010
0000
0000
,
0100
0010
1000
0000
,
0010
0100
0001
0000
,
0010
0000
0100
0000
,
0010
0001
1000
0000
,
0001
0000
1000
0000
,
0001
0100
0001
0000
,
1000
0000
0010
0000
,
0100
0000
0001
0000
0000
0010
0000
0000
,
0100
0000
1000
0000
,
0010
0100
0001
0000
,
1000
0000
0100
0000
,
0110
0000
1001
0001
,
0100
0000
0001
1000
,
0100
0000
1000
0010
,
0100
0000
0010
0100
,
0000
0001
0010
0100
,
0010
0000
0100
1000
,
0001
0000
1000
0001
,
0100
0000
0001
1001
,
0000
0000
0000
1000
,
0000
0000
0000
0001
,
0000
0000
0000
0110
,
0000
0000
0000
0010
,
0000
0000
0000
0101
,
0000
0000
0000
0001
,
0000
0000
0000
1100
,
0000
0000
0000
0100
,
0000
0000
0000
0110
,
0000
0000
0000
0100
,
0000
0000
0000
1001
,
0000
0000
0000
0001
,
0000
0000
0000
0200
,
0000
0000
0000
0000
,
0000
0000
0000
0020
,
0000
0000
0000
0000
,
0000
0000
0330
2002
,
0000
0000
0000
0000
,
0000
0000
0000
0000
0000
0000
3003
0001
,
0000
1000
0000
0100
,
0000
1000
0000
0010
,
0100
0001
0000
1000
,
0001
0100
0000
0001
,
0000
0010
0100
1000
,
0100
1000
0000
0100
,
0000
1000
0000
0010
,
0000
0100
0000
0010
,
0100
0001
1000
0010
,
0100
0001
1000
0010
,
0100
0001
1000
0010
,
0100
0001
1000
0220
,
0000
0000
0000
0330
0010
0000
0001
0000
,
0010
0001
1000
0100
,
1000
0010
0100
0001
,
1000
0000
0010
0000
0100
0010
0000
0000
,
0000
0000
0000
0100
,
0000
0001
1000
0100
,
0000
1000
0010
0100
,
0000
0010
1000
0001
,
0000
1000
1000
0100
,
1000
0000
0010
0100
,
0001
0000
0100
0010
,
0000
0100
0000
0000
,
1001
0000
0110
0000
,
1001
0000
0110
0000
;

//---------------dance-single - ----------------
#NOTES:
     dance-single:
     :
     Beginner:
     1:
     0.093,0.192,0.081,0.000,0.004: // measure 1
0001
0000
0000
0000
,  // measure 2
1000
0000
0000
0000
,  // measure 3
0001
0000
0000
0000
,  // measure 4
0100
0000
0000
0000
,  // measure 5
0001
0000
0000
0000
,  // measure 6
1000
0000
0000
0000
,  // measure 7
0001
0000
0000
0000
,  // measure 8
0100
0000
0000
0000
,  // measure 9
0010
0000
0010
0000
,  // measure 10
1000
0000
0000
0000
,  // measure 11
0100
0000
0100
0000
,  // measure 12
0001
0000
0000
0000
,  // measure 13
1000
0000
1000
0000
,  // measure 14
0001
0000
0000
0000
,  // measure 15
0010
0000
0100
0000
,  // measure 16
1001
0000
0110
0010
,  // measure 17
0000
0000
0000
0100
,  // measure 18
0000
0000
0000
0001
,  // measure 19
0000
0000
0000
1000
,  // measure 20
0000
0000
0000
0001
,  // measure 21
0000
0000
0000
0100
,  // measure 22
0000
0000
0000
0001
,  // measure 23
0000
0000
0000
0100
,  // measure 24
0000
0000
0000
1001
,  // measure 25
0000
0000
0000
0000
,  // measure 26
0000
0000
0000
0001
,  // measure 27
0000
0000
0000
0000
,  // measure 28
0000
0000
0000
1001
,  // measure 29
0000
0000
0000
0000
,  // measure 30
0000
0000
0000
0010
,  // measure 31
0000
0000
0000
0000
,  // measure 32
0000
0000
0000
0110
,  // measure 33
0000
0000
0000
0000
,  // measure 34
0000
0000
0000
0100
,  // measure 35
0000
0000
0000
0000
,  // measure 36
0000
0000
0000
0110
,  // measure 37
0000
0000
0000
0000
,  // measure 38
0000
0000
0000
0100
,  // measure 39
0000
0000
0000
0000
,  // measure 40
0000
0000
0000
0001
,  // measure 41
0000
0001
0000
0001
,  // measure 42
0000
0001
0000
1000
,  // measure 43
0000
0000
0000
0001
,  // measure 44
0000
0000
0000
0100
,  // measure 45
0000
0000
0000
0001
,  // measure 46
0000
0000
1000
1000
,  // measure 47
0000
0100
0000
1000
,  // measure 48
0000
0000
0000
0001
,  // measure 49
0000
0000
0000
0001
,  // measure 50
0000
0000
0000
0110
,  // measure 51
0000
0000
0000
0010
,  // measure 52
0000
0000
0000
0100
,  // measure 53
0000
0000
0000
0001
,  // measure 54
0000
0000
0000
1000
,  // measure 55
0000
0000
0000
0100
,  // measure 56
0000
0000
0000
1000
,  // measure 57
0000
0000
0000
0001
,  // measure 58
0000
0000
0000
0000
,  // measure 59
0000
0000
0000
0110
,  // measure 60
0000
0000
0000
0100
,  // measure 61
0000
0000
0000
0001
,  // measure 62
0000
0000
0000
1000
,  // measure 63
0000
0000
0000
1001
,  // measure 64
0000
0000
0000
1000
,  // measure 65
0000
0000
0000
0100
,  // measure 66
0000
0010
0000
0001
,  // measure 67
0000
0000
0000
1000
,  // measure 68
0000
0000
0000
0000
0000
0000
0000
0000
0000
0000
0000
1001
0000
0000
0000
0000
;
