#TITLE:S!ck;
#SUBTITLE:;
#ARTIST:Eagle;
#TITLETRANSLIT:;
#SUBTITLETRANSLIT:;
#ARTISTTRANSLIT:;
#CREDIT:;
#BANNER:S!ck.png;
#BACKGROUND:S!ck-background.png;
#JACKET:S!ck-jacket.png;
#LYRICSPATH:;
#CDTITLE:;
#MUSIC:2-03 S!ck.mp3;
#OFFSET:-5.544;
#SAMPLESTART:10.960;
#SAMPLELENGTH:12.000;
#SELECTABLE:YES;
#BPMS:0.000=177.000;
#STOPS:;
#BGCHANGES:;

//---------------dance-single - ----------------
#NOTES:
     dance-single:
     :
     Hard:
     10:
     0.771,1.000,0.422,0.868,0.446: // measure 1
1000
0000
0100
0000
0010
0001
0010
0000
,  // measure 2
0001
0000
0100
0000
0010
1000
0010
0000
,  // measure 3
1000
0000
0001
0000
0010
0100
0010
0000
,  // measure 4
0001
0000
0100
0000
1000
0000
1000
0100
0000
0100
0010
0000
1000
0000
0000
0000
,  // measure 5
0001
0000
0000
1000
0000
0000
0100
0000
0000
1000
0000
0000
0010
0000
0100
0000
,  // measure 6
0001
0000
0000
0010
0000
0000
0100
0000
0000
0010
0000
0000
0001
0000
1000
0000
,  // measure 7
0010
0000
0000
0010
0000
0000
0100
0000
0000
0100
0000
0000
0001
0000
0100
0000
,  // measure 8
0010
0000
0000
1000
0000
0000
0100
0000
0000
1000
0000
0000
0100
0000
0010
0000
,  // measure 9
0001
0000
0000
0100
0000
0000
0001
0000
0000
0010
0000
0000
0001
0000
1000
0000
,  // measure 10
0100
0000
0000
1000
0000
0000
1000
0000
0000
0010
0000
0000
0100
0000
0001
0000
,  // measure 11
1000
0000
0000
0100
0000
0000
1000
0000
0000
0010
0000
0000
0100
0000
0010
0000
,  // measure 12
1000
0000
0000
1000
0000
0000
0001
0100
0000
0001
0100
0000
0001
0000
0010
0000
,  // measure 13
0100
0000
0000
0010
0000
0000
0001
0000
0000
0010
0000
0000
0001
0000
0100
0000
,  // measure 14
0010
0000
0000
0010
0000
0000
0100
0000
0000
0100
0000
0000
0010
0000
1000
0000
,  // measure 15
0001
0000
0000
0001
0000
0000
1000
0000
0000
1000
0000
0000
1000
0000
0100
0000
,  // measure 16
0010
0000
0000
0010
0000
0000
0100
0000
0000
0100
0000
0000
1000
0000
0001
0000
,  // measure 17
0100
0010
1000
0001
0010
0100
0010
0001
,  // measure 18
1000
0010
1000
0100
0001
0100
1000
0010
,  // measure 19
1000
0001
1000
0001
1000
0001
1000
0001
1000
0001
1000
0001
1000
0001
1000
0001
,  // measure 20
2000
0000
0000
0000
0000
0000
0000
3000
2000
0000
0000
0000
0000
0000
0000
0000
0002
0000
0000
0000
0000
0000
0000
0003
3002
0000
0000
0000
0000
0000
0000
0000
0203
0000
0000
0000
0000
0000
0000
0300
0200
0000
0000
0000
0000
0000
0000
0000
0310
0000
0000
0000
0100
0000
0000
0000
0000
0000
0000
0000
0000
0000
0000
0000
,  // measure 21
0202
0000
0000
0000
0000
0000
0303
0000
0001
0000
0100
0010
1000
0010
0100
0001
,  // measure 22
2000
0000
0000
0000
0000
0000
0000
0000
0000
0000
0000
0000
0000
0000
0000
0000
0000
0000
3001
0000
0000
1000
0000
0000
0010
0000
0000
0100
0000
0000
0010
0000
0000
0100
0000
0000
0020
0000
0000
0000
0000
0000
0000
0000
0000
0000
0000
0030
,  // measure 23
2200
0000
0000
3300
1002
0000
0203
0000
,  // measure 24
0320
0000
0000
0100
0230
0000
0301
0000
,  // measure 25
0200
0000
1000
0000
0310
1000
0200
0000
,  // measure 26
0310
0000
0100
2000
0010
0000
3010
0000
0220
0000
0330
0000
2002
0000
3003
0000
,  // measure 27
0022
0003
0200
0300
2000
3000
0200
0330
,  // measure 28
0100
0000
1000
0000
0010
0000
0100
0000
0102
0000
0000
0203
0000
0000
0302
0000
,  // measure 29
0023
0000
0000
0000
0230
0000
0000
0000
0310
0100
1000
0001
1000
0001
1000
0000
,  // measure 30
0020
0000
0200
0030
0301
2000
0010
0000
,  // measure 31
3200
0000
0000
0000
0000
0300
0200
0310
0200
0000
0000
0000
0310
0000
0010
0000
,  // measure 32
0002
0023
0230
2300
0001
0000
0020
0030
,  // measure 33
3100
0000
0000
1100
0000
0000
1001
0000
0210
0000
0000
0000
0002
0000
0000
0003
,  // measure 34
0310
0000
2000
0001
3001
0000
0010
0000
1000
0000
0010
0000
0001
0000
0100
0000
,  // measure 35
0000
0000
0000
0000
1001
0000
0000
0101
0000
0000
0011
0000
0000
1100
0000
0000
,  // measure 36
1000
0001
0100
0000
1010
0000
0000
0000
1000
0100
0010
0000
0022
0000
0033
0000
,  // measure 37
1100
0000
0000
0000
,  // measure 38
0011
0000
0000
0000
0000
0101
0000
0000
,  // measure 39
0010
0000
1000
0000
0001
0000
0010
0000
0100
0000
0000
0100
0000
0000
0100
0000
,  // measure 40
0000
0000
0010
0000
0001
0000
1000
0000
0010
0000
0000
0010
0000
0000
0010
0000
,  // measure 41
0110
0000
1010
0000
0011
0001
0000
1100
,  // measure 42
0000
1001
0001
1000
0010
1000
0001
0010
,  // measure 43
0100
0000
0100
0000
1000
0000
0000
0001
0000
0000
0100
0000
0100
0000
0000
0001
,  // measure 44
0000
0000
0010
0000
0010
0000
0000
0100
0000
0000
1000
0000
0100
0000
0010
0000
,  // measure 45
0002
0000
0000
0103
0001
0010
0001
0010
,  // measure 46
0100
1000
0100
0010
0001
0010
0100
1000
,  // measure 47
0001
0010
0100
1000
0100
1000
0010
0100
,  // measure 48
0010
0000
0000
0100
0000
0000
0001
0000
0000
1000
0000
0000
1001
0000
0000
0000
0010
0000
1001
0000
0000
0000
0000
0000
,  // measure 49
0101
0000
0001
0100
0000
0010
1000
0000
1000
0100
0000
0010
,  // measure 50
0001
0000
0001
0100
0000
0100
0020
0000
0000
1000
0000
0000
,  // measure 51
0130
0000
0100
0001
0000
0001
0010
0000
0010
0100
0000
0100
,  // measure 52
1000
0100
0010
0001
0010
0100
1000
0010
0100
0001
1000
0001
,  // measure 53
1000
0000
0000
0000
0000
0000
0000
2000
,  // measure 54
0002
3000
0203
0302
0000
0203
0000
0320
,  // measure 55
0000
0000
0000
0000
0000
0000
0230
2300
,  // measure 56
0000
0000
0000
0000
0200
0000
0000
0300
,  // measure 57
0000
0000
3000
0000
2000
3200
0320
0032
,  // measure 58
0000
0000
0000
0000
0000
0000
0023
0200
,  // measure 59
0000
0000
0000
0000
,  // measure 60
0000
0000
0000
0000
0000
0000
0000
0330
,  // measure 61
1001
0000
0000
0000
0000
0002
0203
2300
,  // measure 62
3200
0000
0320
2030
0000
3002
0000
0023
,  // measure 63
0000
0000
0000
0000
0000
0000
0100
0230
,  // measure 64
0000
0000
0020
0030
,  // measure 65
1300
0000
0000
0001
0000
0000
0100
0000
0000
0010
0000
0000
0100
0000
0001
0000
,  // measure 66
0010
0000
0000
1000
0000
0000
0010
0000
0000
0100
0000
0000
0100
0000
0010
0000
,  // measure 67
0001
1000
0001
1000
0001
1000
0001
1000
0001
1000
0001
1000
0001
1000
0001
1000
,  // measure 68
0102
0000
0000
0000
0000
0000
0000
0003
0102
0000
0000
0000
0000
0000
0000
0003
0012
0000
0000
0000
0000
0000
0000
0003
0012
0000
0000
0000
0000
0000
0000
0003
1002
0000
0000
0000
0000
0000
0000
0003
1002
0000
0000
0000
0000
0000
0000
0003
2002
0000
0000
0000
0000
0000
0000
0000
3003
0000
0000
0000
0000
0000
0000
0000
,  // measure 69
2020
0000
0000
0000
0000
0000
3030
0000
1000
0000
0010
0100
0001
0100
0010
1000
,  // measure 70
0002
0000
0000
0000
0000
0000
1003
0001
0100
0001
0100
0002
0200
0000
0303
0000
,  // measure 71
0022
0000
0000
0033
2001
0000
3020
0000
,  // measure 72
0130
0000
0001
0010
0000
0010
0100
0000
0100
1000
0000
0000
,  // measure 73
0020
0000
0001
0000
0130
0001
0020
0000
,  // measure 74
0030
0100
0000
1000
0100
0000
0022
0033
,  // measure 75
2200
3000
0020
0030
0002
0003
0020
0330
,  // measure 76
0010
0000
0001
0000
0100
0000
0010
0000
2010
0000
0000
3020
0000
0000
2030
0000
,  // measure 77
3100
0000
0010
0000
0000
0000
0001
0000
0010
0100
0010
0000
0100
0000
0100
1000
,  // measure 78
0001
0000
1000
0000
0001
1000
0010
0000
1000
0000
0010
0100
0010
0100
0010
0000
,  // measure 79
0100
0000
0001
0010
0001
0000
1000
0000
0010
0100
0010
0000
0100
0000
0001
0000
,  // measure 80
0000
1000
0001
0010
0002
0000
2000
3003
,  // measure 81
1100
0000
0000
0011
0000
0000
0101
0000
0001
1000
0100
0010
0001
0000
0000
0000
,  // measure 82
0001
0000
1000
0100
1000
0000
1000
0010
1000
0000
1000
0000
0001
0000
0010
0000
,  // measure 83
0000
0000
0001
0010
0100
1000
0001
0010
,  // measure 84
1100
0110
0011
0110
1100
0110
0011
1100
,  // measure 85
2002
0000
0000
0000
,  // measure 86
3003
0000
0000
0000
;

//---------------dance-single - ----------------
#NOTES:
     dance-single:
     :
     Medium:
     8:
     0.572,0.812,0.255,0.812,0.108:
2000
3200
0310
0000
,
0020
0032
0103
0000
,
0202
0000
0000
0303
,
0001
0000
1000
0000
0010
0000
0000
0100
0000
0000
0001
0000
1001
0000
0000
0000
,
2002
0000
3003
0000
0000
0000
0000
0001
,
0200
0000
1300
0200
0000
0320
0000
2000
,
0000
0000
0000
0000
0030
0000
0010
0020
,
0000
0000
0000
0000
,
0000
0000
3000
0000
1030
0100
0010
0002
,
0000
0000
0000
0000
0000
0000
1000
2000
,
0000
0000
0000
0000
,
0000
0000
0000
3003
,
0110
0000
0000
0000
0000
0100
1000
0100
,
0001
0000
0001
0010
0000
0200
0000
2000
,
0000
0000
0000
0000
0300
0000
0100
0200
,
0000
0000
0000
3300
,
1100
0100
0010
0001
,
0011
0001
0010
0100
,
1000
0100
0010
0100
1000
0010
0100
0001
,
0200
0320
2030
3002
0023
0230
2300
3000
,
2002
0000
0000
3003
0001
0100
0010
1000
,
0020
0000
0000
0130
0001
1000
0020
0000
,
0230
0000
0320
2030
,
3200
0000
0000
0010
0020
0000
0000
0330
,
2002
0000
0000
3003
0002
0000
0103
0000
,
0010
1000
0001
0010
0200
0000
2300
0000
,
3002
0103
0002
1003
,
1000
0000
1000
0000
0100
0000
0100
0000
0010
0000
0000
0010
0000
0000
0100
0000
,
2200
0000
0000
3300
0100
0010
0001
1000
,
0020
0000
0000
0030
0100
0001
2000
0000
,
3002
0000
0003
0001
0002
0000
0103
0100
,
0010
1000
0100
0010
0002
0000
1000
0000
,
0103
0000
0000
0001
0000
0000
0100
0000
0020
0000
0000
0000
0130
0000
0000
0000
,
0100
0001
1000
0100
0010
0010
0100
0100
,
0000
0000
0000
0000
0010
0000
0000
0001
0000
0000
0010
0000
0000
0001
0000
0000
,
0010
0000
0000
0100
0000
0000
1000
0000
0000
0100
0000
0000
1000
0000
0000
0000
,
2002
0000
3003
0000
,
0101
0000
0000
0000
0000
1010
0000
0000
,
1100
0000
0000
0000
,
0200
0000
0000
0310
0000
0000
0000
0000
,
0010
0000
0100
0000
1000
0100
0000
0010
,
0000
0100
1000
0010
0100
0001
1000
0000
,
0001
0100
1000
0000
1000
0100
0001
0000
,
0001
0100
1000
0000
1000
0100
0010
0100
,
0020
0000
0000
0130
0001
0000
0100
0000
,
1000
0100
0010
1000
0001
0010
0100
0000
,
0010
0000
0001
0000
1000
0001
0100
0000
,
0001
0100
0010
1000
0020
0000
0130
0000
,
0101
1100
0011
1010
,
0011
1100
1002
0103
,
1001
1100
0011
0110
,
1100
0000
0100
1000
0000
1000
0100
0000
0010
0001
0000
0001
,
0100
0000
0000
0000
0000
0000
0000
0100
,
0002
0003
0001
0200
0000
2300
0000
0200
,
0000
0000
0000
0000
0000
3300
0100
0002
,
0000
0000
0200
0000
,
0300
0000
0000
0003
0001
0100
0020
2000
,
0000
0000
0000
0000
0000
3030
0020
0200
,
0000
0000
0000
0000
,
0000
0000
0000
0000
0000
0000
0000
0330
,
1001
0000
0000
0001
0000
0000
0100
0000
0000
0010
0000
0000
0100
0000
0001
0000
,
0010
0000
0000
0100
0000
0000
0010
0000
0000
0001
0000
0000
0010
0000
0100
0000
,
1000
0000
0000
1000
0000
0000
0100
0000
0000
0100
0000
0000
1000
0000
0100
0000
,
0010
0000
0000
0010
0000
0000
0100
0000
0000
0100
0000
0000
0100
0000
0010
0000
,
0001
0000
0000
1000
0000
0000
0010
0000
0000
0100
0000
0000
0001
0000
0100
0000
,
1000
0000
0000
0100
0000
0000
0010
0000
0000
0100
0000
0000
0010
0000
0100
0000
,
0001
0010
0100
1000
0100
0010
0001
1000
,
0002
2003
3200
0320
0032
0023
0200
0330
,
2200
0000
0000
3300
0100
0010
0001
1000
,
0020
0000
0000
0130
0001
1000
0002
0003
,
2020
0000
0000
3030
0020
0000
0230
0000
,
0301
0000
0001
1000
0000
1000
0001
0000
0001
1000
0000
0000
,
0220
0330
0200
1300
,
0000
0100
0000
0010
0001
0000
2002
3003
,
0202
0003
0020
0300
2030
0000
0200
3300
,
0100
0000
0010
0000
0001
0000
0010
0000
0001
0000
0000
1000
0000
0000
0010
0000
,
1000
1000
0000
0001
0100
0001
0100
0001
,
0100
0010
1000
0001
0100
0010
1000
0001
,
0100
0010
1000
0001
0100
0010
1000
0000
,
0000
0001
0010
0100
1000
0000
0100
0000
,
2200
0000
0000
3000
2000
0000
0000
3300
,
1000
0100
0010
0001
0010
0010
0100
0100
,
0000
0000
0100
0010
0001
0010
1000
0010
,
0002
0203
2300
3200
0320
2030
3002
0023
,
0200
0000
0000
0000
,
0330
0000
0000
0000
;

//---------------dance-single - ----------------
#NOTES:
     dance-single:
     :
     Easy:
     5:
     0.349,0.609,0.191,0.374,0.000:
1000
0100
0100
0000
,
0100
0010
0010
0000
,
2002
0000
0000
3003
,
0001
0100
0010
0000
0100
0010
1000
0000
,
0020
0000
0000
0000
,
0230
0000
0000
0000
,
0302
0000
0000
0000
,
2003
0000
0200
0300
,
3200
0000
0000
0000
,
2300
0000
0000
0000
,
3020
0000
0000
0000
,
0000
0000
0000
0030
,
0100
0010
0000
0100
,
0001
1000
0000
0100
,
0010
0001
0000
0010
,
0100
1000
0000
0100
,
1000
0010
0001
0010
,
0100
0010
1000
0001
,
0010
0010
0100
0100
,
1000
0100
0010
0001
0010
0100
1000
0000
,
2002
3003
0001
0100
,
0020
0000
0130
0001
,
2000
0000
3100
1000
,
0020
0000
0200
0330
,
0200
0300
0020
0030
,
0100
0001
1000
1000
,
0001
1000
0100
1000
,
0010
0100
0002
0203
,
0320
0000
0130
0001
,
2000
0000
3100
1000
,
0020
0000
0230
0000
,
0310
1000
0010
0200
,
0301
0010
0200
0000
,
1300
0100
0100
0100
,
0000
1000
0100
0010
,
0001
0010
0100
1000
,
1001
0000
0000
0000
,
0001
0000
0000
0000
0000
0100
0000
0000
,
0100
0000
0000
0000
,
0110
0000
0000
0110
0000
0000
0000
0000
,
0010
0000
1000
0000
0010
1000
0000
0010
,
0000
0100
0000
0001
0010
0000
0100
0000
,
1000
0100
0001
0100
,
1000
0100
0001
0100
,
2000
0000
3010
0100
,
0010
0010
1000
1000
,
0001
0010
0100
0010
,
0001
1000
0010
0010
,
0110
1001
0110
1001
,
0110
1001
0101
0101
,
1001
0011
0110
1100
,
0220
0000
0000
0330
,
1001
0000
0000
0000
,
0001
0000
0000
0100
0000
0010
0000
2000
,
0000
0000
0000
0000
,
0020
0000
0000
0000
,
0000
3030
0020
0000
,
0000
0000
0000
0000
0000
0000
0000
0200
,
0000
0000
0000
0000
,
0000
0000
0000
0330
,
0000
0000
0000
0100
,
0002
0000
0000
1003
0000
0100
0000
0020
,
0000
0000
0000
0000
0000
0000
0000
0200
,
0000
0000
0000
0330
,
0110
0000
0000
0000
,
1001
0000
0000
0000
,
0202
0000
0000
0303
,
0001
0100
0010
1000
0001
0100
0010
0000
,
0200
0000
0310
1000
,
0002
0000
1003
0100
,
0020
0000
0130
1000
,
0100
0100
1000
1000
,
0020
0000
0130
0001
,
0000
1000
0000
0001
0100
0000
0020
0000
,
0130
0001
0010
1000
,
0010
0010
0100
0100
,
1100
0000
1000
0100
,
0010
0100
1000
0010
,
0100
0001
0010
0100
,
0000
0100
0010
0001
1000
0000
0001
0000
,
0200
0000
0320
0000
,
1030
0100
0010
0010
,
0000
0100
0010
0001
,
1000
0001
0100
0010
,
2002
0000
0000
0000
,
3003
0000
0000
0000
;

//---------------dance-single - ----------------
#NOTES:
     dance-single:
     :
     Beginner:
     3:
     0.216,0.406,0.207,0.143,0.000:
0001
0000
0000
0000
,
0100
0000
0000
0000
,
0010
0000
0000
0000
,
1001
0000
0000
0000
,
1000
0000
0000
0000
,
0100
0000
0000
0000
,
1000
0000
0000
0000
,
0001
0000
0100
0000
,
0010
0000
0000
0000
,
0100
0000
0000
0000
,
0001
0000
0000
0000
,
0001
0000
0000
0000
,
1000
0000
0000
0001
,
0001
0000
0100
0000
,
0020
0000
0000
0000
,
0000
0000
0000
0030
,
0100
0000
0000
0000
,
0010
0000
0000
0000
,
1000
0000
0000
0000
,
1001
0110
1001
0110
,
2002
3003
0001
0000
,
0100
0000
0010
0010
,
0100
0000
0001
0001
,
0001
0000
1000
0000
,
0100
0000
1000
0000
,
0010
0010
0010
0010
,
0100
0000
0001
0000
,
1000
1000
0001
0000
,
0100
0000
0001
0000
,
1000
0000
0100
0000
,
1000
0000
0010
0000
,
0100
0100
0100
0000
,
0010
0000
0100
0000
,
0001
1000
0001
1000
,
0000
0020
0000
0000
,
0000
0000
0000
0030
,
0100
0000
0000
0000
,
0100
0000
0000
0000
,
0001
0000
0000
0000
,
0000
0000
0000
0010
,
0100
0000
1000
0000
,
0001
0001
0001
0000
,
1001
0000
0110
0000
,
1001
0000
0001
0000
,
1001
0000
1001
0000
,
0001
0001
1000
0000
,
0100
0000
0010
0000
,
0001
0001
0010
0000
,
0110
0000
0110
0000
,
0110
0000
1001
0110
,
1001
0000
1001
0000
,
0110
0000
0000
0000
,
1001
0000
0000
0000
,
0020
0000
0000
0000
,
0000
0000
0000
0000
,
0000
0000
0000
0000
,
0000
0000
0000
0000
,
0000
0000
0000
0000
,
0030
0000
0000
0000
,
0000
0000
0000
0000
,
1001
0000
0000
1000
,
2000
0000
0000
3000
,
0002
0000
0000
0003
,
0200
0000
0000
0300
,
0020
0000
0000
0000
,
0000
0000
0000
0030
,
0200
0000
0000
0300
,
1001
0110
1001
0110
,
2002
3003
0001
0001
,
2000
3000
0001
0001
,
0200
0000
0301
0001
,
0001
0000
1000
0000
,
0200
0300
0010
0000
,
0000
0100
0100
0100
,
2000
0000
3000
0000
,
0002
0000
0003
0000
,
0100
0000
0010
0000
,
1000
0000
0001
0000
,
1000
1000
1000
0001
,
0000
0100
0001
0001
,
0000
0000
0100
0000
,
0010
0000
1000
0000
,
0000
1000
0100
0010
,
0001
1000
0100
0010
,
0002
0000
0000
0000
,
0003
0000
0000
0000
;
