#TITLE:龍と少女とデコヒーレンス;
#SUBTITLE:;
#ARTIST:黒猫ダンジョン;
#TITLETRANSLIT:Ryu to Shoujou to Decoherence;
#SUBTITLETRANSLIT:;
#ARTISTTRANSLIT:Kuroneko Dungeon;
#CREDIT:;
#BANNER:Ryu to Shoujou to Decoherence.png;
#BACKGROUND:Ryu to Shoujou to Decoherence-background.png;
#JACKET:Ryu to Shoujou to Decoherence-jacket.png;
#LYRICSPATH:;
#CDTITLE:cdtitle.png;
#MUSIC:DECOHERENCE.mp3;
#OFFSET:1.314;
#SAMPLESTART:23.420;
#SAMPLELENGTH:12.000;
#SELECTABLE:YES;
#BPMS:0.000=165.000,196.000=123.750,220.000=165.000;
#STOPS:;
#BGCHANGES:0.000=20019.avi=1.000=0=0=1,
99999=-nosongbg-=1.000=0=0=0 // don't automatically add -songbackground-
;

//---------------dance-single - ----------------
#NOTES:
     dance-single:
     :
     Hard:
     9:
     0.491,0.538,0.117,0.047,0.180: // measure 1
0000
0000
0000
0000
,  // measure 2
0000
0000
0000
0000
,  // measure 3
0000
0000
0000
0000
,  // measure 4
0000
0000
0000
0000
,  // measure 5
0000
0000
0000
0000
,  // measure 6
1000
0001
0100
0000
0001
0000
0100
0000
,  // measure 7
0010
1000
0010
0000
0100
0000
0001
0000
,  // measure 8
1000
0100
0010
0000
0100
0000
1000
0000
,  // measure 9
0010
0100
0010
0000
0100
0000
0001
0000
,  // measure 10
1000
0100
0000
0100
,  // measure 11
0000
0100
0000
0100
,  // measure 12
0010
0001
0000
0001
,  // measure 13
0000
0001
0000
0001
,  // measure 14
1001
1000
0000
0010
,  // measure 15
0110
0100
0000
0001
,  // measure 16
0101
0001
0110
0010
,  // measure 17
1000
0000
0001
0000
1000
0000
0001
0000
1000
0001
1000
0001
1000
0000
0000
0000
,  // measure 18
0001
0000
0100
0000
1000
0000
0000
0000
0100
0000
0000
0010
1000
0000
0000
0000
,  // measure 19
1000
0000
0100
0000
0001
0000
0000
0000
0100
0000
0000
0010
0001
0000
0000
0000
,  // measure 20
0001
0000
0010
0000
0100
0000
0000
0000
1000
0000
0000
0010
0100
0000
0000
0000
,  // measure 21
0100
0000
0001
0000
1000
0000
0000
0000
0100
0000
0000
0010
0001
0000
0000
0000
,  // measure 22
0001
0000
0100
0000
1000
0000
0000
0000
0100
0000
0000
0010
1000
0000
0000
0000
,  // measure 23
1000
0000
0100
0000
0001
0000
0000
0000
0100
0000
0000
0010
0001
0000
0000
0000
,  // measure 24
0001
0000
0010
0000
1000
0000
0000
0000
0010
0000
0000
0100
1000
0000
0000
0000
,  // measure 25
1000
0000
0010
0000
0001
0000
0000
0000
0010
0000
0000
1000
0100
0000
0000
0000
,  // measure 26
0100
0000
0010
0000
0100
0000
1000
0001
0000
0100
0000
0000
0000
0000
0000
0000
,  // measure 27
0001
0000
1000
0000
0010
0000
0100
0001
0000
0001
0000
0000
0000
0000
0000
0000
,  // measure 28
1000
0000
0001
0000
0100
0000
0010
1000
0000
1000
0000
0000
0000
0000
0000
0000
,  // measure 29
1000
0000
0100
0000
0010
0000
0010
0100
0000
0100
0000
0000
0100
0000
0010
0000
,  // measure 30
0001
0000
0100
0000
0010
0000
0100
0001
0000
1000
0000
0000
1001
0000
0000
0000
,  // measure 31
0100
0000
0010
0000
0001
0000
1000
0010
0000
1000
0000
0000
1001
0000
0000
0000
,  // measure 32
1000
0000
0001
0000
0100
0000
0010
1000
0000
1000
0000
0000
1001
0000
0000
0000
,  // measure 33
1000
0000
0001
0000
0100
0000
0010
1000
0000
0001
0000
0000
1001
0000
0000
0000
,  // measure 34
0102
0100
0000
0100
,  // measure 35
0000
0100
0000
0100
,  // measure 36
0203
0010
0000
0010
,  // measure 37
0000
0010
0000
0010
,  // measure 38
0320
1000
0000
1000
,  // measure 39
0000
1000
0000
1000
,  // measure 40
2030
0001
0000
0001
,  // measure 41
0000
0001
0000
0001
,  // measure 42
3001
0000
0100
0000
0000
0100
0000
0000
0100
0000
0000
0100
0000
0000
0100
0000
,  // measure 43
0000
0100
0000
0000
0100
0000
0000
0100
0000
0000
0100
0000
0000
0100
0000
0000
,  // measure 44
0000
0000
0010
0000
0000
0010
0000
0000
0010
0000
0000
0010
0000
0000
0010
0000
,  // measure 45
0000
0010
0000
0000
0010
0000
0000
0010
0000
0000
0010
0000
0000
0010
0000
0000
,  // measure 46
0000
0000
1000
0000
0000
0001
0000
0000
0100
0000
0000
0001
0000
0000
1000
0000
,  // measure 47
0000
0100
0000
0000
1000
0000
0000
0001
0000
0000
0100
0000
0000
0001
0000
0000
,  // measure 48
0000
0000
1000
0000
0000
0010
0000
0000
1000
0000
0000
0001
0000
0000
0010
0000
,  // measure 49
0000
0001
0000
0000
1000
0000
0000
0010
0000
0000
1000
0000
0000
0001
0000
0000
,  // measure 50
1000
0001
0100
0100
0001
1000
0010
0100
,  // measure 51
0001
0010
0100
0010
0001
1000
0010
0010
,  // measure 52
1000
0001
0010
0100
0010
0001
0100
0010
,  // measure 53
1000
0100
0010
0010
0100
1000
0010
0100
,  // measure 54
0001
1000
0001
0010
0100
0100
0010
0001
,  // measure 55
0100
0100
0010
0100
0001
0010
0100
1000
,  // measure 56
0001
0100
0010
0000
0100
0010
1000
0000
,  // measure 57
0100
0010
0001
0000
1000
0001
0010
0000
,  // measure 58
0110
0010
0001
0000
0010
0100
1000
0000
,  // measure 59
1000
0001
0100
0000
0100
0010
1000
0000
,  // measure 60
1001
0001
0100
0000
0010
1000
0100
0000
,  // measure 61
0010
0001
0100
0000
0100
0010
1000
0000
,  // measure 62
0001
1000
0100
1000
0100
0010
0100
1000
,  // measure 63
0010
0100
0001
0010
0100
0010
0001
1000
,  // measure 64
0010
1000
0001
1000
0100
1000
0001
1000
,  // measure 65
0010
0000
0000
0100
,  // measure 66
0101
0000
0001
0100
0010
1000
0100
0010
,  // measure 67
0100
0000
0000
1000
,  // measure 68
1001
0000
0001
1000
0100
0010
0100
1000
,  // measure 69
0010
0000
0000
0100
,  // measure 70
1001
0000
0001
0100
0010
1000
0100
0010
,  // measure 71
0100
0100
0010
0010
0001
0001
1000
0000
,  // measure 72
0001
0100
0010
1000
0001
0100
0010
1000
,  // measure 73
0001
0010
0100
1000
0100
0010
0100
1000
,  // measure 74
0010
0100
0001
1000
0010
0100
0001
1000
,  // measure 75
0001
0010
0100
0010
0001
0010
0100
1000
,  // measure 76
0100
1000
0100
0010
0001
0010
0100
0001
,  // measure 77
1000
0001
0100
0001
1000
0001
0100
0001
,  // measure 78
1000
0100
0010
0100
1000
0010
0100
0001
,  // measure 79
0010
0100
1000
0100
1000
0010
0100
0001
,  // measure 80
2002
0000
0000
0000
,  // measure 81
0000
0000
0000
0000
,  // measure 82
3003
0000
0000
0000
;

//---------------dance-single - ----------------
#NOTES:
     dance-single:
     :
     Medium:
     7:
     0.437,0.538,0.266,0.328,0.000: // measure 1
0000
0000
0000
0000
,  // measure 2
0000
0000
0000
0000
,  // measure 3
0000
0000
0000
0000
,  // measure 4
0000
0000
0000
0000
,  // measure 5
0000
0000
0000
0000
,  // measure 6
1000
0010
1000
0000
0010
0000
0100
0000
,  // measure 7
0001
0100
0001
0000
1000
0000
0001
0000
,  // measure 8
0010
0100
0010
0000
0100
0000
1000
0000
,  // measure 9
0001
1000
0001
0000
0100
0000
0001
0000
,  // measure 10
0010
0100
0000
0100
,  // measure 11
0000
0100
0000
0100
,  // measure 12
0000
1000
0000
1000
,  // measure 13
0000
1000
0000
1000
,  // measure 14
1001
0001
0000
1000
,  // measure 15
1001
0001
0000
0001
,  // measure 16
1001
0010
0110
0010
,  // measure 17
1000
0001
1000
0001
1001
0101
1001
0000
,  // measure 18
0001
0100
0010
0000
0100
0000
0110
0000
,  // measure 19
0010
1000
0001
0000
0010
0000
0110
0000
,  // measure 20
0100
1000
0010
0000
0100
0000
0101
0000
,  // measure 21
0001
0100
0010
0000
0100
0000
0110
0000
,  // measure 22
0010
0100
0001
0000
1000
0000
1001
0000
,  // measure 23
0001
0010
0100
0000
0010
0000
0011
0000
,  // measure 24
0001
0100
0010
0000
0100
0000
0110
0000
,  // measure 25
0100
0010
1000
0000
0010
0000
0110
0000
,  // measure 26
0010
1000
0010
1000
0010
0000
1010
0000
,  // measure 27
0001
0100
0001
0100
0001
0000
0101
0000
,  // measure 28
0001
1000
0001
1000
0001
0000
1001
0000
,  // measure 29
1000
0100
1000
0100
1000
0000
1100
0000
,  // measure 30
1000
0100
0010
0001
0010
0000
0110
0000
,  // measure 31
0010
0100
1000
0010
0100
0000
0101
0000
,  // measure 32
0001
0100
1000
0100
0010
0000
0110
0000
,  // measure 33
0010
0001
0010
1000
0010
0000
0110
0000
,  // measure 34
2002
0000
0000
0000
,  // measure 35
0000
0000
0000
3003
,  // measure 36
0202
0000
0000
0000
,  // measure 37
0000
0000
0000
0303
,  // measure 38
0022
0000
0000
0000
,  // measure 39
0000
0000
0000
0033
,  // measure 40
0202
0000
0000
0000
,  // measure 41
0000
0000
0000
0303
,  // measure 42
2002
0000
0000
0000
,  // measure 43
0000
0000
0000
3003
,  // measure 44
2200
0000
0000
0000
,  // measure 45
0000
0000
0000
3300
,  // measure 46
2002
0000
0000
0000
,  // measure 47
0000
0000
0000
3003
,  // measure 48
2020
0000
0000
0000
,  // measure 49
0000
0000
0000
3030
,  // measure 50
2000
3200
0320
0032
,  // measure 51
0023
2030
3020
0230
,  // measure 52
2300
3200
2300
3020
,  // measure 53
0032
0023
0230
0302
,  // measure 54
2003
3200
2300
3200
,  // measure 55
2300
3002
0023
0230
,  // measure 56
1300
0010
0100
0000
0010
0100
0010
0000
,  // measure 57
0010
1000
0001
0000
1000
0001
1000
0000
,  // measure 58
0001
0100
0010
0000
0100
0010
1000
0000
,  // measure 59
0010
0100
0001
0000
0100
0001
1000
0000
,  // measure 60
0001
0010
0100
0000
0100
1000
0010
0000
,  // measure 61
0100
0010
1000
0000
0010
0100
0001
0000
,  // measure 62
0100
0010
1000
0001
,  // measure 63
0010
0100
1000
0100
,  // measure 64
1000
0001
0100
0001
1000
0001
0100
0010
,  // measure 65
1000
0000
0000
0100
,  // measure 66
1000
0100
0010
0100
1000
0010
0100
0001
,  // measure 67
0010
0000
0000
0100
,  // measure 68
1100
0000
1000
0100
0010
0100
1000
0010
,  // measure 69
0100
0000
0000
0100
,  // measure 70
0101
0000
0001
0100
0010
1000
0001
0100
,  // measure 71
0001
0010
0100
1000
0100
0010
0001
0000
,  // measure 72
0001
0100
0010
1000
0001
0100
0010
0100
,  // measure 73
1000
0100
0010
1000
0001
1000
0100
0000
,  // measure 74
0100
1000
0010
0100
0001
1000
0001
0100
,  // measure 75
0010
1000
0100
1000
0100
0010
0001
0000
,  // measure 76
0001
1000
0010
0100
0001
1000
0001
0100
,  // measure 77
0010
0001
0010
0001
0010
0001
0010
0100
,  // measure 78
1000
0000
0010
1000
0010
0100
0001
1000
,  // measure 79
0001
0010
1000
0010
0001
0001
0010
0100
,  // measure 80
2002
0000
0000
0000
,  // measure 81
0000
0000
0000
0000
,  // measure 82
3003
0000
0000
0000
;

//---------------dance-single - ----------------
#NOTES:
     dance-single:
     :
     Easy:
     4:
     0.294,0.412,0.383,0.117,0.000: // measure 1
0000
0000
0000
0000
,  // measure 2
0000
0000
0000
0000
,  // measure 3
0000
0000
0000
0000
,  // measure 4
0000
0000
0000
0000
,  // measure 5
0000
0000
0000
0000
,  // measure 6
0002
0000
0000
0003
,  // measure 7
0200
0000
0000
0300
,  // measure 8
0020
0000
0000
0030
,  // measure 9
2000
0000
0000
3000
,  // measure 10
1001
0010
0000
0010
,  // measure 11
0000
0010
0000
0010
,  // measure 12
0000
0010
0000
0010
,  // measure 13
0000
0010
0000
0010
,  // measure 14
1001
0010
0000
0010
,  // measure 15
1001
0010
0000
0010
,  // measure 16
1001
0010
1001
0010
,  // measure 17
1001
0110
1001
0110
,  // measure 18
0001
0101
0000
1010
,  // measure 19
0000
1100
0000
0011
,  // measure 20
0000
0110
0000
1100
,  // measure 21
0000
1001
0000
0101
,  // measure 22
0000
0110
0000
1010
,  // measure 23
0000
0101
0000
1010
,  // measure 24
0000
0011
0000
1100
,  // measure 25
0000
1001
0000
0110
,  // measure 26
0100
0101
0001
0101
,  // measure 27
0100
0110
0010
0110
,  // measure 28
0010
1010
1000
1010
,  // measure 29
1000
1001
0001
1001
,  // measure 30
1000
1100
0100
0110
,  // measure 31
0010
0011
0010
0110
,  // measure 32
0100
1100
0100
0110
,  // measure 33
0010
0011
0010
0110
,  // measure 34
2002
0000
0000
0000
,  // measure 35
0000
0000
0000
3000
,  // measure 36
2000
0000
0000
0000
,  // measure 37
0000
0000
0000
3000
,  // measure 38
2000
0000
0000
0000
,  // measure 39
0000
0000
0000
3000
,  // measure 40
2000
0000
0000
0000
,  // measure 41
0000
0000
0000
3003
,  // measure 42
2002
0000
0000
0000
,  // measure 43
0000
0000
0000
0003
,  // measure 44
0002
0000
0000
0000
,  // measure 45
0000
0000
0000
0003
,  // measure 46
0002
0000
0000
0000
,  // measure 47
0000
0000
0000
0003
,  // measure 48
0002
0000
0000
0000
,  // measure 49
0000
0000
0000
3003
,  // measure 50
0110
0100
0001
1000
,  // measure 51
0100
1000
0010
0100
,  // measure 52
0100
0001
0010
0100
,  // measure 53
1100
0100
1000
0010
,  // measure 54
0100
0001
0101
0001
,  // measure 55
0100
0010
0100
0001
,  // measure 56
1000
0100
1000
0010
,  // measure 57
0100
0010
1000
0001
,  // measure 58
1001
0001
0010
0010
,  // measure 59
0001
0100
1000
0100
,  // measure 60
0110
0010
1000
0010
,  // measure 61
0001
0010
0100
0001
,  // measure 62
0101
0001
0100
0010
,  // measure 63
1000
0001
0010
0100
,  // measure 64
1000
0100
0010
0001
,  // measure 65
0010
0000
0000
0100
,  // measure 66
0100
1000
0100
0010
,  // measure 67
0010
0000
0000
0100
,  // measure 68
1000
0001
0100
0001
,  // measure 69
1000
0000
0000
0001
,  // measure 70
1000
0100
1000
0010
,  // measure 71
0100
0100
0001
1000
,  // measure 72
0001
0100
1000
0100
,  // measure 73
0010
0010
0010
0010
,  // measure 74
0100
0001
1000
0100
,  // measure 75
0010
0010
0010
0010
,  // measure 76
0100
1000
0001
0100
,  // measure 77
0001
0001
0001
0001
,  // measure 78
1000
0010
0100
0001
,  // measure 79
0010
0100
1000
0100
,  // measure 80
0020
0000
0000
0000
,  // measure 81
0000
0000
0000
0000
,  // measure 82
0030
0000
0000
0000
;

//---------------dance-single - ----------------
#NOTES:
     dance-single:
     :
     Beginner:
     2:
     0.151,0.278,0.133,0.000,0.000:
0000
0000
0000
0000
,
0000
0000
0000
0000
,
0000
0000
0000
0000
,
0000
0000
0000
0000
,
0000
0000
0000
0000
,
0010
0000
0000
0000
,
0010
0000
0000
0000
,
0010
0000
0000
0000
,
0010
0000
0000
0000
,
1001
0000
0000
0000
,
0000
0000
0000
0000
,
0000
0000
0000
0000
,
0000
0000
0000
0000
,
1001
0000
0000
0000
,
0110
0000
0000
0000
,
1001
0000
0110
0000
,
1001
1001
0010
1001
,
0000
0001
0000
1000
,
0000
0001
0000
1000
,
0000
0001
0000
1000
,
0000
0001
0000
1000
,
0000
0010
0000
0100
,
0000
0010
0000
0100
,
0000
0010
0000
0100
,
0000
0010
0000
0100
,
0001
0001
0001
0000
,
1000
1000
1000
0000
,
0010
0010
0010
0000
,
0100
0100
0100
0000
,
0010
0010
0100
0000
,
0001
0001
1000
0000
,
1000
1000
0010
0000
,
0100
0100
0001
0000
,
1001
0000
0000
0000
,
0000
0000
0000
0000
,
0010
0000
0000
0000
,
0000
0000
0000
0000
,
0100
0000
0000
0000
,
0000
0000
0000
0000
,
0001
0000
0000
0000
,
0000
0000
0000
0000
,
1000
0000
0000
0000
,
0000
0000
0000
0000
,
0001
0000
0000
0000
,
0000
0000
0000
0000
,
0100
0000
0000
0000
,
0000
0000
0000
0000
,
0001
0000
0000
0000
,
0000
0000
0000
0000
,
1001
0000
0000
1000
,
0000
0000
0001
0000
,
0000
0100
0000
0000
,
0010
0000
0000
0100
,
0000
0000
0001
0000
,
0000
1000
0000
0000
,
0100
0000
0000
0000
,
0010
0000
0001
0000
,
1001
0000
0000
0000
,
1000
0000
1000
0000
,
1001
0000
0000
0000
,
0010
0000
0000
0000
,
1001
0000
0000
0000
,
1001
0000
0010
0000
,
1001
0000
0001
0000
,
0010
0000
0000
0001
,
0001
0000
0100
0000
,
0010
0000
0000
0100
,
0100
0000
0001
0000
,
1000
0000
0000
1000
,
1000
0000
0100
0000
,
0010
0000
0100
1000
,
1001
0000
0001
0000
,
1000
1000
1000
0000
,
0001
0000
0100
0000
,
0010
0010
0010
0000
,
0100
0000
0001
0000
,
1000
1000
1000
0000
,
0100
0000
1000
0000
,
0010
0010
0010
0000
,
1001
0000
0000
0000
;

//---------------dance-single - ----------------
#NOTES:
     dance-single:
     :
     Challenge:
     12:
     0.850,1.000,0.102,0.227,1.000:
0000
0000
0000
0000
,
0000
0000
0000
0000
,
0000
0000
0000
0000
,
0000
0000
0000
0000
,
0000
0000
0000
0000
,
1000
0001
0100
0001
1000
0100
0010
0001
,
1000
0001
0010
0001
1000
0100
0010
0001
,
1000
0001
0100
0001
1000
0100
0010
0001
,
0010
0001
1000
0010
1000
0001
0010
0100
,
2000
3100
0200
0310
,
0020
0031
0002
1003
,
0002
0103
0002
1003
,
0002
0013
0020
0130
,
0120
0130
0200
1300
,
2100
3100
0200
0310
,
0011
0100
1100
0010
,
1001
0000
0101
0000
1001
0000
1100
0000
0001
1000
0001
1000
0001
0000
0000
0000
,
0001
0000
1000
0000
0010
0000
0100
0001
0000
0010
0000
0010
0200
0000
0000
0000
,
1300
0000
0100
0000
1000
0000
0010
0100
0000
0001
0000
0010
0200
0000
0000
0000
,
0310
0000
0001
0000
0010
0000
0100
1000
0000
0010
0000
0010
2000
0000
0000
0000
,
3001
0000
1000
0000
0100
0000
0100
0010
0000
0001
0000
0001
0020
0000
0000
0000
,
0130
0000
0010
0000
0001
0000
1000
0001
0000
0100
0000
0010
2000
0000
0000
0000
,
3100
0000
1000
0000
0010
0000
0100
0010
0000
0100
0000
0001
2000
0000
0000
0000
,
3001
0000
0010
0000
0001
0000
0100
0001
0000
0010
0000
0100
0020
0000
0000
0000
,
0130
0000
1000
0000
0100
0000
1000
0010
0000
0100
0000
0010
2000
0000
0000
0000
,
3100
0010
0001
0100
0010
1000
0001
0010
0000
0010
0000
0000
0000
0000
0000
0000
,
0001
1000
0100
1000
0010
0100
0001
0010
0000
0010
0000
0000
0000
0000
0000
0000
,
0100
0010
1000
0001
0010
0100
1000
0010
0000
0010
0000
0000
0000
0000
0000
0000
,
0100
0001
1000
0100
0010
0100
1000
0010
0000
0010
0000
0000
0000
0000
0000
0000
,
0100
0010
1000
0001
0010
0100
1000
0100
0000
0100
0000
0000
0000
0000
0000
0000
,
0100
0010
0001
1000
0010
0100
0001
0010
0000
0010
0000
0000
0000
0000
0000
0000
,
0001
1000
0100
1000
0001
0100
0001
0010
0000
0010
0000
0000
0000
0000
0000
0000
,
0010
0100
1000
0100
0010
1000
0001
0010
0000
0010
0000
0000
0001
0010
0100
1000
,
2002
0000
0000
0000
,
0000
0000
0000
3003
,
0220
0000
0000
0000
,
0000
0000
0000
0330
,
0202
0000
0000
0000
,
0000
0000
0000
0303
,
2020
0000
0000
0000
,
0000
0000
0000
3030
,
1001
0000
0001
0000
0001
0100
0000
0001
0100
0000
0001
0100
0000
0001
0100
0000
,
0001
0100
0000
0001
0100
0000
0001
0100
0000
0001
0100
0000
0001
1000
0000
1000
,
0000
0000
1000
0000
0010
1000
0000
0010
1000
0000
0010
1000
0000
0010
1000
0000
,
0010
1000
0000
0010
1000
0000
0010
1000
0000
0010
1000
0000
0010
1000
0000
1000
,
0000
0000
1000
0000
1000
0100
0000
0100
0010
0000
0010
0001
0000
0001
0010
0000
,
0010
0100
0000
0100
1000
0000
1000
0001
0000
0001
0100
0000
0100
0010
0000
0010
,
0000
0000
0010
0000
0010
1000
0000
1000
0001
0000
0001
0100
0000
0100
0001
0000
,
0001
1000
0000
1000
0010
0000
0010
0100
0000
0100
0010
0000
0100
0001
0000
0001
,
1000
0100
1000
0100
0010
0100
1000
0001
0100
0010
0100
0001
0010
0100
0010
0001
,
1000
0100
1000
0001
0100
0001
1000
0100
0010
0100
1000
0100
1000
0001
0010
0001
,
0100
0010
1000
0001
0010
0100
0010
0001
0100
0010
1000
0100
0010
0001
0010
0100
,
1000
0100
1000
0001
0010
0100
0010
0001
1000
0010
0100
0001
0010
0100
0010
0001
,
1000
0100
1000
0010
0100
0001
0010
0100
1000
0100
0010
0001
0010
0100
0010
0001
,
0010
0100
1000
0100
0010
0100
1000
0100
0010
0001
0010
0100
0010
0001
0010
0100
,
1000
0100
1000
0100
0010
0100
1000
0001
0100
0010
0100
0001
0010
0100
0010
0001
,
1000
0100
1000
0001
0100
0001
1000
0100
0010
0100
1000
0100
1000
0001
0010
0001
,
0100
0010
1000
0001
0010
0100
0010
0001
0100
0010
1000
0100
0010
0001
0010
0100
,
1000
0100
1000
0001
0010
0100
0010
0001
1000
0010
0100
0001
0010
0100
0010
0001
,
1000
0100
1000
0010
0100
0001
0010
0100
1000
0100
0010
0001
0010
0100
0010
0001
,
0010
0100
1000
0100
0010
0100
1000
0100
0010
0001
0010
0100
0010
0001
0010
0100
,
1000
0001
0100
0010
1000
0001
0100
0010
1000
0001
0100
0010
1000
0001
0100
0010
,
1000
0100
0010
0001
0010
0100
1000
0100
0010
0001
0010
0100
1000
0100
0010
0001
,
0100
0010
1000
0001
0010
0100
0010
0001
0100
0010
1000
0100
0010
0001
0010
0100
,
0010
0000
0000
0100
,
1000
0001
0100
0001
0010
0100
0010
0001
0100
0010
1000
0100
0010
0100
1000
0001
,
0010
0000
0000
0100
,
1000
0100
1000
0100
1000
0100
0010
0001
0010
0100
0010
0001
0100
0010
1000
0001
,
1000
0000
0000
1000
,
0001
0100
0001
0100
0001
0100
0010
1000
0001
0010
0100
0010
0001
0100
0010
1000
,
0001
0010
0100
1000
0001
0010
0100
1000
0100
0010
0001
1000
0100
0010
0001
1000
,
0001
0000
0000
0000
0001
0100
0010
1000
0100
1000
0001
0100
0010
1000
0100
0010
,
0001
0000
0001
0010
0001
0000
0010
0001
0010
0000
0001
0010
0100
1000
0100
1000
,
0010
0000
0100
0010
0100
0010
1000
0001
0010
0100
0010
0001
0100
0010
1000
0001
,
0100
0000
0010
0100
0010
0000
0100
0010
0100
0000
0100
0010
0100
0010
1000
0001
,
1000
0000
0100
0010
0001
0010
0100
0010
0001
0100
0010
1000
0001
0100
0010
1000
,
0100
0000
1000
0100
1000
0000
0100
1000
0100
0000
1000
0100
0010
0001
0010
0100
,
1000
0001
0100
0010
1000
0001
0010
0100
0010
0001
0100
0010
1000
0001
1000
0010
,
1000
0100
0010
0001
0010
0100
1000
0100
0010
0001
0010
0100
1000
0100
0010
0001
,
0020
0000
0000
0000
,
0000
0000
0000
0000
,
0030
0000
0000
0000
;
