#TITLE:Rolling Christmas;
#SUBTITLE:;
#ARTIST:BANYA;
#TITLETRANSLIT:;
#SUBTITLETRANSLIT:;
#ARTISTTRANSLIT:;
#CREDIT:;
#BANNER:Rolling Christmas-banner.png;
#BACKGROUND:Rolling Christmas-bg.png;
#JACKET:Rolling Christmas-jacket.png;
#LYRICSPATH:;
#CDTITLE:;
#MUSIC:Rolling Christmas.ogg;
#OFFSET:-0.085;
#SAMPLESTART:72.320;
#SAMPLELENGTH:12.000;
#SELECTABLE:YES;
#BPMS:0.000=142.000;
#STOPS:;
#BGCHANGES:0.000=Rolling Christmas.avi=1.000=1=1=0,
224.000=Rolling Christmas-bg.png=1.000=1=0=0,
99999=-nosongbg-=1.000=0=0=0 // don't automatically add -songbackground-
;

//---------------dance-single - ----------------
#NOTES:
     dance-single:
     :
     Hard:
     7:
     0.459,0.509,0.263,0.555,0.056: // measure 1
0000
0000
0000
0000
,  // measure 2
0000
0000
0000
0000
,  // measure 3
0000
0000
0000
0000
,  // measure 4
0000
0000
0000
0000
,  // measure 5
0000
1001
0110
1001
,  // measure 6
0220
0000
0000
0330
0000
0000
0100
0000
,  // measure 7
0010
1000
0010
0100
,  // measure 8
0101
0000
0001
0000
1000
0000
0100
0010
,  // measure 9
1000
0000
0010
0000
0001
0000
0100
1000
,  // measure 10
0010
0000
0100
0000
0001
0000
1000
0001
,  // measure 11
0101
0001
1000
0100
,  // measure 12
0010
0001
0010
0110
,  // measure 13
1002
0203
0302
0203
,  // measure 14
0302
0000
0000
1000
1003
0000
0002
0000
,  // measure 15
2003
3200
2300
3200
,  // measure 16
2300
0000
0000
0010
0010
0000
3002
0000
,  // measure 17
0203
0000
0302
0000
2003
0000
3100
0010
,  // measure 18
0002
0000
0000
0000
0000
0000
1003
0010
,  // measure 19
0200
0000
0302
0000
2003
0000
3001
0100
,  // measure 20
0020
0000
0000
0000
0000
0000
0130
0001
,  // measure 21
2000
3002
0000
0010
,  // measure 22
0023
0000
0000
0001
0032
0000
0203
0000
,  // measure 23
0320
0000
2030
0000
,  // measure 24
0002
0000
0000
0000
,  // measure 25
3003
0000
0000
0000
,  // measure 26
0010
0010
0100
0001
0010
0000
0000
0000
,  // measure 27
0100
0100
1000
0010
0100
0000
0000
0000
,  // measure 28
0010
0010
1000
0001
1000
0000
0000
0000
,  // measure 29
0100
0100
0010
0001
1000
0000
0001
0000
,  // measure 30
1000
1000
0010
0100
0101
0000
0000
0000
,  // measure 31
0001
0001
0100
0001
1010
0000
0000
0000
,  // measure 32
1000
1000
0001
0010
0100
0000
0010
0010
,  // measure 33
0100
1000
0001
0100
0001
0000
0000
0000
,  // measure 34
1000
0100
1100
0000
0001
0100
0101
0000
,  // measure 35
1000
0000
0100
0000
1100
0000
0000
0100
0010
0000
0000
0000
0000
0000
0000
0000
,  // measure 36
0100
0000
0010
0000
0110
0000
0000
0010
0001
0000
1000
0000
0001
0000
0100
0001
,  // measure 37
0100
0001
1000
0100
1000
0000
0011
0000
,  // measure 38
0001
0010
0011
0000
1000
0010
1010
0000
,  // measure 39
0001
0000
0010
0000
0011
0000
0000
0010
0100
0000
0000
0000
0000
0000
0000
0000
,  // measure 40
1000
0000
0001
0000
0010
0000
0000
0100
1000
0000
0100
0000
0010
0000
0001
0100
,  // measure 41
0001
0100
1000
0100
0001
1001
1001
0000
,  // measure 42
0001
0000
0100
0000
0010
0000
1000
0010
0000
1000
0010
0000
1000
0000
0000
0000
,  // measure 43
0010
0000
0100
0000
0010
0000
1000
0001
0000
0001
1000
0000
1100
0000
0000
0000
,  // measure 44
0102
0100
0010
1000
,  // measure 45
0023
0000
0000
0100
0130
0000
0110
0000
,  // measure 46
2100
0100
0010
0001
,  // measure 47
3020
0000
0000
0100
0130
0000
0110
0000
,  // measure 48
0002
0000
0203
0000
2300
0000
3020
0032
,  // measure 49
2000
0000
0000
0000
0000
0000
0000
0000
3003
0000
0001
1000
0001
0000
1000
0000
,  // measure 50
0002
0000
0203
0000
2300
0000
3020
0032
,  // measure 51
2000
0000
0000
0000
3003
0000
1000
0001
,  // measure 52
0200
0000
0002
0000
0000
0300
0203
0000
,  // measure 53
0320
0000
0000
0100
0230
0000
0320
0000
,  // measure 54
2030
0000
3002
0000
,  // measure 55
0200
0000
0000
0303
,  // measure 56
0001
0000
1000
0000
0100
0010
0001
1000
,  // measure 57
1001
0000
0000
0000
;

//---------------dance-single - ----------------
#NOTES:
     dance-single:
     :
     Medium:
     5:
     0.392,0.452,0.172,0.545,0.000:
0000
0000
0000
0000
,
0000
0000
0000
0000
,
0000
0000
0000
0000
,
0000
0000
0000
0000
,
0000
0101
1100
0101
,
2002
0000
0000
3003
,
0001
0000
0100
0000
,
0110
0010
1000
0110
,
1001
0000
0000
0101
,
1010
0000
0000
1100
,
0110
0100
1000
0010
,
0100
0001
1000
1001
,
0102
0203
0302
0203
,
0302
0000
0000
0103
0001
0000
0200
0000
,
0320
2030
3020
2030
,
3020
0000
0000
1030
0020
0000
0230
0000
,
0310
0000
1000
0000
0100
0000
0001
0100
,
0020
0000
0000
0000
0000
0130
1000
0001
,
2000
0000
3200
0000
2300
0000
3010
0100
,
0002
0000
0000
0000
0000
0000
0103
0001
,
1000
0200
0000
0310
,
0200
0000
0000
1300
0200
0000
1300
0000
,
0020
0000
0230
0000
,
0002
0000
0000
0000
,
0303
0000
0000
0000
,
0001
0000
0100
0010
0100
0000
0010
0000
,
1000
0000
0100
0010
0100
0000
0010
0000
,
0001
0000
0100
0010
0100
0000
0010
0000
,
1000
0001
1000
0001
1000
0000
0000
0000
,
0001
0100
1010
0000
,
1000
0100
0011
0000
,
0001
0100
0010
1000
,
0100
0010
0001
0010
0100
0000
0000
0000
,
0010
0010
0100
0000
0100
0100
1000
0000
,
1000
1000
0001
1000
0001
0000
0000
0000
,
0001
0001
0100
0000
0100
0100
0010
0000
,
0100
0010
0100
0010
0200
0000
0310
0000
,
0010
0010
1000
0000
0010
0010
0100
0000
,
0010
0010
1000
0000
1010
0000
0000
0000
,
1000
1000
0100
0000
0100
0100
0010
0000
,
0010
0001
0010
0100
1000
0000
0000
0000
,
0001
0100
0001
1000
,
0100
1000
0100
0010
,
0002
0023
0230
2300
,
3200
0000
0000
1000
1000
0000
2300
0000
,
3020
0230
0302
2003
,
3020
0000
0000
0130
0001
0000
2000
0000
,
3002
0000
0203
0000
0302
0000
0103
0010
,
2000
0000
0000
0000
0000
3010
0100
0010
,
0200
0000
0320
0000
2030
0000
3001
0010
,
0200
0000
0000
0000
0000
0000
0310
0001
,
1000
0002
0000
1003
,
0200
0000
0000
0310
0200
0000
2300
0000
,
3020
0000
0230
0000
,
0002
0000
0000
0303
,
0001
0000
1000
0000
0010
0000
0100
0010
,
1001
0000
0000
0000
;

//---------------dance-single - ----------------
#NOTES:
     dance-single:
     :
     Easy:
     3:
     0.242,0.283,0.111,0.141,0.000:
0000
0000
0000
0000
,
0000
0000
0000
0000
,
0000
0000
0000
0000
,
0000
0000
0000
0000
,
0000
0001
1000
0001
,
0100
0000
0000
0001
,
1000
0000
0100
0000
,
1000
0000
0000
0010
,
0100
0000
0000
0100
,
0001
0000
0000
1000
,
0010
0000
0100
0000
,
0001
1000
0001
0100
,
0001
0100
0001
0100
,
0001
0000
1000
0100
,
0010
0100
0010
0100
,
0010
0000
0100
0000
,
1000
0001
1000
0001
,
0200
0000
0000
0301
,
0100
0001
0010
0100
,
2000
0000
0000
3100
,
1000
0020
0000
0130
,
0010
0000
0100
0001
,
2000
0000
3002
0000
,
0200
0000
0000
0000
,
0303
0000
0000
0000
,
0001
0001
0010
0000
,
0001
0001
1000
0000
,
0001
0001
0010
0000
,
0010
0010
0100
0000
,
0100
0100
1000
0000
,
0100
0100
0010
0000
,
0010
0010
0001
1000
,
0001
0001
0100
0000
,
1001
0000
1001
0000
,
1001
1001
1001
0000
,
0010
0000
0100
0000
,
0001
1000
0001
1000
,
0110
0000
0110
0000
,
0110
0110
0110
0000
,
0010
0000
0100
0000
,
0001
1000
0100
0000
,
1000
0100
0010
0001
,
1000
0100
0010
0001
,
1000
0100
1000
0010
,
0200
0000
0310
0100
,
0001
1000
0001
1000
,
0002
0000
0103
0001
,
0010
0010
0010
0100
,
0020
0000
0000
0130
,
1000
1000
1000
0001
,
0200
0000
0000
0301
,
0100
0020
0000
0130
,
0001
0000
1000
0100
,
2000
0000
3020
0000
,
0200
0000
0000
0000
,
0330
0000
0000
0000
,
1001
0000
0000
0000
;

//---------------dance-single - ----------------
#NOTES:
     dance-single:
     :
     Beginner:
     1:
     0.111,0.170,0.010,0.000,0.000: // measure 1
0000
0000
0000
0000
,  // measure 2
0000
0000
0000
0000
,  // measure 3
0000
0000
0000
0000
,  // measure 4
0000
0000
0000
0000
,  // measure 5
0000
0010
0010
0010
,  // measure 6
0010
0000
0000
0000
,  // measure 7
0001
0000
0100
0000
,  // measure 8
0001
0000
0000
1000
,  // measure 9
1000
0000
0000
0001
,  // measure 10
0001
0000
0000
0010
,  // measure 11
0010
0000
0000
0000
,  // measure 12
0000
0000
0000
0000
,  // measure 13
1000
0000
1000
0000
,  // measure 14
1000
0000
0000
0000
,  // measure 15
0001
0000
0001
0000
,  // measure 16
0001
0000
0000
0000
,  // measure 17
0010
0000
0010
0000
,  // measure 18
0010
0000
0000
0000
,  // measure 19
0100
0000
0100
0000
,  // measure 20
0100
0000
0000
0000
,  // measure 21
0010
0000
0000
0000
,  // measure 22
1000
0000
0000
0000
,  // measure 23
0001
0000
0100
0000
,  // measure 24
0001
0000
0000
0000
,  // measure 25
0000
0000
0000
0000
,  // measure 26
1000
0000
0000
0000
,  // measure 27
1000
0000
0000
0000
,  // measure 28
0001
0000
0000
0000
,  // measure 29
0100
0000
0000
0000
,  // measure 30
0010
0000
0000
0000
,  // measure 31
0100
0000
0000
0000
,  // measure 32
0001
0000
0000
0000
,  // measure 33
1000
0000
0000
0000
,  // measure 34
0010
0000
0010
0000
,  // measure 35
0010
0000
0000
0000
,  // measure 36
0100
0000
0100
0000
,  // measure 37
0100
0100
0100
0000
,  // measure 38
0001
0000
0001
0000
,  // measure 39
0001
0001
0001
0000
,  // measure 40
1000
0000
1000
0000
,  // measure 41
1000
1000
1000
0000
,  // measure 42
0010
0000
0000
0000
,  // measure 43
0100
0000
0000
0000
,  // measure 44
0010
0000
1000
0000
,  // measure 45
0001
0000
0000
0000
,  // measure 46
1000
0000
0001
0000
,  // measure 47
0100
0000
0000
0000
,  // measure 48
0001
0000
0001
0000
,  // measure 49
0010
0000
0000
0000
,  // measure 50
1000
0000
1000
0000
,  // measure 51
0100
0000
0000
0000
,  // measure 52
1000
0000
0000
0000
,  // measure 53
0010
0000
0000
0000
,  // measure 54
0100
0000
0001
0000
,  // measure 55
1000
0000
0000
0000
,  // measure 56
0000
0000
0000
0000
,  // measure 57
1001
0000
0000
0000
;
