#TITLE:Rock;
#SUBTITLE:;
#ARTIST:kors k;
#TITLETRANSLIT:;
#SUBTITLETRANSLIT:;
#ARTISTTRANSLIT:;
#CREDIT:;
#BANNER:Rock.png;
#BACKGROUND:Rock-background.png;
#JACKET:Rock-jacket.png;
#LYRICSPATH:;
#CDTITLE:cdtitle.png;
#MUSIC:Rock.mp3;
#OFFSET:-2.866;
#SAMPLESTART:5.680;
#SAMPLELENGTH:12.000;
#SELECTABLE:YES;
#BPMS:0.000=170.000;
#STOPS:;
#BGCHANGES:;

//---------------dance-single - ----------------
#NOTES:
     dance-single:
     :
     Hard:
     9:
     0.563,0.587,0.362,0.246,0.012:
0000
0000
0000
0000
,
1000
0001
0100
0020
,
0130
0001
0010
0001
1000
0010
0100
0010
,
1000
0001
0010
0001
1000
0000
0001
0000
,
1000
0001
0100
0010
1000
0100
0010
0100
,
1000
0010
0100
0001
0010
1000
0010
0000
,
0100
0010
0001
0010
0001
0100
0010
1000
,
0010
0100
0001
1000
0100
0000
1000
0000
,
0100
0010
0100
1000
0010
0100
0001
0010
,
0001
1000
0010
1000
0100
0001
0100
0000
,
0010
0001
0100
0010
1000
0001
0010
1000
,
0010
0001
0100
0010
1000
0000
1010
0000
,
0010
1000
0001
0010
0100
0010
0001
0100
,
0010
1000
0100
0010
0001
0010
1000
0010
,
0100
0000
0010
0000
0001
0010
0000
0011
,
0000
1100
0000
1000
0100
0001
0100
0010
,
0001
0000
0011
0000
0001
0100
0000
0010
,
0000
0000
0010
0000
0000
0010
0000
0000
2010
0000
0000
0000
3002
0000
0000
0000
,
0103
0000
0101
0000
0001
0010
0000
0100
,
0000
1000
0000
1000
0100
0001
0100
0010
,
0001
0000
0011
0000
0001
0100
0000
1010
,
0000
0101
0000
0001
0100
0010
0100
0001
,
1000
0000
1100
0000
0001
1000
0000
0101
,
0000
1010
0000
0010
0100
0100
0001
0010
,
0001
0000
1100
0000
1000
0001
0000
0101
,
0000
1010
0000
1000
0001
0100
1000
0100
,
0120
0000
0130
0000
0100
0002
0000
0010
,
0000
0010
0000
0013
0100
0010
0001
1000
,
1002
0000
1000
0000
1003
0020
0000
0100
,
0000
0100
0000
0130
0010
1000
0001
0010
,
0200
0000
1300
0000
0100
2000
0000
0010
,
0000
0010
0000
3010
1000
0001
0010
0100
,
0020
0000
0001
0000
0031
0200
0000
1000
,
0000
0010
0000
0310
1000
0001
1000
0001
,
0001
0100
0000
0000
0000
0100
1000
0100
,
0010
0100
0000
0000
0010
0000
1000
0000
,
0001
0010
0000
0000
0000
0000
0010
0010
,
0100
1000
0000
1000
0000
0100
1000
0000
,
0100
1000
0000
0000
0000
0100
0010
0001
,
0010
0001
0000
0000
0001
0000
0100
0000
,
0001
1000
0000
0000
0000
0001
0000
0001
,
0000
0100
0000
0010
0000
1000
0000
0001
,
0000
1001
0000
1001
0000
1001
0000
1001
,
0000
0110
0000
0110
0000
0110
0000
0110
,
0000
1010
0000
1010
0000
1010
0000
1010
,
0000
0011
0000
0011
0000
0011
0000
0011
,
0000
1100
0000
0101
0000
1100
0000
0101
,
0000
1010
0000
0011
0000
1010
0000
0011
,
0000
1001
0000
0101
0000
0110
0000
0010
,
0200
0000
0000
0000
,
0320
0000
0000
0000
0100
0000
0000
0200
,
0000
0000
0000
0000
0000
0330
0010
0000
,
0020
0000
0000
0000
0100
0000
0000
0200
,
0000
0000
0000
0000
0330
0100
0010
1000
,
0200
0000
0000
0000
0010
0000
0000
0020
,
0000
0000
0300
0130
,
0200
0000
0000
0000
2300
0000
0000
0002
,
0000
0000
0000
0000
3003
0001
0100
0010
,
2000
0000
0000
0000
0010
0000
0000
0020
,
0000
0000
0000
0000
0000
3000
1000
0000
,
2030
0000
0000
0000
0001
0000
0000
0002
,
0000
0000
0000
0000
3003
0001
0100
0001
,
0200
0000
0000
0000
0001
0000
0000
0002
,
0000
0000
0000
0000
0000
0300
0100
0000
,
0203
0000
0000
0000
0320
0000
0000
0200
,
0000
0000
0000
0000
0000
0000
0000
0000
0330
0000
0000
0000
0001
1000
0001
1000
,
0001
0000
0001
0100
0010
0000
0100
0010
,
0000
0100
0000
0010
0000
0100
0010
1000
,
0000
0001
0000
0100
0001
0010
1000
0010
,
0000
0010
0000
0010
0000
0001
1000
0001
,
1000
0000
0001
0100
0010
0000
0010
1000
,
0000
0001
0000
1000
0000
1000
0100
0001
,
0000
0001
0000
0001
0100
0010
0001
1000
,
0000
0001
0000
0100
0000
0001
0100
0010
,
1000
0000
0010
1000
0001
0000
0001
0010
,
0000
0100
0000
1000
0000
1000
0100
1000
,
0000
0001
0100
1000
0100
0010
1000
0001
,
0000
1000
0000
0100
0000
0100
0010
0001
,
1000
0000
0001
0100
0001
0000
0001
0100
,
0000
0010
0000
0100
0000
0100
0001
1000
,
0000
0100
0000
0010
0001
0000
0001
0100
,
0000
0010
0000
0010
0000
0010
1000
0001
,
0100
0001
0010
0001
1000
0000
0001
0100
,
0000
1000
0000
0100
0000
0100
0010
1000
,
0000
1000
0100
0010
0001
0010
0001
0100
,
0000
0100
0000
0100
0000
0100
0001
1000
,
0100
0000
0010
0001
1000
0000
1000
0001
,
0000
0100
0000
0001
0000
0001
1000
0010
,
0110
0010
0000
0000
1001
0001
0000
0000
,
2002
0000
3000
0003
;

//---------------dance-single - ----------------
#NOTES:
     dance-single:
     :
     Medium:
     7:
     0.422,0.482,0.069,0.139,0.000:
0000
0000
0000
0000
,
1000
0010
0200
0300
,
0100
0001
0000
0000
0001
1000
0001
1000
,
0001
0100
0000
0000
0010
0000
1000
0000
,
0100
0010
0000
0000
0000
0100
0010
1000
,
0010
0001
0000
0000
0000
1000
0100
0000
,
0100
1000
0000
0000
0000
1000
0010
0100
,
0010
0100
0000
0000
0010
0000
1000
0000
,
0001
0100
0000
0000
0000
0001
0010
0001
,
0010
0001
0000
0000
0000
0001
0010
0000
,
0100
1000
0000
0000
0000
0100
0010
0001
,
1000
0010
0000
0000
0110
0000
0110
0000
,
0100
0001
0000
0000
0000
0001
1000
0010
,
0100
0001
0000
0000
0000
0001
0010
0100
,
1000
0000
0100
0000
1000
0010
0000
0100
,
0000
0010
0000
1000
0001
0000
0100
0000
,
0010
0000
1000
0000
0100
0010
0000
0022
,
0000
0000
0030
0003
,
1100
0000
1100
0000
1000
0100
0000
0010
,
0000
0100
0000
1000
0020
0000
0130
0000
,
0010
0000
0100
0000
0001
1000
0000
0001
,
0000
0100
0000
0001
0100
0000
0010
0000
,
1000
0000
0010
0000
0100
0001
0000
1000
,
0000
0100
0000
0010
0200
0000
1300
0000
,
0100
0000
1000
0000
0010
0100
0000
0001
,
0000
1000
0000
0001
0010
0100
1000
0100
,
1000
0000
0100
0000
0010
0001
0000
0010
,
0000
0100
0000
0100
0020
0000
0031
0000
,
0010
0000
0100
0000
0010
0001
0000
1000
,
0000
0001
0000
0001
0100
1000
0100
0001
,
1000
0000
1000
0000
0001
0100
0000
0010
,
0000
0100
0000
0010
1000
0000
0001
0000
,
1001
0000
0001
0000
1001
1000
0000
0001
,
0000
0100
0000
0001
0100
1000
0100
0010
,
1000
0010
0000
0000
0000
0001
0100
0001
,
0100
0001
0000
0000
0001
0000
1000
0000
,
0100
0100
0000
0000
0000
0000
0010
0001
,
0010
0001
0000
0010
0000
0100
1000
0000
,
0100
0000
0000
0000
0000
0000
0010
0001
,
0010
0001
0000
0000
0001
0000
1000
0000
,
0010
0100
0000
0000
0000
0010
0000
0010
,
0000
0010
0000
0010
0000
0010
0000
0010
,
0000
0100
0000
0100
0000
0100
0000
0100
,
0000
0100
0000
0100
0000
0100
0000
0100
,
0000
0001
0000
0001
0000
0001
0000
0001
,
0000
0001
0000
0001
0000
0001
0000
0001
,
0000
1000
0000
1000
0000
1000
0000
1000
,
0000
0001
0000
0001
0000
0001
0000
0001
,
0000
1000
0000
0010
0000
0100
0000
0001
,
0200
0000
0000
0000
,
0310
0000
0000
0000
0100
0000
0000
0002
,
0000
0000
0000
1000
,
1003
0000
0000
0000
0001
0000
0000
0200
,
0000
0000
0000
0310
,
0200
0000
0000
0000
0010
0000
0000
0020
,
0000
0000
0000
0000
0000
0300
0100
0000
,
0200
0000
0000
0030
0010
0000
0000
0020
,
0000
0000
0000
0000
0000
0330
0000
0000
,
1001
0000
0000
0000
1000
0000
0000
0020
,
0000
0000
0000
1030
,
0100
0000
0000
0000
1000
0000
0000
0002
,
0000
0000
0000
1000
,
1003
0000
0000
0000
0010
0000
0000
0200
,
0000
0000
0000
0010
,
0310
0000
0000
0000
1000
0000
0000
0002
,
0000
0000
1003
0000
,
1001
0000
0001
0100
0001
0000
0100
0010
,
0000
0100
0000
0010
0000
0100
0010
0000
,
0000
0100
0000
0001
0100
0000
0010
0100
,
0000
0010
0000
1000
0000
0001
0010
0100
,
1000
0000
0100
0000
1000
0000
0100
0010
,
0000
0001
0000
0010
0000
0001
0010
0001
,
0000
0010
0000
0100
1000
0000
0100
1000
,
0000
0100
0000
0100
0000
1000
0010
0000
,
0100
0000
0010
0100
0010
0000
0100
0001
,
0000
1000
0000
0001
0000
1000
0100
0000
,
0000
1000
0100
0010
0001
0000
0010
0001
,
0000
0010
0000
0100
0000
0100
1000
0000
,
0010
0000
0100
0010
0100
0000
0010
1000
,
0000
0001
0000
1000
0000
0001
1000
0100
,
0000
1000
0000
0000
0100
0000
0000
0010
,
0000
0010
0000
0010
0000
0010
0100
0000
,
1000
0000
0001
0000
0100
0000
0000
0001
,
0000
0100
0000
0010
0000
0100
0001
0100
,
0000
0001
0100
0010
1000
0001
0100
0010
,
0000
0010
0000
0010
0000
0100
0001
0000
,
1000
0000
0001
0000
1000
0000
0100
1000
,
0000
0100
0000
0010
0000
0001
0010
0001
,
0000
0001
0000
0100
0010
0000
1000
0010
,
0200
0000
0300
0000
;

//---------------dance-single - ----------------
#NOTES:
     dance-single:
     :
     Easy:
     5:
     0.357,0.413,0.231,0.108,0.000:
0000
0000
0000
0000
,
1000
0001
0100
0000
,
0101
0001
0100
0010
,
1000
0010
0110
0101
,
0001
1000
1000
0001
,
0100
0100
0001
0011
,
0001
0100
0100
0010
,
1000
0010
1010
1100
,
1010
0010
0010
0100
,
0001
1000
0100
1000
,
0110
0010
1000
0001
,
0001
1000
1100
0101
,
0001
0100
0100
0010
,
1000
0010
0100
0100
,
0001
1000
0100
1000
,
0010
0100
0001
0001
,
0100
0000
0010
0000
1000
0010
0000
0202
,
0000
0000
0300
0003
,
1000
0001
0100
0100
,
0001
1000
1010
1010
,
0010
1000
0100
0100
,
1000
0010
0100
0100
,
0010
1000
0001
0010
,
1000
0010
0110
1100
,
0100
1000
0010
0001
,
0010
0100
0001
0001
,
1001
0001
1000
0100
,
1000
0001
0101
0101
,
0001
0010
0100
1000
,
0100
1000
1010
1010
,
0010
0100
0001
1000
,
0100
1000
1010
0011
,
0001
0010
0100
1000
,
0100
0100
0100
0100
,
0110
0000
0000
0010
,
0001
0000
1000
1000
,
0001
0000
0000
0100
,
0010
0000
1000
0000
,
0100
0000
0000
1000
,
0001
0000
0100
0001
,
0010
0000
0100
0000
,
1000
0000
1000
0000
,
1001
0001
0001
0001
,
0001
0001
0001
0001
,
1000
1000
1000
1000
,
1000
1000
1000
1000
,
0001
0001
1000
1000
,
0001
0001
1000
1000
,
0001
1000
0001
1000
,
2002
0000
0000
3003
,
0020
0000
0000
0000
,
0000
0000
0000
0130
,
0200
0000
0000
0000
,
0000
0000
0000
0301
,
2000
0000
0000
0000
,
0000
0000
0000
3100
,
0200
0000
0000
0000
,
0000
0000
0000
0310
,
0002
0000
0000
0000
,
0000
0000
0000
1003
,
2000
0000
0000
0000
,
0000
0000
0000
3010
,
0200
0000
0000
0000
,
0000
0000
0000
0310
,
2000
0000
0000
0000
,
0000
0000
3000
0000
,
0001
1000
0100
1000
,
0010
0100
0100
0010
,
1000
0001
0010
1000
,
0010
0010
0010
0001
,
0010
0100
0010
0001
,
1000
0010
0100
0001
,
1000
1000
0001
0001
,
0100
0001
0010
0100
,
1100
0100
1000
0010
,
0001
0010
0100
0001
,
1000
0100
0010
0001
,
1000
0100
0010
0001
,
0010
0001
0100
0010
,
0010
0100
0001
1000
,
0100
1000
0001
0100
,
0001
0001
0001
0001
,
1001
0001
1000
0010
,
1000
0001
0010
0100
,
1000
0100
0001
0100
,
1000
0100
0001
0100
,
1000
0010
0100
0100
,
0010
1000
0001
0001
,
0011
0000
1100
0000
,
0202
0000
0303
0000
;

//---------------dance-single - ----------------
#NOTES:
     dance-single:
     :
     Beginner:
     2:
     0.179,0.276,0.085,0.085,0.000: // measure 1
0000
0000
0000
0000
,  // measure 2
0000
0000
0000
0000
,  // measure 3
1001
0000
0000
0001
,  // measure 4
0001
0000
1000
1000
,  // measure 5
0010
0000
0000
0100
,  // measure 6
0100
0000
0000
0001
,  // measure 7
1000
0000
0000
1000
,  // measure 8
1000
0000
0010
0010
,  // measure 9
0100
0000
0000
0001
,  // measure 10
0001
0000
0000
1000
,  // measure 11
1001
0000
0000
0001
,  // measure 12
0001
0000
0010
0010
,  // measure 13
0001
0000
0000
0100
,  // measure 14
0001
0000
0000
0100
,  // measure 15
0010
0000
1000
0000
,  // measure 16
0010
0010
0010
0000
,  // measure 17
0100
0000
0010
0000
,  // measure 18
0200
0000
0300
0000
,  // measure 19
1001
0000
0000
0000
,  // measure 20
0001
0000
1000
0000
,  // measure 21
0100
0000
0000
0000
,  // measure 22
1000
0000
0010
0010
,  // measure 23
0100
0000
0000
0000
,  // measure 24
0001
0000
1000
0000
,  // measure 25
0100
0000
0000
0000
,  // measure 26
1000
0000
0010
0010
,  // measure 27
0100
0000
0000
0000
,  // measure 28
0001
0000
0001
0000
,  // measure 29
1000
0000
0000
0000
,  // measure 30
0100
0000
1000
1000
,  // measure 31
0001
0000
0000
0000
,  // measure 32
0100
0000
0000
0000
,  // measure 33
0001
0000
1000
0000
,  // measure 34
0100
0000
0010
0000
,  // measure 35
1001
0000
0000
0000
,  // measure 36
0000
0000
0001
0001
,  // measure 37
1000
0000
0000
0000
,  // measure 38
1000
0000
0000
0000
,  // measure 39
0010
0000
0000
0000
,  // measure 40
0100
0000
0010
0010
,  // measure 41
0100
0000
0000
0000
,  // measure 42
0000
0000
0000
0000
,  // measure 43
1001
0000
0000
0000
,  // measure 44
1000
0000
0000
0000
,  // measure 45
0001
0000
0000
0000
,  // measure 46
0100
0000
0000
0000
,  // measure 47
0010
0000
0000
0000
,  // measure 48
0100
0000
0000
0000
,  // measure 49
0001
0000
1001
0000
,  // measure 50
1000
0000
0000
0000
,  // measure 51
0020
0000
0000
0000
,  // measure 52
0000
0000
0000
0030
,  // measure 53
0200
0000
0000
0000
,  // measure 54
0000
0000
0000
0300
,  // measure 55
0002
0000
0000
0000
,  // measure 56
0000
0000
0000
0003
,  // measure 57
2000
0000
0000
0000
,  // measure 58
0000
0000
0000
3000
,  // measure 59
0020
0000
0000
0000
,  // measure 60
0000
0000
0000
0030
,  // measure 61
0200
0000
0000
0000
,  // measure 62
0000
0000
0000
0300
,  // measure 63
0002
0000
0000
0000
,  // measure 64
0000
0000
0000
0003
,  // measure 65
2000
0000
0000
0000
,  // measure 66
3000
0000
0000
0000
,  // measure 67
1001
0000
0000
0000
,  // measure 68
0001
0000
0001
0000
,  // measure 69
0100
0000
0001
0000
,  // measure 70
1000
0000
0000
0100
,  // measure 71
0100
0000
1000
0000
,  // measure 72
0010
0010
0010
0000
,  // measure 73
0100
0000
0010
0000
,  // measure 74
0100
0100
0100
0000
,  // measure 75
0001
0000
1000
0000
,  // measure 76
0100
0100
0100
0000
,  // measure 77
1000
0000
0001
0000
,  // measure 78
0100
0100
0100
0000
,  // measure 79
0001
0000
1000
0000
,  // measure 80
0100
0100
0100
0000
,  // measure 81
1000
0000
0001
0000
,  // measure 82
0010
0010
0010
0000
,  // measure 83
1001
0000
0001
0000
,  // measure 84
0100
0000
0001
0000
,  // measure 85
1000
0000
0100
0000
,  // measure 86
1000
0000
0010
0000
,  // measure 87
0100
0000
0100
0000
,  // measure 88
0010
0000
0010
0000
,  // measure 89
1001
0000
1001
0000
,  // measure 90
2002
0000
3003
0000
;
