#TITLE:Reckless With Your Love;
#SUBTITLE:;
#ARTIST:Azari & III;
#TITLETRANSLIT:;
#SUBTITLETRANSLIT:;
#ARTISTTRANSLIT:;
#CREDIT:;
#BANNER:Reckless With Your Love.png;
#BACKGROUND:Reckless With Your Love-background.png;
#JACKET:Reckless With Your Love-jacket.png;
#LYRICSPATH:;
#CDTITLE:;
#MUSIC:Reckless With Your Love.mp3;
#OFFSET:-2.032;
#SAMPLESTART:106.880;
#SAMPLELENGTH:12.000;
#SELECTABLE:YES;
#BPMS:0.000=119.000;
#STOPS:;
#BGCHANGES:;

//---------------dance-single - ----------------
#NOTES:
     dance-single:
     :
     Hard:
     8:
     0.422,0.533,0.429,0.159,0.397:
0000
0000
0000
0000
,
0000
0000
0000
0000
,
0000
0000
0000
0000
,
0000
0000
0000
0000
,
0001
0000
0000
0000
,
1000
0000
0000
0000
,
0001
0000
0000
0000
,
0100
0000
0010
0000
,
1000
0000
0001
0001
0000
0100
0100
0000
0010
0010
0000
1000
1000
0000
0000
0000
,
0100
0000
0000
0010
0000
0000
0001
0000
0000
0010
0000
0000
0100
0000
0000
0000
,
0100
0000
0000
1000
0000
0000
0010
0000
0000
0100
0000
0000
0010
0000
0000
0000
,
0010
0000
0000
0001
0000
0000
0010
0000
0000
1000
0000
0000
0010
0000
0000
0000
,
0100
0000
0000
1000
0000
0000
0100
0000
0000
0001
0000
0000
0100
0000
0000
0000
,
0001
0000
0000
0010
0000
0000
0100
0000
0000
0010
0000
0000
0001
0000
0000
0000
,
1000
0000
0000
0010
0000
0000
0100
0000
0000
0100
0000
0000
0010
0000
0000
0000
,
1000
0000
0001
1000
0000
0010
0100
0000
0001
1000
0000
0010
0100
0000
0001
0000
,
1000
0100
0010
0100
2000
0000
3001
0000
,
0001
0000
0000
0000
0100
0000
0000
0000
0010
0000
1000
0100
0000
0000
0000
0000
,
0010
0001
0010
0001
2000
0000
3010
0000
,
0100
0000
0000
0001
0000
0000
1000
0000
0000
0100
0000
0000
0010
0000
0000
0000
,
0100
0000
1000
0000
0010
0100
0000
0002
0000
0000
0000
0000
0003
0000
0000
0000
,
1010
0000
0000
0000
0010
0000
0000
0000
0100
0000
0010
1000
0000
0000
0000
0000
,
1000
0000
0100
0000
0010
0001
0000
0020
0000
0000
0000
0000
0030
0000
0000
0000
,
0100
0000
0000
0010
0000
0000
0001
0000
0000
1000
0000
0000
0001
0000
0000
0000
,
0101
0000
0000
1001
0000
0000
0101
0000
0000
1001
0000
0000
0101
0000
0000
0000
,
1001
0000
0000
1100
0000
0000
1001
0000
0000
1100
0000
0000
1001
0000
0000
0000
,
1010
0000
0000
1001
0000
0000
0011
0000
0000
1001
0000
0000
1010
0000
0000
0000
,
0011
0000
0000
1100
0000
0000
0101
0000
0000
1010
0000
0000
1001
0000
0000
0000
,
0101
0000
0000
1010
0000
0000
0101
0000
0000
1010
0000
0000
0101
0000
0000
0000
,
1100
0000
0000
0011
0000
0000
1100
0000
0000
0011
0000
0000
1100
0000
0000
0000
,
1100
0000
0000
0110
0000
0000
0011
0000
0000
0110
0000
0000
1100
0000
0000
0000
,
1001
0000
0000
0101
0000
0000
1001
0000
0000
1010
0000
0000
0011
0000
0000
0000
,
0010
0000
0000
0100
0000
0000
1000
0000
0010
0000
0010
0000
0100
0000
0000
0000
,
0010
0000
0000
1000
0000
0000
0001
0000
0010
0000
0010
0000
0100
0000
0000
0000
,
0010
0000
0000
0100
0000
0000
0010
0000
0001
0000
0001
0000
1000
0000
0000
0000
,
0010
0000
0000
0100
0000
0000
0001
0000
1000
0000
1000
0000
0100
0000
0001
0000
,
0100
0000
0010
0000
0001
0000
1000
0020
0000
0000
0000
0000
0130
0000
0001
0000
,
0010
0000
0000
0010
0000
0000
0010
0000
0000
0010
0000
0000
0100
0000
0100
0000
,
0100
0000
0000
1000
0000
0000
0010
0000
0000
0100
0000
0000
0001
0000
0000
0000
,
0001
0000
0000
1000
0000
0000
0100
0000
0000
1000
0000
0000
0010
0000
0100
0000
,
0001
0000
0000
0010
0000
0000
1000
0000
0000
0010
0000
0000
0100
0000
0000
0000
,
0010
0000
0000
0001
0000
0000
0100
0000
0000
0010
0000
0000
1000
0000
1000
0000
,
1000
0001
0100
0010
,
1000
0000
0001
0000
0100
0010
0000
2000
0000
0000
0000
0000
0100
0000
0100
0000
,
3100
0000
0000
0010
0000
0000
0001
0000
0000
0010
0000
0000
0200
0000
0000
0000
,
1300
0000
0000
0100
0000
0000
0100
0000
0000
0100
0000
0000
2000
0000
0000
0000
,
3010
0000
0000
0100
0000
0000
0001
0000
0000
0001
0000
0000
0200
0000
0000
0000
,
0310
0000
0000
1000
0000
0000
0001
0000
0000
0010
0000
0000
0200
0000
0000
0000
,
0310
0000
0000
0001
0000
0000
0010
0000
0000
0100
0000
0000
0020
0000
0000
0000
,
0130
0000
0000
1000
0000
0000
0010
0000
0000
0001
0000
0000
0020
0000
0000
0000
,
0130
0000
0000
0001
0000
0000
1000
0000
0000
0100
0000
0000
2000
0000
0000
0000
,
3010
0000
0000
0001
0000
0000
0010
0000
0000
0100
0000
0000
0002
0000
0000
0000
,
1003
0001
0000
0100
0000
0010
0000
2000
0000
0000
0000
0000
3000
0000
0000
0000
,
1100
0000
0000
0000
0101
0000
0000
0000
0001
0000
1000
0010
0000
0000
0000
0000
,
0100
0000
0001
0010
0000
1000
0000
0020
0000
0000
0000
0000
0030
0000
0000
0100
,
0010
0000
0001
0000
0100
0010
0000
0020
0000
0000
0000
0000
0030
0000
0000
0000
,
0101
0000
0000
1100
0000
0000
0011
0000
0000
0101
0000
0000
1001
0000
0000
0000
,
0002
0000
0000
0103
0000
0000
0200
0000
0000
0310
0000
0000
0110
0000
0000
0000
,
0110
0000
0000
1010
0000
0000
0101
0000
0000
0011
0000
0000
1100
0000
0000
0000
,
0100
0010
0001
0000
0001
0100
0010
0000
,
1000
0000
0010
0010
0000
0010
0100
0000
0010
0100
0000
0010
0200
0000
0000
0000
,
0300
0000
0000
0000
;

//---------------dance-single - ----------------
#NOTES:
     dance-single:
     :
     Medium:
     6:
     0.325,0.314,0.127,0.103,0.270:
0000
0000
0000
0000
,
0000
0000
0000
0000
,
0000
0000
0000
0000
,
0000
0000
0000
0000
,
0001
0000
0000
0000
,
1000
0000
0000
0000
,
0001
0000
0000
0000
,
0100
0000
0010
0000
,
1000
0000
0000
1000
0000
0000
0001
0000
0000
0001
0000
0000
0100
0000
0000
0000
,
0001
0000
0000
0100
0000
0000
0001
0000
0000
0100
0000
0000
0001
0000
0000
0000
,
0100
0000
0000
0010
0000
0000
0100
0000
0000
0010
0000
0000
0100
0000
0000
0000
,
0010
0000
0000
1000
0000
0000
0010
0000
0000
1000
0000
0000
0010
0000
0000
0000
,
1000
0000
0000
0100
0000
0000
0010
0000
0000
0001
0000
0000
0010
0000
0000
0000
,
0100
0000
0000
1000
0000
0000
0010
0000
0000
0100
0000
0000
0001
0000
0000
0000
,
1000
0000
0000
0001
0000
0000
0100
0000
0000
0001
0000
0000
1000
0000
0000
0000
,
0100
0000
0000
0100
0000
0000
0010
0000
0000
0010
0000
0000
0001
0000
0000
0000
,
1000
0001
0100
0000
0001
0000
1000
0000
,
0100
0000
0010
0000
0001
0010
0100
0000
,
0010
0001
1000
0010
,
0100
0001
0100
0001
0100
0000
0000
0000
,
0010
1000
0010
0000
0100
0000
0010
0000
,
0100
0000
0001
0000
1000
0001
0100
0000
,
0001
0000
1000
0000
0100
0010
0001
0000
,
0010
0000
0100
0000
1000
0100
1000
0000
,
0100
0000
0000
1000
0000
0000
0010
0000
0000
0100
0000
0000
0001
0000
0000
0000
,
1000
0000
0000
1000
0000
0000
0001
0000
0000
0001
0000
0000
0100
0000
0000
0000
,
0001
0000
0000
0100
0000
0000
0010
0000
0000
1000
0000
0000
0100
0000
0000
0000
,
1000
0000
0000
0010
0000
0000
0100
0000
0000
0100
0000
0000
0100
0000
0000
0000
,
0010
0000
0000
0100
0000
0000
0001
0000
0000
1000
0000
0000
0100
0000
0000
0000
,
1000
0000
0000
0100
0000
0000
0010
0000
0000
0001
0000
0000
0010
0000
0000
0000
,
0001
0000
0000
0100
0000
0000
0010
0000
0000
0010
0000
0000
0100
0000
0000
0000
,
0010
0000
0000
1000
0000
0000
0001
0000
0000
0010
0000
0000
0100
0000
0000
0000
,
1000
0000
0000
0100
0000
0000
0020
0000
0000
0000
0000
0000
0030
0000
0000
0000
,
0100
0000
0000
1000
0000
0000
0002
0000
0000
0000
0000
0000
0003
0000
0000
0000
,
0001
0000
0000
0100
0000
0000
0020
0000
0000
0000
0000
0000
0030
0000
0000
0000
,
0100
0000
0000
0010
0000
0000
2000
0000
0000
0000
0000
0000
3000
0000
0000
0000
,
1001
0000
0001
0000
1000
0010
1000
0000
,
0010
0000
0110
0000
0100
0001
0100
0000
,
0001
0000
1001
0000
0001
1000
0100
0000
,
1000
0000
1010
0000
0010
0100
0001
0000
,
1000
0000
1100
0000
0100
0010
0001
0000
,
0100
0000
0110
0000
0010
0100
0001
0000
,
1000
0101
0010
1010
,
0010
0100
0010
1000
1000
0000
0001
0000
,
1000
0000
0000
0100
0000
0000
0010
0000
0000
0001
0000
0000
0020
0000
0000
0000
,
0130
0000
0000
1000
0000
0000
0100
0000
0000
1000
0000
0000
0200
0000
0000
0000
,
1300
0000
0000
0010
0000
0000
0100
0000
0000
0001
0000
0000
2000
0000
0000
3000
,
0001
0000
0000
0001
0000
0000
1000
0000
0000
1000
0000
0000
0020
0000
0000
0000
,
0130
0000
0000
0001
0000
0000
0010
0000
0000
0100
0000
0000
2000
0000
0000
0000
,
3100
0000
0000
0100
0000
0000
1000
0000
0000
1000
0000
0000
0020
0000
0000
0000
,
0130
0000
0000
0100
0000
0000
0001
0000
0000
0001
0000
0000
2000
0000
0000
0000
,
3001
0000
0000
1000
0000
0000
1000
0000
0000
1000
0000
0000
0200
0000
0000
0000
,
1300
0000
0000
0100
0000
0000
0010
0000
0000
0001
0000
0000
0011
0000
0000
0000
,
0001
0000
0000
0100
0000
0000
0010
0000
0000
1000
0000
0000
1010
0000
0000
0000
,
0010
0000
0000
0100
0000
0000
0001
0000
0000
1000
0000
0000
1001
0000
0000
0000
,
1000
0000
0000
0100
0000
0000
0100
0000
0000
0010
0000
0000
0011
0000
0000
0000
,
0001
0000
0000
0010
0000
0000
0100
0000
0000
0010
0000
0000
0011
0000
0000
0000
,
0001
0000
0000
1000
0000
0000
0010
0000
0000
1000
0000
0000
1010
0000
0000
0000
,
1000
0000
0000
0010
0000
0000
0100
0000
0000
0010
0000
0000
0110
0000
0000
0000
,
0010
0000
0000
1000
0000
0000
0001
0000
0000
0010
0000
0000
1100
0000
0000
0000
,
0200
0000
0000
0300
;

//---------------dance-single - ----------------
#NOTES:
     dance-single:
     :
     Easy:
     3:
     0.210,0.266,0.008,0.095,0.000:
0000
0000
0000
0000
,
0000
0000
0000
0000
,
0000
0000
0000
0000
,
0000
0000
0000
0000
,
0001
0000
0000
0000
,
0001
0000
0000
0000
,
0001
0000
0000
0000
,
0001
0000
0000
0000
,
0001
0000
0000
0000
,
1000
0000
0000
0000
,
0010
0000
0000
0000
,
0010
0000
0000
0000
,
0010
0000
0000
0000
,
0100
0000
0000
0000
,
0001
0000
0000
0000
,
1000
0001
0100
0001
,
1000
1000
1000
0000
,
0001
0100
0001
0001
,
1000
0100
1000
0000
,
0100
0010
0010
0000
,
0100
1000
0010
0000
,
1000
0001
0010
0010
,
0001
1000
0100
0000
,
1000
0001
0001
0000
,
0100
0001
0001
1000
,
0100
1000
0010
0010
,
0100
0001
1000
0100
,
1000
1000
1000
0000
,
0010
0100
0001
1000
,
0100
0100
1000
1000
,
0100
1000
0010
0100
,
0001
0001
0001
0000
,
1000
0001
0200
0300
,
0001
1000
0020
0030
,
1000
0001
0200
0300
,
0001
1000
0020
0030
,
0100
0010
1000
0001
,
1000
1000
0000
0000
,
1000
0001
0100
0001
,
0010
0010
0000
0000
,
0010
0100
1000
0001
,
0100
0001
0001
0000
,
0000
1000
0000
0001
,
0100
0100
0100
0000
,
0001
1000
0100
2000
,
3100
1000
0010
0200
,
0310
0100
0001
2000
,
3001
1000
0010
0200
,
0301
1000
0100
2000
,
3100
1000
0010
0200
,
0310
0100
0001
2000
,
3100
0100
0010
0010
,
0011
0001
0001
0001
,
1000
1000
1000
1000
,
0010
0010
0010
0010
,
0100
0100
0100
0100
,
0001
1000
0001
0010
,
0001
0100
0010
0010
,
0100
0001
1000
0100
,
0010
0100
1000
0001
,
0200
0000
0000
0300
;

//---------------dance-single - ----------------
#NOTES:
     dance-single:
     :
     Beginner:
     1:
     0.090,0.143,0.064,0.000,0.000: // measure 1
0000
0000
0000
0000
,  // measure 2
0000
0000
0000
0000
,  // measure 3
0000
0000
0000
0000
,  // measure 4
0000
0000
0000
0000
,  // measure 5
0001
0000
0000
0000
,  // measure 6
1000
0000
0000
0000
,  // measure 7
0001
0000
0000
0000
,  // measure 8
1000
0000
1000
0000
,  // measure 9
0010
0000
0000
0000
,  // measure 10
0100
0000
0000
0000
,  // measure 11
0100
0000
0000
0000
,  // measure 12
0100
0000
0000
0000
,  // measure 13
0001
0000
0000
0000
,  // measure 14
0001
0000
0000
0000
,  // measure 15
1000
0000
0000
0000
,  // measure 16
1000
0000
0000
0000
,  // measure 17
0010
0000
0000
0000
,  // measure 18
0100
0000
0000
0000
,  // measure 19
0001
0000
0000
0000
,  // measure 20
1000
0000
0000
0000
,  // measure 21
0100
0000
0000
0000
,  // measure 22
1000
0000
0000
0000
,  // measure 23
0001
0000
0000
0000
,  // measure 24
0100
0000
0000
0000
,  // measure 25
0001
0000
0000
0000
,  // measure 26
1000
0000
0000
0000
,  // measure 27
0100
0000
0000
0000
,  // measure 28
1000
0000
0000
0000
,  // measure 29
0010
0000
0000
0000
,  // measure 30
0100
0000
0000
0000
,  // measure 31
0001
0000
0000
0000
,  // measure 32
1000
0000
0000
0000
,  // measure 33
0100
0000
0000
0000
,  // measure 34
0100
0000
0000
0000
,  // measure 35
0100
0000
0000
0000
,  // measure 36
0100
0000
0000
0000
,  // measure 37
0010
0010
0010
0000
,  // measure 38
0001
0000
0000
0000
,  // measure 39
1000
1000
1000
0000
,  // measure 40
0100
0000
0000
0000
,  // measure 41
0010
0010
0010
0000
,  // measure 42
0100
0000
0000
0000
,  // measure 43
0100
0000
0010
0000
,  // measure 44
0100
0100
0100
0000
,  // measure 45
0001
0000
0000
0000
,  // measure 46
1000
0000
0000
0000
,  // measure 47
0010
0000
0000
0000
,  // measure 48
0100
0000
0000
0000
,  // measure 49
0010
0000
0000
1000
,  // measure 50
1000
0000
0000
0001
,  // measure 51
0001
0000
0000
0100
,  // measure 52
0100
0000
0000
0010
,  // measure 53
0110
0000
0000
0000
,  // measure 54
1001
0000
0000
0000
,  // measure 55
0110
0000
0000
0000
,  // measure 56
1001
0000
0000
0000
,  // measure 57
1001
0000
0000
0000
,  // measure 58
0110
0000
0000
0000
,  // measure 59
0110
0000
0000
0000
,  // measure 60
1001
0000
0000
0000
,  // measure 61
0010
0000
0000
0000
;
