#TITLE:Rawdiculous;
#SUBTITLE:;
#ARTIST:John O-Callaghan vs. Bryan Kearney;
#TITLETRANSLIT:;
#SUBTITLETRANSLIT:;
#ARTISTTRANSLIT:;
#CREDIT:;
#BANNER:Rawdiculous.png;
#BACKGROUND:Rawdiculous-background.png;
#JACKET:Rawdiculous-jacket.png;
#LYRICSPATH:;
#CDTITLE:;
#MUSIC:Rawdiculous.mp3;
#OFFSET:-0.027;
#SAMPLESTART:13.720;
#SAMPLELENGTH:12.000;
#SELECTABLE:YES;
#BPMS:0.000=140.000,139.000=70.000,141.000=140.000,153.000=70.000,154.000=35.000,154.250=140.000,154.750=140.000;
#STOPS:126.000=0.429
,154.250=0.110
,169.000=0.214
,169.500=0.214
,216.000=0.107
,216.250=0.107
,216.500=0.054
,216.625=0.054
,216.750=0.107
;
#BGCHANGES:;

//---------------dance-single - ----------------
#NOTES:
     dance-single:
     :
     Hard:
     11:
     0.746,0.938,0.178,0.065,0.867: // measure 1
0000
0000
0000
0000
,  // measure 2
0000
0000
0000
0000
,  // measure 3
0000
0000
0000
0000
,  // measure 4
0000
0000
0000
0000
,  // measure 5
0000
0000
0000
0000
,  // measure 6
0000
0000
0000
0000
,  // measure 7
0000
0000
0000
0000
,  // measure 8
0000
0000
0000
0000
,  // measure 9
1001
0000
0000
0001
0000
0000
0100
0000
0000
0001
0000
0010
0100
0000
0010
0000
,  // measure 10
0001
0000
0000
0100
0000
0000
0010
0000
0000
0100
0000
0010
1000
0000
0100
0000
,  // measure 11
0010
0000
0000
0100
0000
0000
1000
0000
0000
0010
0000
0100
0001
0000
0010
0000
,  // measure 12
0001
0000
0000
0100
0000
0000
0010
0000
0000
1000
0000
0100
0010
0000
0001
0000
,  // measure 13
1000
0000
0000
0010
0000
0000
0100
0000
0000
0001
0000
0010
0100
0000
1000
0000
,  // measure 14
0001
0000
0000
1000
0000
0000
0010
0000
0000
0100
0000
0001
0010
0000
0001
0000
,  // measure 15
1000
0000
0000
0010
0000
0000
0100
0000
0000
0010
0000
1000
0100
0000
0010
0000
,  // measure 16
0100
0000
0000
0010
0000
0000
0001
0000
0000
0100
0000
0010
1000
0000
0001
0000
,  // measure 17
0010
0000
0010
0100
0000
0100
0010
0000
0010
0100
0000
0100
0010
0000
0001
0000
,  // measure 18
1000
0000
1000
0010
0000
0010
1000
0000
1000
0010
0000
0010
1000
0000
0100
0000
,  // measure 19
0010
0000
0001
0010
0000
0010
0001
0000
0001
0010
0000
0010
0001
0000
0100
0000
,  // measure 20
0010
0000
1000
0001
0000
0001
1000
0000
1000
0001
0000
0001
0100
0000
0010
0000
,  // measure 21
1000
0000
1000
0010
0000
0010
0100
0000
0100
0001
0000
0001
0010
0000
0100
0000
,  // measure 22
1000
0000
1000
0100
0000
0100
0010
0000
0010
0001
0000
0001
0100
0000
0010
0000
,  // measure 23
0100
0001
0100
0001
0100
0001
0100
0001
0100
0001
0100
0001
0100
0001
0100
0001
,  // measure 24
0100
0010
1000
0001
0100
0010
1000
0001
0100
0010
1000
0001
0100
0010
1000
0001
,  // measure 25
0100
0000
0001
0001
0000
0100
0100
0000
0001
0001
0000
0100
0100
0000
0001
0000
,  // measure 26
0100
0000
0010
0010
0000
1000
1000
0000
0010
0010
0000
1000
1000
0000
0010
0000
,  // measure 27
0100
0000
0001
0001
0000
1000
1000
0000
0001
0001
0000
1000
1000
0000
0100
0000
,  // measure 28
0010
0000
0100
0100
0000
1000
1000
0000
0100
0100
0000
1000
1000
0000
0100
0000
,  // measure 29
1000
0001
0001
0100
1000
0100
0010
1000
,  // measure 30
0010
0001
0010
1000
0010
0100
0001
1000
,  // measure 31
0100
1000
0100
1000
0100
1000
0100
1000
0100
1000
0100
1000
0100
1000
0100
1000
,  // measure 32
0001
0010
0100
1000
0010
0100
0001
1000
0001
0000
0000
0000
1100
0000
0100
0000
,  // measure 33
0010
0000
0001
0000
0100
0000
0010
0100
0001
0000
1000
0000
0100
0000
0010
0000
,  // measure 34
0100
0000
1000
0000
0010
0000
0100
0001
0010
0000
1000
0000
0010
0000
0100
0000
,  // measure 35
1000
0000
0010
0000
0100
0000
0001
0010
0100
0000
1000
0000
0001
0000
0100
0001
,  // measure 36
0010
0000
0100
0000
1000
0000
0000
0001
0100
0000
0000
0000
0010
0000
0000
0000
1000
0000
0000
0000
0100
0000
0000
0000
1000
0000
0000
0000
0001
0000
0100
0000
,  // measure 37
0001
0000
0100
0000
0010
0000
1000
0000
0001
0000
1000
0000
0100
0000
0010
0001
,  // measure 38
0010
0000
0001
0000
0011
0000
1010
0000
1001
0000
0001
0000
0010
0000
0100
1000
,  // measure 39
0010
0000
0000
0000
0000
0000
0100
0000
0000
0000
0000
0000
0002
0000
0023
0000
0230
0000
2300
0000
3200
0000
0320
0000
0002
0000
0000
0033
0000
0000
0000
0000
0000
0000
0000
0000
1000
0000
0000
0000
0000
0000
0001
0000
0000
0000
0000
0000
,  // measure 40
0010
0000
0001
0000
0100
0001
0100
0001
0100
0000
0001
0000
0100
0010
0100
0010
,  // measure 41
0100
0000
0010
0000
0100
0001
0100
0001
0100
0000
0010
0000
1000
0010
1000
0010
,  // measure 42
1000
0000
0100
0000
0010
0100
0010
0100
0010
0000
0001
0000
0100
0001
0100
0001
,  // measure 43
0100
0010
0110
1001
0101
1010
1100
1000
,  // measure 44
0010
1000
0010
1000
0010
0000
0100
0000
0001
0100
0001
0100
0001
0000
0010
0000
,  // measure 45
0100
0010
0100
0010
0100
0000
1000
0000
0100
1000
0100
1000
0100
0000
0010
0000
,  // measure 46
0001
1000
0001
1000
0001
0000
0100
0000
0010
1000
0010
1000
0010
0000
1000
0000
,  // measure 47
0001
1000
0001
1000
0001
0000
1000
0000
0100
0000
1100
0000
0000
0000
0011
0000
,  // measure 48
0000
0000
0001
1000
0010
0000
1010
0000
0000
0000
0101
0000
0000
0000
0011
0000
,  // measure 49
0000
0000
0010
0100
1000
0000
1001
0000
0000
0000
0101
0000
0000
0000
1001
0000
,  // measure 50
0000
0000
1000
0010
0100
0000
0101
0000
0000
0000
1001
0000
0000
0000
0011
0000
,  // measure 51
0000
0000
0010
0100
1000
0000
0010
0000
0100
0000
0001
0000
0010
0000
0100
0000
,  // measure 52
0010
0001
0100
1000
0100
0010
1000
0010
,  // measure 53
1000
0000
0001
0000
0010
0000
0100
0000
1000
0010
0100
0001
1000
0010
0100
0001
,  // measure 54
0010
0100
1000
0100
1000
0010
0100
0010
0100
0001
0100
0001
0100
0010
1000
0100
,  // measure 55
0010
0000
0010
0000
0010
0100
0010
0000
1001
0000
0000
0000
1000
0000
0010
0000
0000
0000
0100
0000
0010
0000
0000
0000
0010
0000
1000
0000
0000
0000
1000
0000
,  // measure 56
0100
0000
1000
0000
0010
0000
0100
0001
0000
0010
0100
0000
1000
0010
0000
0100
,  // measure 57
0001
0000
1000
0000
0100
0000
0010
0100
0000
0100
1000
0000
1000
0010
0000
0010
,  // measure 58
0100
0000
0001
0000
1000
0000
0100
0010
0000
0100
1000
0000
0010
0100
0000
0001
,  // measure 59
0010
0000
0001
0000
0100
0000
0010
1000
0000
0010
0100
0000
0100
0001
0000
0001
,  // measure 60
0010
0000
0100
0000
0010
0000
0001
0100
0000
0010
1000
0000
1000
0100
0000
0100
,  // measure 61
0010
0000
0100
0000
1000
0000
0010
1000
0000
1000
0001
0000
0001
0010
0000
0010
,  // measure 62
0100
0000
1000
0000
0001
0000
0001
0100
0000
0100
0010
0000
0010
1000
0000
1000
,  // measure 63
0100
0000
1000
0000
0001
0000
0001
0001
0000
0100
0100
0000
0010
0010
0000
0100
,  // measure 64
0001
0000
0001
0000
1000
0000
0100
0100
0000
1000
1000
0000
0010
0010
0000
0100
,  // measure 65
0010
0000
1000
0000
0001
0000
0001
0010
0000
0100
1000
0000
0001
0010
0000
0100
,  // measure 66
1000
0000
0001
0000
1000
0000
0010
1000
0000
0001
0100
0000
0010
1000
0000
0001
,  // measure 67
0100
0000
0010
0000
0100
0000
0010
1000
0000
0100
0010
0000
0100
1000
0000
0010
,  // measure 68
0100
0000
0001
0000
0010
0000
0100
0010
0000
0001
0100
0000
0010
0100
0000
0100
,  // measure 69
0010
0000
1000
0000
0001
0000
0100
0010
0000
1000
0100
0000
0010
0001
0000
0010
,  // measure 70
0100
0000
0010
0000
0001
1000
0100
1000
0001
0100
0001
1000
0020
0000
0000
0000
,  // measure 71
0000
0030
0000
0000
0000
0000
0000
0000
;

//---------------dance-single - ----------------
#NOTES:
     dance-single:
     :
     Medium:
     8:
     0.580,0.709,0.819,0.292,0.191: // measure 1
0000
0000
0000
0000
,  // measure 2
0000
0000
0000
0000
,  // measure 3
0000
0000
0000
0000
,  // measure 4
0000
0000
0000
0000
,  // measure 5
0000
0000
0000
0000
,  // measure 6
0000
0000
0000
0000
,  // measure 7
0000
0000
0000
0000
,  // measure 8
0000
0000
0000
0000
,  // measure 9
0101
0000
0000
0001
0000
0000
1000
0000
0000
0100
0000
0000
0010
0000
0100
0000
,  // measure 10
1000
0000
0000
0001
0000
0000
0100
0000
0000
0001
0000
0000
0010
0000
0001
0000
,  // measure 11
0100
0000
0000
1000
0000
0000
0100
0000
0000
0010
0000
0000
1000
0000
0010
0000
,  // measure 12
0100
0000
0000
0001
0000
0000
0010
0000
0000
1000
0000
0000
0010
0000
0100
0000
,  // measure 13
1000
0000
0000
0100
0000
0000
1000
0000
0000
0010
0000
0000
0100
0000
0001
0000
,  // measure 14
0010
0000
0000
0001
0000
0000
1000
0000
0000
0010
0000
0000
0100
0000
1000
0000
,  // measure 15
0100
0000
0000
0010
0000
0000
1000
0000
0000
0100
0000
0000
0001
0000
0100
0000
,  // measure 16
0010
0000
0000
0100
0000
0000
1000
0000
0000
0001
0000
0000
0100
0000
0001
0000
,  // measure 17
0011
0010
0100
0001
0000
0001
0100
1000
,  // measure 18
0000
1000
0100
0010
0000
0010
0001
1000
,  // measure 19
0000
1000
0100
0001
0000
0001
0010
0100
,  // measure 20
0000
0010
0001
0100
0000
1000
0100
0010
,  // measure 21
0000
0100
0010
1000
0000
0010
0100
0110
,  // measure 22
0000
0100
0001
1000
0000
0001
0010
0011
,  // measure 23
0002
0100
1000
0103
,  // measure 24
2000
0100
0001
3100
,  // measure 25
1002
0000
0203
0000
2300
0000
3100
0010
,  // measure 26
2000
0000
3020
0000
0230
0000
0301
0010
,  // measure 27
2000
0000
3020
0000
0230
0000
0310
0001
,  // measure 28
0200
0000
2300
0000
3200
0000
0310
1000
,  // measure 29
0002
1003
0200
0310
0002
0013
0200
1300
,  // measure 30
0200
0310
0200
1300
0020
0130
0020
1030
,  // measure 31
0001
0010
0100
1000
0100
0010
0001
0010
,  // measure 32
0100
1000
0100
0010
0001
0000
0001
1001
,  // measure 33
0000
1001
0000
0010
0100
1001
0000
0101
,  // measure 34
0000
1010
0000
1000
0100
0011
0000
1100
,  // measure 35
0000
0010
1001
0000
0101
0000
1002
0203
,  // measure 36
2300
3200
0310
0110
0000
1001
0000
0001
,  // measure 37
0101
0100
0000
1010
0000
0101
0000
0010
,  // measure 38
0110
1000
0001
0001
0001
0000
1001
0000
,  // measure 39
0110
0000
0000
0000
0002
0000
0200
0003
0020
0330
0000
0000
0100
0000
0110
0000
,  // measure 40
0000
0110
0000
0110
1000
0001
0000
1001
,  // measure 41
1000
0100
0000
0110
0010
0001
0000
0101
,  // measure 42
0001
0100
0000
0110
0010
0100
0000
1010
,  // measure 43
0010
1000
1010
0101
1001
0001
1001
0000
,  // measure 44
0000
0101
0100
0010
0000
1010
0010
0100
,  // measure 45
0000
0110
0100
0010
0000
1010
0010
1000
,  // measure 46
0000
0011
0010
0001
0000
0101
0100
0001
,  // measure 47
0000
1100
0100
1000
0002
0000
0100
0000
,  // measure 48
0100
0103
2000
0100
,  // measure 49
0100
3100
0002
0100
,  // measure 50
0100
0103
2000
0100
,  // measure 51
0100
3100
0012
0010
,  // measure 52
0010
0013
2010
0010
,  // measure 53
0010
0000
3010
0000
0001
0010
1000
0010
,  // measure 54
0001
0100
1000
0100
0010
1000
0001
0010
,  // measure 55
0100
0010
0001
1001
0101
0000
0000
0101
0000
0000
0101
0000
0000
0101
0000
0000
,  // measure 56
0001
0000
0100
0000
0110
0000
0000
0110
0000
0000
0110
0000
0000
0110
0000
0000
,  // measure 57
0010
0000
1000
0000
1100
0000
0000
1100
0000
0000
1100
0000
0000
1100
0000
0000
,  // measure 58
0100
0000
0010
0000
0011
0000
0000
0011
0000
0000
0011
0000
0000
0011
0000
0000
,  // measure 59
0001
0000
0100
0000
1001
0000
0000
0101
0000
0000
1001
0000
0000
1100
0000
0000
,  // measure 60
1000
0000
0100
0000
0110
0000
0000
1100
0000
0000
0110
0000
0000
0011
0000
0000
,  // measure 61
0001
0000
0010
0000
1010
0000
0000
0110
0000
0000
0011
0000
0000
0110
0000
0000
,  // measure 62
0010
0000
0001
0000
0101
0000
0000
1100
0000
0000
0101
0000
0000
1100
0000
0000
,  // measure 63
0001
0000
0100
0000
0110
0000
0000
1001
0000
0000
0101
0000
0000
1010
0000
0000
,  // measure 64
1000
0000
0100
0000
1100
0000
0000
0110
0000
0000
0011
0000
0000
0101
0000
0000
,  // measure 65
0001
0000
0100
0000
0110
0000
0000
1001
0000
0000
0101
0000
0000
1010
0000
0000
,  // measure 66
1000
0000
0100
0000
0101
0000
0000
0101
0000
0000
0011
0000
0000
0101
0000
0000
,  // measure 67
0001
0000
0010
0000
0110
0000
0000
0110
0000
0000
0110
0000
0000
0110
0000
0000
,  // measure 68
0001
0000
1000
0000
1001
0000
0000
1001
0000
0000
1001
0000
0000
1001
0000
0000
,  // measure 69
0010
0100
0001
0010
0100
0010
0001
0010
,  // measure 70
0100
0000
1000
0000
0100
0000
0001
0000
0100
0000
1000
0020
0000
0000
0000
0000
,  // measure 71
0030
0000
0000
0000
;

//---------------dance-single - ----------------
#NOTES:
     dance-single:
     :
     Easy:
     5:
     0.356,0.482,0.154,0.170,0.000: // measure 1
0000
0000
0000
0000
,  // measure 2
0000
0000
0000
0000
,  // measure 3
0000
0000
0000
0000
,  // measure 4
0000
0000
0000
0000
,  // measure 5
0000
0000
0000
0000
,  // measure 6
0000
0000
0000
0000
,  // measure 7
0000
0000
0000
0000
,  // measure 8
0000
0000
0000
0000
,  // measure 9
1001
0001
1000
0010
,  // measure 10
1000
0001
1000
0100
,  // measure 11
1000
0001
1000
0001
,  // measure 12
1000
0001
1000
0001
,  // measure 13
1000
0001
1000
0010
,  // measure 14
1000
0001
1000
0100
,  // measure 15
1000
0001
1000
0001
,  // measure 16
0001
1000
0001
1000
,  // measure 17
1010
0010
0100
0011
,  // measure 18
1100
0010
0001
1001
,  // measure 19
0101
0001
0100
0010
,  // measure 20
0010
1000
0010
0100
,  // measure 21
0110
0010
1000
1001
,  // measure 22
0101
0001
1000
0100
,  // measure 23
2100
3100
0102
0103
,  // measure 24
1020
0000
1030
0001
0020
0000
0031
0000
,  // measure 25
0002
0000
0023
0000
,  // measure 26
0001
0001
0001
0000
,  // measure 27
0230
0000
2300
0000
,  // measure 28
0010
0010
0020
3030
,  // measure 29
0010
0100
0010
1000
,  // measure 30
0001
0010
0100
1000
,  // measure 31
0202
0000
0000
0000
,  // measure 32
0000
0000
0000
0000
0000
0303
0001
1000
,  // measure 33
0000
0100
0000
0100
0010
0001
0000
0010
,  // measure 34
0000
0001
0000
0100
0010
0100
0000
0010
,  // measure 35
0000
1000
1001
0000
0001
0000
0100
0010
,  // measure 36
0010
1001
0001
0100
0000
0100
0000
0010
,  // measure 37
1000
0100
0000
0001
0000
0100
0000
0010
,  // measure 38
0001
1000
0010
1000
0010
0000
0100
0000
,  // measure 39
0010
0000
0000
0000
2000
0000
0000
0000
0020
3030
0000
0000
0100
0000
0010
0000
,  // measure 40
0000
1000
0000
0010
0100
0010
0000
0100
,  // measure 41
0000
0001
0000
1000
0100
1000
0000
0100
,  // measure 42
0000
0010
0000
0001
0010
0001
0000
0010
,  // measure 43
0000
0100
0010
0001
0100
1000
0100
0000
,  // measure 44
0000
1000
0100
0010
0000
0100
0000
0010
,  // measure 45
0000
1000
0010
1000
0000
0010
0000
0100
,  // measure 46
0000
0001
1000
0001
0000
0100
0000
0010
,  // measure 47
0000
1000
0010
0100
0002
0000
0100
0000
,  // measure 48
0100
0103
0200
0010
,  // measure 49
0010
0000
0010
0000
0310
1000
0200
0000
,  // measure 50
0010
0010
0320
0001
,  // measure 51
0001
0001
0031
0010
,  // measure 52
0100
1000
0001
0010
,  // measure 53
0100
1000
0220
0000
,  // measure 54
0000
0000
0000
0330
,  // measure 55
1001
0110
1001
0000
0001
0000
0100
0000
,  // measure 56
0010
1000
0010
0000
0100
0000
0001
0000
,  // measure 57
0010
0100
1000
0000
0100
0000
1000
0000
,  // measure 58
0010
0100
1000
0000
0100
0000
0001
0000
,  // measure 59
0010
0100
0010
0000
0100
0000
0001
0000
,  // measure 60
1000
0100
1000
0000
0010
0000
0100
0000
,  // measure 61
0001
0010
0100
0000
0010
0000
0001
0000
,  // measure 62
1000
0001
0100
0000
0001
0000
1000
0000
,  // measure 63
0100
1000
0010
0000
0100
0000
0001
0000
,  // measure 64
1000
0010
0100
0000
0010
0000
1000
0000
,  // measure 65
0001
0010
0100
0000
0010
0000
0001
0000
,  // measure 66
1000
0010
0100
0000
0010
0000
1000
0000
,  // measure 67
0001
0100
0001
0000
0100
0000
0010
0000
,  // measure 68
0100
0010
0001
0000
0010
0000
0100
0000
,  // measure 69
1000
0100
0010
0000
0100
0000
1000
0000
,  // measure 70
0010
0100
0002
0020
,  // measure 71
0033
0000
0000
0000
;

//---------------dance-single - ----------------
#NOTES:
     dance-single:
     :
     Beginner:
     3:
     0.170,0.254,0.073,0.000,0.000: // measure 1
0000
0000
0000
0000
,  // measure 2
0000
0000
0000
0000
,  // measure 3
0000
0000
0000
0000
,  // measure 4
0000
0000
0000
0000
,  // measure 5
0000
0000
0000
0000
,  // measure 6
0000
0000
0000
0000
,  // measure 7
0000
0000
0000
0000
,  // measure 8
0000
0000
0000
0000
,  // measure 9
1001
0000
0000
0001
,  // measure 10
0100
0000
0000
0100
,  // measure 11
0010
0000
0000
0010
,  // measure 12
0010
0000
0000
1000
,  // measure 13
0001
0000
0000
1000
,  // measure 14
0100
0000
0000
1000
,  // measure 15
0010
0000
0000
0000
,  // measure 16
0100
0000
0000
0000
,  // measure 17
0110
0000
0100
0010
,  // measure 18
1000
0000
0001
0000
,  // measure 19
1000
0000
0000
0100
,  // measure 20
0100
0000
0010
0000
,  // measure 21
0001
0000
1000
0000
,  // measure 22
0010
0000
0100
0000
,  // measure 23
0010
0000
1000
0000
,  // measure 24
0001
0000
1000
0001
,  // measure 25
0100
0000
0010
0000
,  // measure 26
1000
1000
1000
0000
,  // measure 27
0010
0000
0100
0000
,  // measure 28
0001
0001
0001
0000
,  // measure 29
1000
0000
0010
0000
,  // measure 30
0100
0100
0100
0000
,  // measure 31
0001
0010
0100
1000
,  // measure 32
0100
0010
0001
1001
,  // measure 33
0000
0001
1000
0001
,  // measure 34
0000
0100
0010
0100
,  // measure 35
0000
0110
0000
1001
,  // measure 36
0000
0010
0000
0100
,  // measure 37
0001
1000
0000
0100
,  // measure 38
1000
0010
0010
0100
,  // measure 39
0000
0010
0100
0010
,  // measure 40
0000
0100
0000
0010
,  // measure 41
0000
1000
0000
0001
,  // measure 42
0000
1000
0000
0010
,  // measure 43
0000
0100
0010
0000
,  // measure 44
0100
0000
0001
0000
,  // measure 45
1000
0000
0100
0000
,  // measure 46
1000
0000
0010
0000
,  // measure 47
0100
0000
0110
0000
,  // measure 48
0000
0010
1000
0000
,  // measure 49
0000
1000
1000
0000
,  // measure 50
0000
0000
0001
0000
,  // measure 51
0000
0000
0010
0000
,  // measure 52
0000
0001
0100
0000
,  // measure 53
0000
0010
0100
0000
,  // measure 54
0010
0000
1000
0001
,  // measure 55
0110
0010
0000
0000
,  // measure 56
0100
0001
0000
0000
,  // measure 57
1000
0100
0000
0000
,  // measure 58
0000
0100
0000
0000
,  // measure 59
0000
0010
0000
0100
,  // measure 60
0010
0001
0000
1000
,  // measure 61
0001
0100
0000
0000
,  // measure 62
0000
0001
0000
0000
,  // measure 63
0000
1001
0000
1000
,  // measure 64
1000
0001
0000
0100
,  // measure 65
0100
0010
0000
0000
,  // measure 66
0000
0100
0000
0000
,  // measure 67
0000
0010
0000
1000
,  // measure 68
1000
0100
0000
0100
,  // measure 69
0010
0001
0000
1000
,  // measure 70
0000
0010
0100
1001
;
