#TITLE:Ramses;
#SUBTITLE:;
#ARTIST:teranoid;
#TITLETRANSLIT:;
#SUBTITLETRANSLIT:;
#ARTISTTRANSLIT:;
#CREDIT:;
#BANNER:bn.png;
#BACKGROUND:bg.png;
#LYRICSPATH:;
#CDTITLE:cdtitle.png;
#MUSIC:Ramses.mp3;
#OFFSET:1.375;
#SAMPLESTART:17.000;
#SAMPLELENGTH:12.000;
#SELECTABLE:YES;
#BPMS:0.000=170.000,4.000=172.000,5.000=174.000,6.000=176.000,7.000=178.000,8.000=180.000,9.000=182.000,10.000=184.000,11.000=186.000,12.000=188.000,13.000=190.000,14.000=192.000,15.000=194.000,16.000=196.000,17.000=198.000,18.000=200.000,19.000=202.000,20.000=204.000,21.000=206.000,22.000=208.000,23.000=210.000,24.000=215.000,25.000=220.000,26.000=225.000,27.000=250.000,28.000=300.000,30.000=349.999,32.000=399.999,34.000=449.999,36.000=499.999,105.000=85.002,135.000=170.002;
#STOPS:135.000=1.059
;
#BGCHANGES:;

//---------------dance-single - ----------------
#NOTES:
     dance-single:
     :
     Medium:
     8:
     0.429,0.759,0.298,0.162,0.327:
0000
0000
0000
0000
,
2002
0000
0000
0000
,
0000
0000
0000
0000
,
0000
0000
0000
0000
,
0000
0000
0000
0000
,
0000
0000
0000
0000
,
0000
0000
0000
0000
,
0000
0000
0000
0000
,
0000
0000
0000
0000
,
0000
0000
0000
0000
,
0000
0000
0000
0000
,
0000
0000
0000
0000
,
0000
0000
0000
0000
,
0000
3000
0000
0000
0000
0000
0000
0000
,
0000
0000
0000
0000
0000
0003
0000
0000
,
0000
0000
0000
0000
,
0000
0000
0000
0000
,
0000
0000
0000
0000
,
0000
0000
0000
0000
,
0000
0000
0000
0000
,
0000
0000
0000
0000
,
0000
0000
0000
0000
,
0000
0000
0000
0000
,
0000
0000
0000
0000
,
0000
0000
0000
0000
,
0000
0000
0000
0000
,
0000
0000
2000
0000
0000
3100
0020
0000
,
0000
0130
2000
0000
0002
0000
0000
3003
,
0001
0100
0020
0000
0000
0000
0000
0000
,
0230
0002
0303
0000
,
0000
0000
1001
0000
0000
0010
0100
0000
,
0010
1000
1010
0000
0101
0000
0000
0000
,
0001
0010
0200
0000
0000
0000
1000
0000
,
0000
0310
2002
3003
,
0001
0100
0010
0010
,
0100
0001
1000
1000
,
0100
0010
0100
0100
,
0010
0001
1000
0010
,
0100
0001
1000
0100
,
1000
0010
0100
0001
,
1000
1000
0001
0001
,
0100
0100
0001
0001
,
1001
0001
1000
0100
,
1000
0001
0100
0001
,
0010
0100
1000
1000
,
0100
1000
0010
0100
,
0100
0010
1000
0001
,
0010
0100
1000
0001
,
0100
0010
0100
0001
,
1001
0001
1001
0101
,
1001
0000
0000
1000
0000
0000
0010
0000
0000
0100
0000
0001
,
0100
0000
0000
0010
0000
0000
1000
0000
0000
0100
0000
0010
,
0001
0000
0000
0010
0000
0000
0100
0000
0000
0010
0000
0001
,
0100
0000
0000
0010
0000
0000
1000
0000
0000
0100
0000
0100
,
0010
0011
1100
0011
,
0101
1010
0101
1010
,
1000
0000
0100
0000
0010
0000
0001
0000
0100
0000
0010
0000
,
2002
0000
0000
3003
,
0001
0000
1000
0000
0010
0000
1000
0000
0000
1010
0000
0000
,
0010
0000
0100
0000
0001
0000
1000
0000
0000
1001
0000
0000
,
0001
0000
0010
0000
0100
0000
1000
0000
0000
1100
0000
0000
,
1000
0000
0010
0000
0100
0000
0010
0000
0000
0110
0000
0000
,
0010
0000
0100
0000
0001
0000
1000
0000
0000
1001
0000
0000
,
0001
0000
0010
0000
0100
0000
1000
0000
0000
1100
0000
0000
,
1000
0000
0100
0000
0010
0000
0001
0000
0010
0000
0100
0000
,
1000
0000
0010
0000
0100
0000
0001
0000
1000
0000
0001
0000
,
0100
0000
0001
0000
0100
0000
0010
0000
0000
0110
0000
0000
,
0010
0000
0100
0000
0001
0000
1000
0000
0000
1100
0000
0000
,
1000
0000
0100
0000
0010
0000
0100
0000
0000
1100
0000
0000
,
0100
0000
1000
0000
0010
0000
0100
0000
0000
0101
0000
0000
,
0001
0000
0001
0010
0000
0010
0100
0000
0100
1000
0000
1000
,
0001
0000
0001
0100
0000
0100
0010
0100
0010
1000
0001
0010
,
0110
0000
0110
0000
0110
0000
0110
0000
0110
0000
0110
0000
,
1001
0000
0000
0000
,
0001
0000
1000
0200
0000
0000
0310
0000
0000
0001
0000
0000
,
0100
0010
1000
0010
,
0100
0000
0001
0020
0000
0000
0130
0000
0000
0010
0000
0000
,
0001
0000
0000
1000
0000
0000
0010
0000
0100
0010
0000
0100
,
0010
0000
0010
2000
0000
0000
3100
0000
0000
0010
0000
0000
,
0001
0100
0010
2000
,
3100
0000
0100
0010
0000
0000
0001
0000
0000
0100
0000
0000
,
1000
0000
0000
0100
0000
0000
0010
0000
0010
1000
0000
0000
,
0001
0000
1000
0001
0000
0001
1000
0000
1000
0010
0000
0010
,
0100
0001
0010
0100
,
1000
0000
1000
0100
0000
0100
0010
0000
0010
0001
0000
0001
,
0100
0010
1000
0100
,
0010
0000
0010
0001
0000
0001
0010
0000
0010
0100
0000
0100
,
1000
0000
1000
0100
0000
0100
0010
0000
0010
0001
0000
0001
,
0100
0000
0100
0010
0000
0010
1000
0000
1000
0100
0000
0100
,
0020
0030
0000
0000
;

//---------------dance-single - ----------------
#NOTES:
     dance-single:
     :
     Easy:
     6:
     0.388,0.683,0.638,0.298,0.000:
0000
0000
0000
0000
,
2002
0000
0000
0000
,
0000
0000
0000
0000
,
0000
0000
0000
0000
,
0000
0000
0000
0000
,
0000
0000
0000
0000
,
0000
0000
0000
0000
,
0000
0000
0000
0000
,
0000
0000
0000
0000
,
0000
0000
0000
0000
,
0000
0000
0000
0000
,
0000
0000
0000
0000
,
0000
0000
0000
0000
,
0000
0000
0000
0000
,
0000
0000
0000
0000
,
0000
0000
0000
0000
,
3003
0000
0000
0000
,
0000
0000
0000
0000
,
0000
0000
0000
0000
,
0000
0000
0000
0000
,
0000
0000
0000
0000
,
0000
0000
0000
0000
,
0000
0000
0000
0000
,
0000
0000
0000
0000
,
0000
0000
0000
0000
,
0000
0000
0000
0000
,
0000
0020
0000
0100
,
0000
0130
0002
0000
,
1003
0001
2000
0000
0000
0000
0000
0000
,
0010
0020
0000
3030
,
0000
0201
0000
0001
,
0301
0010
0200
0000
2000
0000
0000
0300
,
0100
0100
0000
0001
,
0000
0020
0000
3030
,
0110
0010
0100
0100
,
0010
1000
0001
0001
,
1000
0001
1000
0001
,
0100
0001
0100
0001
,
0010
0100
0010
0100
,
1000
0100
1000
0100
,
1000
0010
1000
0010
,
1000
0010
1000
0010
,
0110
0010
0100
0001
,
0100
0001
0100
0010
,
1000
0001
1000
0001
,
0100
0001
1000
0100
,
1000
0010
0100
0010
,
1000
0010
0001
0010
,
0100
0100
0001
0001
,
1001
0001
1001
1000
,
1001
0001
0001
0001
,
1000
1000
1000
1000
,
0010
0010
0010
0010
,
0100
0100
0100
0100
,
0002
0103
0200
0310
,
0020
1030
2000
3100
,
2000
3200
0320
0032
,
0023
0100
0100
0130
,
0110
0110
0110
0110
,
1001
1001
1001
1001
,
0110
0110
0110
0110
,
1001
1001
1001
1001
,
0101
0101
0101
0101
,
1010
1010
1010
1010
,
0101
0101
1010
1010
,
0101
1010
0101
1010
,
1100
1100
1100
1100
,
0011
0011
0011
0011
,
1100
1100
1100
1100
,
0011
0011
0011
0011
,
1100
0011
0101
1010
,
1001
0110
1001
0110
,
0101
1010
1100
0110
,
0022
0000
0000
0033
,
0022
0000
0000
0000
0000
0030
0010
0000
,
0020
0000
0000
0000
0000
0030
0010
0000
,
0020
0000
0000
0030
0020
0000
0000
0000
,
0000
0000
0000
0030
0010
0000
0010
0000
,
0020
0000
0000
0000
,
0000
0000
0000
0030
0010
0000
0000
0000
,
0020
0000
0033
0000
,
0000
0000
0000
0000
,
2020
0000
0000
0000
0000
3000
1000
0000
,
2000
0000
0000
0000
0000
3000
1000
0000
,
2000
0000
0000
3000
2000
0000
0000
0000
,
0000
0000
0000
3000
1000
0000
1000
0000
,
1030
0100
0010
0001
,
0010
0100
1000
0010
,
0110
1001
0101
1010
,
0202
0303
0000
0000
;

//---------------dance-single - ----------------
#NOTES:
     dance-single:
     :
     Beginner:
     3:
     0.185,0.492,0.179,0.000,0.000:
0000
0000
0000
0000
,
1001
0000
0000
0000
,
0000
0000
0000
0000
,
0000
0000
0000
0000
,
0000
0000
0000
0000
,
0000
0000
0000
0000
,
0000
0000
0000
0000
,
0000
0000
0000
0000
,
0000
0000
0000
0000
,
0000
0000
0000
0000
,
0000
0000
0000
0000
,
0000
0000
0000
0000
,
0000
0000
0000
0000
,
0000
0000
0000
0000
,
0000
0000
0000
0000
,
0000
0000
0000
0000
,
0000
0000
0000
0000
,
0000
0000
0000
0000
,
0000
0000
0000
0000
,
0000
0000
0000
0000
,
0000
0000
0000
0000
,
0000
0000
0000
0000
,
0000
0000
0000
0000
,
0000
0000
0000
0000
,
0000
0000
0000
0000
,
0000
0000
0000
0000
,
0000
0010
0000
0010
,
0000
0100
0100
0000
,
0001
0001
0000
0000
,
1000
1000
0000
0000
,
0000
1000
0000
1000
,
0000
0001
0001
0000
,
0100
0100
0000
0010
,
0000
1000
0001
0000
,
1000
0000
0000
0000
,
0001
0000
0000
0000
,
1000
0000
0000
0000
,
0010
0000
0000
0000
,
0100
0000
0000
0000
,
0001
0000
0000
0000
,
1000
0000
0000
0000
,
0001
0000
0000
0000
,
1001
0000
0000
0000
,
0001
0000
0000
0000
,
1000
0000
0000
0000
,
0010
0000
0100
0100
,
0110
0000
0000
0000
,
0010
0000
0000
0000
,
1000
0000
0000
0000
,
1001
0000
0010
0010
,
1001
0000
0010
0000
,
0100
0000
0001
0000
,
1000
0000
0100
0000
,
0010
0000
0001
0000
,
1000
1000
1000
1000
,
0001
0001
0001
0001
,
0010
0010
0100
0100
,
1001
0000
0000
0000
,
1001
1000
1000
0000
,
0010
0010
0010
0000
,
0100
0100
0100
0000
,
0001
0001
1000
0001
,
1000
1000
1000
0000
,
0010
0010
0010
0000
,
0100
0000
0010
0000
,
1000
0000
1001
1001
,
1001
0001
0001
0000
,
0100
0010
1000
0000
,
0010
0100
0001
0000
,
1000
0001
0100
0000
,
1001
0000
0010
0000
,
1001
1001
1001
1001
,
1001
0000
0110
0000
,
1001
0000
0000
0000
,
0110
0010
0000
0100
,
0010
0000
0000
0100
,
0001
0000
1000
0000
,
0000
0000
0100
0010
,
0001
0000
0000
0000
,
1000
0000
0010
0000
,
0100
0000
0100
0000
,
0000
0000
0000
0000
,
1001
0000
0000
1000
,
1000
0000
0000
0001
,
1000
0000
0010
0000
,
0000
0000
0100
0001
,
0100
0000
0000
0000
,
0010
0000
0000
0000
,
1000
0000
0001
0000
,
1001
0000
0000
0000
;

//---------------dance-single - ----------------
#NOTES:
     dance-single:
     :
     Hard:
     9:
     0.601,1.000,0.629,0.281,0.693: // measure 1
0000
0000
0000
0000
,  // measure 2
2002
0000
0000
0000
,  // measure 3
0000
0000
0000
0000
,  // measure 4
0000
0000
0000
0000
,  // measure 5
0000
0000
0000
0000
,  // measure 6
0000
0000
0000
0000
,  // measure 7
0000
0000
0000
0000
,  // measure 8
0000
0000
0000
0000
,  // measure 9
0000
0000
0000
0000
,  // measure 10
0000
0000
0000
0000
,  // measure 11
0000
0000
0000
0000
,  // measure 12
0000
0000
0000
0000
,  // measure 13
0000
0000
0000
0000
,  // measure 14
0000
3000
0000
0000
0000
0000
0000
0000
,  // measure 15
0000
0000
0000
0000
0000
0003
0000
0000
,  // measure 16
0000
0000
0000
0000
,  // measure 17
0000
0000
0000
0000
,  // measure 18
0000
0000
0000
0000
,  // measure 19
0000
0000
0000
0000
,  // measure 20
0000
0000
0000
0000
,  // measure 21
0000
0000
0000
0000
,  // measure 22
0000
0000
0000
0000
,  // measure 23
0000
0000
0000
0000
,  // measure 24
0000
0000
0000
0000
,  // measure 25
0000
0000
0000
0000
,  // measure 26
0000
0000
0000
0000
,  // measure 27
0000
0000
0120
0000
0000
1030
0200
0000
,  // measure 28
0310
0001
2000
0000
3020
0000
0000
0000
,  // measure 29
0130
0001
2000
0000
0000
0000
0001
0000
,  // measure 30
3002
0203
0320
0100
,  // measure 31
0030
0000
0210
0000
0000
0301
0020
0000
,  // measure 32
0130
1000
0002
0000
0203
0000
0000
0000
,  // measure 33
0310
1000
0001
0020
0000
0000
0000
0000
0000
0100
0000
0000
,  // measure 34
0230
0000
0000
0000
0000
0000
0000
0000
0000
0000
0000
0000
1300
0000
0000
0000
0100
0000
0000
0000
0010
0000
0000
0000
0001
0000
0000
0000
0000
0000
0000
0000
0000
0000
1000
0001
1000
0000
0000
0000
0000
0000
0000
0000
0000
0000
0000
0000
,  // measure 35
0101
0001
0100
0100
,  // measure 36
0001
1000
0010
0010
,  // measure 37
1000
0001
0100
0100
,  // measure 38
0001
1000
0010
0010
,  // measure 39
0100
0010
1000
1000
,  // measure 40
0100
0010
0001
0001
,  // measure 41
0010
0100
1000
0100
,  // measure 42
0010
0100
1000
0010
,  // measure 43
1001
0001
0100
0001
,  // measure 44
0010
0100
1000
0100
,  // measure 45
0010
0100
1000
0010
,  // measure 46
0100
0001
1000
0001
,  // measure 47
1000
0010
0100
0001
,  // measure 48
0010
0100
1000
0100
,  // measure 49
1000
0010
0100
0001
,  // measure 50
1001
0000
0000
0000
0000
0000
0000
0000
0000
0000
0000
0000
0000
0000
0000
0000
0000
0000
0000
0000
0000
0000
0000
0000
0001
0000
0000
0100
0000
0000
0010
0000
0000
0000
0000
0000
1000
0000
0000
0000
0000
0000
0000
0000
0010
0000
0000
0000
,  // measure 51
0100
0000
0001
0000
0010
0000
1000
0000
0010
0000
0100
0000
,  // measure 52
1000
0000
0100
0000
0001
0000
0100
0000
0010
0000
0001
0000
,  // measure 53
0100
0000
1000
0000
0100
0000
0010
0000
1000
0000
0001
0000
,  // measure 54
0010
0000
0100
0000
1000
0000
0100
0000
0010
0000
0100
0000
,  // measure 55
1000
0100
0010
0100
1000
0001
0100
0001
0010
0100
1000
0100
,  // measure 56
0010
0001
0100
0010
1000
0001
0010
0100
0010
0001
1000
0010
,  // measure 57
0100
1000
0100
0001
0010
1000
0010
0001
0100
0010
1000
0001
,  // measure 58
0011
0000
0010
0100
0100
1000
1200
0000
0310
0021
0000
0130
,  // measure 59
0110
0000
0011
0000
1010
0000
0101
0000
0001
0100
0010
1000
,  // measure 60
1001
0000
0101
0000
1001
0000
1100
0000
0100
0010
0001
0010
,  // measure 61
0011
0000
1100
0000
1010
0000
0101
0000
0001
0100
0010
1000
,  // measure 62
1100
0000
0110
0000
0011
0000
1001
0000
0001
0010
0100
1000
,  // measure 63
1001
0000
0101
0000
0011
0000
0110
0000
0100
0010
0001
1000
,  // measure 64
1010
0000
0101
0000
1010
0000
1100
0000
1000
0100
0010
0001
,  // measure 65
1001
0000
0011
0000
1001
0000
0101
0000
1010
0000
1001
0000
,  // measure 66
0011
0000
1100
0000
0011
0000
1001
0000
0001
1000
0010
0100
,  // measure 67
0101
0000
1010
0000
0101
0000
1010
0000
1000
0100
0001
0100
,  // measure 68
0110
0000
0011
0000
0110
0000
1100
0000
0100
0010
0001
0100
,  // measure 69
0110
0000
1010
0000
0110
0000
1010
0000
1000
0010
0001
0010
,  // measure 70
0110
0000
1010
0000
0101
0000
0011
0000
0001
0010
1000
0010
,  // measure 71
0110
0000
0010
0011
0000
0001
1001
0000
1000
1010
0000
0010
,  // measure 72
0110
0000
0100
0101
0000
0001
1000
0100
1000
0100
1000
0100
,  // measure 73
1100
0000
0110
0000
0011
0000
0110
0000
1100
0000
0110
0000
,  // measure 74
0011
0000
0000
0000
,  // measure 75
2000
0000
3001
0200
0000
0000
0010
0000
0000
0301
0000
0000
,  // measure 76
0100
0000
0010
1000
0000
0000
0001
0000
2000
0100
0000
3100
,  // measure 77
2000
0000
3010
0200
0000
0000
1000
0000
0000
0310
0000
0000
,  // measure 78
0100
0000
0001
0010
0000
0000
0100
0000
1000
0100
0000
0010
,  // measure 79
0011
0000
0001
0200
0000
0000
1000
0000
0000
0310
0000
0000
,  // measure 80
0100
0000
0010
2000
0000
0000
0100
0000
0000
3020
0000
0000
,  // measure 81
0130
0000
0010
2000
0000
0000
0001
0000
0000
3010
0000
0000
,  // measure 82
0020
0000
0000
0001
0000
0000
0130
0000
0010
0100
0001
1000
,  // measure 83
0002
0000
1003
0020
0000
0000
0100
0000
0000
1030
0000
0000
,  // measure 84
0010
0000
0100
0001
0000
0000
1000
0000
0002
0010
0000
0013
,  // measure 85
0002
0000
0103
0020
0000
0000
0001
0000
0000
0130
0000
0000
,  // measure 86
0010
0000
0000
0100
0000
0000
1000
0000
0001
0010
0000
0100
,  // measure 87
1000
0000
0100
0010
0000
0010
0001
0000
0001
1000
0000
1000
,  // measure 88
0010
0000
0010
0100
0000
0100
0001
0000
0001
0010
0000
0010
,  // measure 89
0100
0010
0001
0100
0010
1000
0100
0001
0100
0010
0001
0100
,  // measure 90
0110
0000
0000
0000
;
