#TITLE:Psykotik Ovaload;
#SUBTITLE:;
#ARTIST:xRGTMx as AlphaOmega type Z;
#TITLETRANSLIT:;
#SUBTITLETRANSLIT:;
#ARTISTTRANSLIT:;
#CREDIT:;
#BANNER:Psykotik Ovaload.png;
#BACKGROUND:Psykotik Ovaload-background.png;
#JACKET:Psykotik Ovaload-jacket.png;
#LYRICSPATH:;
#CDTITLE:cdtitle.png;
#MUSIC:Psykotik Ovaload.mp3;
#OFFSET:-11.031;
#SAMPLESTART:11.000;
#SAMPLELENGTH:12.000;
#SELECTABLE:YES;
#BPMS:0.000=175.000,64.000=350.000,96.000=87.500,108.000=175.000,180.000=700.000,204.000=175.001;
#STOPS:204.000=0.343
;
#BGCHANGES:;

//---------------dance-single - ----------------
#NOTES:
     dance-single:
     :
     Hard:
     9:
     0.590,0.711,0.562,0.153,0.173:
0101
0000
0001
0100
0000
0010
0000
0100
,
0000
0001
0000
1000
0001
0010
0100
0010
,
0001
0000
1000
0010
0000
0100
0000
0010
,
0000
1000
0000
1000
0001
0010
0001
1000
,
0010
0000
0100
0010
0000
1000
0000
0001
,
0000
0010
0000
0100
0010
1000
0001
0010
,
0100
0000
0100
0010
0000
0001
0000
1000
,
0000
0010
0000
0100
0010
0001
1000
0010
,
1000
0000
0000
1010
0000
0101
0000
0011
,
0000
1100
0000
1000
0001
0100
1000
0100
,
0010
0000
0000
0110
0000
1001
0000
0101
,
0000
0011
0000
0001
0010
0010
0100
1000
,
0100
0000
0000
0011
0000
1100
0000
1001
,
0000
1010
0000
1000
0010
0010
0100
0001
,
1000
0000
0000
1001
0000
0101
0000
1001
,
0000
0011
0000
0001
0010
0010
0100
0010
,
0002
0000
0000
0000
,
0000
0000
0000
0000
,
0000
0000
0000
0000
,
0000
0000
0000
0000
,
0000
0000
0000
0000
,
0000
0000
0000
0000
,
0000
0000
0000
0000
,
0000
0000
0000
0000
,
1003
0001
0100
0001
,
0100
0000
0010
0000
1000
0010
0100
0001
,
1001
0101
1010
0110
,
0001
0000
1000
0001
1000
0000
0001
1000
0001
0000
1000
0001
1000
0000
0001
1000
,
0001
0000
1000
0001
1000
0000
0001
1000
0001
0000
1000
0001
1000
0000
0001
0000
,
0100
0000
0010
1000
1010
0000
0010
0000
,
0110
0000
0010
1000
1001
0000
0001
0000
,
0101
0000
0001
0100
0110
0000
0010
0000
,
0110
1001
0110
1001
,
0001
0000
0100
0010
1000
0000
0110
0000
,
0010
0000
0010
0100
0001
0000
1100
0000
,
0001
0000
0001
1000
0010
0000
0110
0000
,
1001
0101
1001
0101
,
0001
0100
0010
0100
0001
0100
0010
0000
,
0010
0100
0010
1000
0010
0100
0010
0000
,
0010
0001
0010
1000
0010
0100
0010
0000
,
0110
1001
0110
1001
,
0001
0100
1000
0100
0010
0100
0010
0000
,
0010
1000
0001
0010
0100
1000
0100
0000
,
1000
0100
0010
0100
1000
0001
0100
0000
,
0110
0000
0000
0000
1010
0000
0000
0000
0101
0000
0000
0000
0001
0010
0100
2000
,
0002
0000
0000
0000
,
0000
0000
0000
0000
,
0000
0000
0000
0000
,
0000
0000
0000
0000
,
0000
0000
0000
0000
,
0000
0000
0000
0000
,
3003
0000
1002
0000
0103
0000
0001
0100
,
0010
1000
1020
0000
0130
0000
0100
0010
,
0010
1000
1002
0000
0103
0000
0001
0100
,
0010
1000
1100
0000
0101
0000
0100
0100
,
0010
1000
1002
0000
0103
0000
0001
0100
,
0100
0010
2010
0000
3010
0000
0020
0000
,
0000
0130
0001
1000
,
0001
0000
0001
0010
0100
1000
0002
0000
,
1003
0001
0100
0001
0100
0000
0000
0001
0100
0000
0000
0100
0010
0000
1000
0000
,
0010
0000
0100
0000
0001
0000
0000
1000
0001
0000
0000
0001
0100
0000
0010
0000
,
0100
0000
0001
0000
1000
0000
0000
0001
0100
0000
0000
0001
0010
0000
0100
0000
,
1000
0000
0001
0000
0100
0000
0000
0001
0100
0000
0000
0100
0010
0000
0010
0000
,
1000
0000
0001
0000
0101
0000
0000
0001
0010
0000
0000
0010
0100
0000
1000
0000
,
0001
0000
0100
0000
0001
0000
0000
0001
1000
0000
0000
1000
0200
0000
0000
0000
,
0000
2300
0100
0010
,
0001
3002
0100
0010
,
1003
0000
0101
0000
1010
0000
0010
0100
,
0100
0010
1010
0000
0110
0000
0010
1000
,
0001
0001
1001
0000
0101
0000
0001
0100
,
0010
0100
0110
0000
1001
0000
0001
0100
,
1000
0100
0110
0000
1001
0000
0001
0100
,
1000
0100
0010
0000
0110
0000
2002
0000
,
0000
3003
0101
0000
1100
0000
1010
0000
,
0011
0000
0001
0010
0100
1000
0200
0000
,
0000
0000
0000
0000
1300
0000
0000
1000
0100
0000
0000
0000
1000
0000
0100
0000
,
0010
0000
0001
0000
0010
0000
0000
0010
0001
0000
0000
0000
0001
0000
0100
0000
,
0010
0000
0100
0000
0010
0000
0000
0010
0100
0000
0000
0000
0010
0000
1000
0000
,
0001
0000
1000
0000
0001
0000
0000
0001
0100
0000
0000
0000
0001
0000
0100
0000
,
1000
0100
0010
0000
0110
0000
0010
1000
,
0001
0010
0100
0000
1100
0000
0002
0000
,
0000
0000
0000
0000
0103
0001
0100
0010
1000
0010
0100
0010
1000
0001
0010
0100
,
1000
0100
1000
0010
0100
0001
0010
0100
0010
0001
0100
0010
1000
0001
0010
0100
,
1000
0001
0100
0002
2000
0000
0000
0000
0000
0000
0000
0000
0000
0000
0000
0000
,
0000
3003
0000
0000
;

//---------------dance-single - ----------------
#NOTES:
     dance-single:
     :
     Medium:
     6:
     0.437,0.535,0.618,0.104,0.000:
0010
0000
0000
0100
0000
0001
0000
0100
,
0000
0001
0000
0100
0010
0000
1000
0000
,
0010
0000
0000
0100
0000
0100
0000
0100
,
0000
0100
0000
0100
0010
0000
1000
0000
,
0001
0000
0000
0010
0000
0010
0000
0010
,
0000
0010
0000
0010
0100
0000
1000
0000
,
0100
0000
0000
1000
0000
1000
0000
1000
,
0000
1000
0000
1000
0001
0000
0100
0000
,
0010
0000
0000
1000
0000
0010
0000
0100
,
0000
0010
0000
1000
0001
0000
0010
0000
,
0100
0000
0000
0010
0000
0001
0000
0010
,
0000
0100
0000
1000
0010
0000
0100
0000
,
0001
0000
0000
1000
0000
0100
0000
1000
,
0000
0010
0000
0100
0001
0000
1000
0000
,
0010
0000
0000
0100
0000
0001
0000
1000
,
0000
0100
0000
0010
0001
0010
0001
0010
,
0200
0000
0000
0000
,
0000
0000
0000
0000
,
0000
0000
0000
0000
,
0000
0000
0000
0000
,
0000
0000
0000
0000
,
0000
0000
0000
0000
,
0000
0000
0000
0000
,
0000
0000
0000
0000
,
1300
0001
0100
0001
,
1000
0000
0100
0000
1000
0100
0010
0001
,
0011
1000
1100
0100
,
0011
0010
0110
0100
,
1100
0101
1100
0101
,
1001
0010
1010
0010
,
0110
0010
1010
0010
,
0110
0010
1010
0010
,
0110
1001
0110
1001
,
0101
0001
0110
0001
,
0011
0001
0101
0001
,
0110
0001
0101
0001
,
1001
1001
1001
1001
,
0101
0001
0010
0100
,
1100
1000
0100
0010
,
0011
0001
0010
0100
,
1100
0110
0011
0110
,
1100
1000
0010
0100
,
0101
0001
0100
0010
,
1010
0010
0100
0001
,
1001
0110
1001
0110
,
2002
0000
0000
0000
,
0000
0000
0000
0000
,
0000
0000
0000
0000
,
0000
0000
0000
0000
,
0000
0000
0000
0000
,
0000
0000
0000
0000
,
3003
0000
0001
0000
0101
0000
0001
0100
,
0001
0000
0100
0000
0110
0000
0010
0100
,
0010
0000
0100
0000
1010
0000
0010
0100
,
0010
0000
0100
0000
0001
0000
0001
0010
,
0100
0000
1000
0000
1100
0000
1000
0010
,
0100
0001
1000
0020
,
0000
0130
0001
1000
,
0100
0000
1000
0100
0010
0001
0020
0000
,
0000
0000
0130
0000
0110
0000
0010
0001
,
0010
0000
0001
0000
0110
0000
0010
0100
,
1000
0000
0010
0000
0101
0000
0001
0100
,
0010
0000
0100
0000
0100
0000
0010
1000
,
0010
1000
0010
0000
0101
0000
0001
0100
,
0010
1000
0010
0200
,
0000
0320
0000
0000
,
0000
2000
0000
0000
,
3030
0000
1010
0000
1010
0000
0010
0100
,
0001
0000
1001
0000
1001
0000
0001
0100
,
0010
0000
0110
0000
0101
0000
0001
0010
,
0100
0000
1100
0000
0110
0000
0001
0010
,
0001
0010
0001
0000
0011
0000
0001
0100
,
0010
0100
0001
0000
0101
0000
0002
0000
,
0000
1003
1001
0001
,
0101
0000
0001
0100
0010
1000
0020
0000
,
0000
0000
0130
0000
0110
0000
0010
1000
,
0010
0000
0110
0000
1001
0000
0001
0100
,
0001
0000
0101
0000
1100
0000
1000
0100
,
0010
0011
1100
0101
,
1010
0000
1001
0000
1001
0000
0001
0100
,
0010
0110
1010
0120
,
0000
0230
0000
0000
,
0000
0302
0000
0000
,
0000
1003
0000
0000
;

//---------------dance-single - ----------------
#NOTES:
     dance-single:
     :
     Easy:
     5:
     0.291,0.401,0.064,0.088,0.000:
1000
0001
0100
0001
,
1000
0100
1000
1000
,
0100
1000
0010
0100
,
0010
1000
0100
0100
,
0010
0001
0010
0100
,
0010
0001
0010
0010
,
0001
0100
0010
1000
,
0001
0010
0100
0100
,
0110
0010
0001
0001
,
0001
0001
0100
0010
,
1000
0100
0100
0100
,
0100
0100
1000
0010
,
0100
0001
0001
0001
,
0001
0001
1000
0010
,
0100
0010
0010
0010
,
0010
0010
0010
0100
,
1001
0000
0000
0000
,
0000
0000
0000
0000
,
0000
0000
0000
0000
,
0000
0000
0000
0000
,
0000
0000
0000
0000
,
0000
0000
0000
0000
,
0000
0000
0000
0000
,
0000
0000
0000
0000
,
0001
1000
0100
1000
,
0010
0000
0100
0000
0001
0100
0001
0100
,
0101
0001
1010
0010
,
0110
0000
0010
0000
,
0110
0010
1000
0001
,
1000
0000
0001
0000
,
0100
0000
0001
0000
,
0010
0000
0100
0000
,
1000
1000
0001
0001
,
0100
0000
0010
0000
,
0100
0000
0001
0000
,
0100
0000
0010
0000
,
1000
0100
0001
0100
,
1000
0000
0010
0000
,
1000
0000
0001
0000
,
1000
0000
0100
0000
,
1000
0001
1000
0010
,
0100
0000
0010
0000
,
0100
0000
0001
0000
,
0100
0000
1000
0000
,
0100
0010
0100
0001
,
2002
0000
0000
0000
,
0000
0000
0000
0000
,
0000
0000
0000
0000
,
0000
0000
0000
0000
,
0000
0000
0000
0000
,
0000
0000
0000
0000
,
3003
0001
0100
0010
,
0010
0100
0001
0010
,
0010
0001
0100
0010
,
0010
0100
0010
1000
,
0001
0010
0100
1000
,
1000
0100
0010
0002
,
0000
0013
0100
1000
,
0100
1000
0010
0200
,
0000
0310
1000
0001
,
0001
1000
0010
0100
,
0100
0010
1000
0001
,
0001
1000
0100
0010
,
0001
0010
0010
0001
,
0100
0010
0010
2000
,
0000
0002
0000
0000
,
0000
0000
0000
0000
,
3003
1001
0001
0100
,
0010
0100
0100
0010
,
1000
0001
0001
0010
,
0100
1000
1000
0100
,
0100
1000
0010
0100
,
0001
0010
0100
2000
,
0000
3100
1000
0010
,
0001
0010
0100
0020
,
0000
0130
0001
1000
,
0100
1000
0010
0100
,
0001
0010
1000
0010
,
0100
1000
1000
0001
,
0001
1000
0010
0100
,
0100
0010
1000
0002
,
0000
0023
0000
0000
,
0000
0200
0000
0000
,
0000
0330
0000
0000
;

//---------------dance-single - ----------------
#NOTES:
     dance-single:
     :
     Beginner:
     3:
     0.216,0.468,0.185,0.048,0.000: // measure 1
1001
0000
0000
0000
,  // measure 2
0000
0000
0001
0001
,  // measure 3
1001
0000
0000
0000
,  // measure 4
0000
0000
1000
1000
,  // measure 5
1001
0000
0000
0000
,  // measure 6
0000
0000
0010
0010
,  // measure 7
0110
0000
0000
0000
,  // measure 8
0000
0000
0100
0100
,  // measure 9
0110
0000
0000
0000
,  // measure 10
0000
0000
0010
1000
,  // measure 11
1001
0000
0000
0000
,  // measure 12
0000
0000
0100
0010
,  // measure 13
1001
0000
0000
0000
,  // measure 14
0000
0000
0100
0010
,  // measure 15
1001
0000
0000
0000
,  // measure 16
0000
0000
0010
0100
,  // measure 17
1001
0000
0000
0000
,  // measure 18
0000
0000
0000
0000
,  // measure 19
0000
0000
0000
0000
,  // measure 20
0000
0000
0000
0000
,  // measure 21
0000
0000
0000
0000
,  // measure 22
0000
0000
0000
0000
,  // measure 23
0000
0000
0000
0000
,  // measure 24
0000
0000
0000
0000
,  // measure 25
1000
0000
0001
0000
,  // measure 26
0100
0000
0001
1000
,  // measure 27
1001
1001
1001
1001
,  // measure 28
0110
0000
1001
0000
,  // measure 29
0110
0010
0010
0010
,  // measure 30
1001
0000
0010
0000
,  // measure 31
0100
0000
0010
0000
,  // measure 32
0100
0000
0010
0000
,  // measure 33
0001
0001
1000
1000
,  // measure 34
0001
0000
1000
0000
,  // measure 35
0001
0000
1000
0000
,  // measure 36
0001
0000
1000
0000
,  // measure 37
0010
0010
0100
0100
,  // measure 38
0010
0000
1000
0000
,  // measure 39
0100
0000
1000
0000
,  // measure 40
0010
0000
1000
0000
,  // measure 41
0001
0001
1000
1000
,  // measure 42
0001
0000
0100
0000
,  // measure 43
0001
0000
0010
0000
,  // measure 44
0001
0000
0100
0000
,  // measure 45
0010
0010
0100
0100
,  // measure 46
1001
0000
0000
0000
,  // measure 47
0000
0000
0000
0000
,  // measure 48
0000
0000
0000
0000
,  // measure 49
0000
0000
0000
0000
,  // measure 50
0000
0000
0000
0000
,  // measure 51
0000
0000
0000
0000
,  // measure 52
0000
0100
0100
0100
,  // measure 53
0000
0010
0010
0010
,  // measure 54
0000
1000
1000
1000
,  // measure 55
0000
1001
0000
1001
,  // measure 56
0000
0001
0001
0001
,  // measure 57
0000
0100
0100
0200
,  // measure 58
0300
0010
0000
0010
,  // measure 59
0000
0010
0010
0020
,  // measure 60
0030
1001
0000
1000
,  // measure 61
1000
1000
0000
0001
,  // measure 62
0001
0001
0000
0100
,  // measure 63
0100
0100
0000
0010
,  // measure 64
0000
1000
1000
1000
,  // measure 65
0000
0001
0001
0001
,  // measure 66
0000
0200
0000
0000
,  // measure 67
0300
0020
0000
0000
,  // measure 68
0030
0110
0000
0010
,  // measure 69
0000
0100
0000
0001
,  // measure 70
0000
1000
0000
0100
,  // measure 71
0000
1000
0001
0100
,  // measure 72
0001
1000
0000
0100
,  // measure 73
0000
1000
0000
0010
,  // measure 74
0000
0100
0000
0001
,  // measure 75
0000
0010
0100
0010
,  // measure 76
0001
1000
0000
0001
,  // measure 77
0000
0100
0000
0001
,  // measure 78
0000
1000
0000
0100
,  // measure 79
0000
1000
0010
0100
,  // measure 80
0001
0010
0000
0001
,  // measure 81
0000
1000
0000
0100
,  // measure 82
0000
2000
0000
0000
,  // measure 83
3000
0002
0000
0000
,  // measure 84
0003
1001
0000
0000
;
