#TITLE:Programmed Sun;
#SUBTITLE:;
#ARTIST:kors k;
#TITLETRANSLIT:;
#SUBTITLETRANSLIT:;
#ARTISTTRANSLIT:;
#CREDIT:;
#BANNER:Programmed Sun.png;
#BACKGROUND:Programmed Sun-background.png;
#LYRICSPATH:;
#CDTITLE:;
#MUSIC:02 - Programmed Sun.mp3;
#OFFSET:-0.378;
#SAMPLESTART:95.360;
#SAMPLELENGTH:12.000;
#SELECTABLE:YES;
#BPMS:0.000=144.000,100.000=72.000,132.000=144.000,192.000=72.000,194.000=144.000,254.000=72.000,256.000=144.000;
#STOPS:;
#BGCHANGES:;

//---------------dance-single - ----------------
#NOTES:
     dance-single:
     :
     Hard:
     7:
     0.386,0.447,0.070,0.357,0.183:
0000
0000
0000
0000
,
1001
0000
0000
0000
,
0001
0000
0000
0000
,
0100
0000
0000
0000
,
0001
0000
0000
0000
,
1000
0100
1000
0100
,
0010
0001
0010
0001
,
0010
0100
1000
0001
,
0220
0000
0000
0330
,
0100
0001
0100
1000
0000
0100
0000
0010
,
0000
0100
0000
0010
0000
0100
0000
0001
,
0000
0100
0000
0010
0000
0100
0000
0010
,
2000
3010
0200
0310
,
0100
0010
0000
1000
0000
0010
0000
0001
,
0000
0100
0000
0010
0000
1000
0000
0001
,
0000
0010
0000
0100
0000
0010
0000
0001
,
1000
0000
0100
0000
1000
0000
0000
0100
0000
0000
1000
0000
0010
0000
0100
0000
,
0001
0010
0100
0010
0000
0001
0000
0010
,
0000
0001
0000
0010
0000
0100
0000
0010
,
0000
0001
0000
0010
0000
0001
0000
1000
,
0100
0001
0100
0010
0001
0100
1000
0100
,
0010
0000
0010
0000
0000
0000
0000
0100
0000
0000
0100
0000
0000
0000
0010
0000
,
0000
0000
0100
0000
0100
0000
0000
0010
0000
0000
0100
0000
0010
0000
0001
0000
,
0010
0100
0010
0100
0001
1000
0010
0100
,
0001
0100
0010
1000
1010
1010
0000
0001
,
2000
0000
0000
0000
,
3200
0000
0320
0000
,
0032
0000
0023
0000
,
0230
0000
2300
0000
,
3001
0100
0010
0000
0000
0000
0000
0100
0000
0000
0000
0000
0000
0000
0000
0000
,
0100
0001
1000
0001
0000
0000
0000
1000
0000
0000
0000
0000
0000
0000
0000
0000
,
0100
0010
0001
0000
0000
0000
0000
0100
0000
0000
0000
0000
0000
0000
0010
0000
,
1000
0000
0000
0000
0000
0000
0000
0000
0000
0000
0000
0000
0000
0000
0001
0000
1000
0000
0000
0100
0000
0000
1000
0000
0010
0000
0000
0000
0100
0000
0000
0000
,
0001
0100
0000
0000
0010
0000
0000
0000
1000
0000
0000
0000
0100
0000
0000
0000
,
0010
0001
0000
0000
0010
0000
0000
0000
0100
0000
1000
0000
0010
0000
0000
0000
,
0100
0001
0000
0000
0010
0000
0000
0000
0001
0000
0000
0000
1000
0000
0000
0000
,
0010
0100
0000
0000
0010
0000
0000
0000
1000
0000
0000
0000
0100
0000
0000
0000
,
0010
0001
0000
0000
0010
0000
0000
0000
0100
0000
1000
0000
0010
0000
0000
0000
,
0100
0001
0000
0000
1000
0000
0000
0000
0010
0000
0100
0000
0001
0000
0000
0000
,
1000
0100
0000
0000
0010
0000
0000
0000
0001
0000
0100
0000
0010
0000
1000
0000
,
0001
0000
0000
0100
0000
0000
0010
0000
0000
1000
0000
0000
0001
0000
1000
0000
0001
0000
1000
0000
0000
0001
0000
0000
,
0100
0020
0000
0000
1000
0000
0000
0000
0130
0000
0001
0000
0010
0000
0001
0000
,
1000
0200
0000
0000
0010
0000
0000
0000
1300
0000
0010
0000
0001
0000
0100
0000
,
0001
0020
0000
0000
0100
0000
0000
0000
0031
0000
0010
0000
0001
0000
1000
0000
,
0010
0200
0000
0000
0001
0000
0000
0000
0310
0000
1000
0000
0100
0000
0010
0000
,
0100
0020
0000
0000
0100
0000
0000
0000
0031
0000
0010
0000
0001
0000
1000
0000
,
0010
2000
0000
0000
0010
0000
0000
0000
3001
0000
0100
0000
0001
0000
1000
0000
,
0100
0020
0000
0000
0100
0000
0000
0000
0031
0000
0010
0000
0100
0000
1000
0000
,
1001
2002
0000
0000
0000
0000
3003
0000
0001
0000
1000
0000
0200
0000
0000
0000
,
0000
0000
0000
0000
0000
0000
0310
0000
0001
0000
0000
0010
0000
0010
0000
0000
,
0001
0000
0000
0100
0000
0100
0000
0000
0010
0000
0000
1000
0000
0001
0000
0000
,
0010
0000
0000
0001
0000
0100
0000
0000
0010
0000
0000
1000
0000
0010
0000
0200
,
0002
0000
0300
0000
0003
0000
0000
0000
0001
0000
0000
0010
0000
0100
0000
0000
,
1000
0000
0000
0100
0000
0010
0000
0000
0001
0000
0000
0100
0000
0000
0010
0000
,
0000
0100
0000
0000
0001
0000
1000
0000
1200
0000
0000
0000
0310
0000
0001
0000
,
0200
0000
0310
1000
0002
0000
1000
0000
,
0200
0003
0300
0000
0020
2030
0200
0000
,
0000
0000
3000
0020
0000
0000
0000
0000
,
0000
0000
0000
0300
0032
0023
2030
0020
,
0000
0000
3000
0200
0000
0000
0000
0000
,
0000
0300
0030
0000
0020
0032
2000
0000
,
0000
0000
0003
0002
0000
0000
0000
0000
,
0000
3003
0202
0000
,
0000
0000
0003
0320
0230
0302
0023
0130
,
1001
0000
0000
0000
;

//---------------dance-single - ----------------
#NOTES:
     dance-single:
     :
     Challenge:
     9:
     0.670,0.771,0.443,0.528,0.555:
0000
0000
0000
0000
,
1001
0000
0001
0010
0001
0010
0100
0000
,
0110
0000
0100
1000
0100
1000
0010
0000
,
0110
0000
0100
0001
0100
0001
0010
0000
,
1001
0000
1000
0100
1000
0100
0010
0000
,
0011
0001
0010
0001
0010
0001
0010
0100
,
0010
1000
0010
1000
0010
1000
0010
0100
,
1000
0001
1000
0001
1000
0001
1000
0100
,
0010
0000
0010
0001
0100
0010
1000
0001
0000
0000
0100
1000
0010
0000
0100
0000
,
0010
1000
0200
0010
0300
0110
0000
1001
,
0000
0101
0000
0101
0000
0101
0000
1001
,
0000
1100
0000
1100
0000
0110
0000
1100
,
0100
0000
0010
0000
0001
0010
0001
0000
0100
0000
0010
1000
0010
0000
1000
0000
,
0010
1010
0000
0101
0000
1010
0000
1001
,
0000
0011
0000
1100
0000
0011
0000
1001
,
0000
0101
0000
1010
0000
1100
0000
0011
,
0102
0000
0100
0000
0100
0000
0000
1000
0000
0003
0100
0000
1000
0000
0100
0000
,
0010
1000
0100
0020
0031
0011
0000
1100
,
0000
0011
0000
0011
0000
1010
0000
0011
,
0000
0101
0000
0101
0000
0101
0000
1001
,
0100
0000
0001
0000
0010
0100
1000
0000
0100
0000
0010
0001
0100
0000
0010
0000
,
1010
0000
0101
0000
0000
0000
0000
0101
0000
0000
1010
0000
0000
0000
1100
0000
,
0000
0000
0011
0000
1100
0000
0000
0101
0000
0000
1010
0000
0001
0100
0010
1000
,
0001
0010
0100
1000
0100
0100
0010
0010
,
0001
0000
0010
0000
0100
1000
0010
0100
0010
0000
0200
0000
0000
0000
0301
0000
,
2000
0000
0001
0000
0100
0100
0000
0001
0001
0000
0010
0010
0000
0001
0001
0001
,
3002
0000
0100
0000
0100
0100
0000
0010
0023
0000
0100
0100
0000
0100
0100
0100
,
0230
0000
1000
0000
1000
1000
0000
1000
2300
0000
0100
0100
0000
0100
0100
0100
,
3200
0000
0010
0000
0010
0010
0000
0010
0320
0000
0001
0001
0000
0001
0001
0031
,
0002
0023
2000
0000
0000
0000
0030
0020
0000
0000
0000
0000
0000
0000
0000
0030
,
3020
0230
2300
0020
0000
0000
3000
0002
0000
0000
0000
0000
0000
0000
0000
0003
,
0032
0203
2000
0000
0000
0000
0300
0200
0000
0000
0000
0000
0000
0300
0020
3000
,
2000
0000
0000
0000
0000
0000
0000
0000
0000
0000
0000
0000
0030
0000
3001
0000
1000
0000
0000
0001
0000
0000
0100
0000
0010
0000
0200
0000
0000
0000
0000
0000
,
0301
0010
0000
0000
0100
0000
1000
0001
0000
0000
0001
0000
0100
0000
0010
0000
,
1000
0001
0000
0000
0010
0000
0100
0010
0000
0000
0001
0000
1000
0000
0010
0000
,
1000
0100
0000
0000
0010
0000
0001
1000
0000
0000
0100
0000
0010
0000
0001
0000
,
0100
0010
0000
0000
1000
0000
0010
0000
0100
0000
0001
0000
0100
0000
1000
0000
,
0100
0010
0000
0000
1000
0000
0001
0010
0000
0100
1000
0000
0001
0000
1000
0001
,
0100
0010
0000
0000
0100
0000
0001
1000
0000
0000
0100
0000
0010
0000
0001
0010
,
0100
0010
0000
0000
0100
0000
0000
1000
0000
0000
0001
0000
0100
0000
0010
1000
,
0001
0000
0000
0100
0000
0000
0001
0000
0000
0100
0000
0000
0001
0000
0100
0000
0001
0000
0100
0000
0001
0000
0000
0000
0100
0000
0000
0000
0001
0000
0000
0000
0100
0000
0000
0000
0001
0000
0000
0000
0000
0000
0100
0000
0000
0000
0000
0000
,
0001
0200
0000
0000
0310
0000
0100
0010
0000
0100
0010
0000
0100
0000
0010
1000
,
0001
0020
0000
0000
0130
0000
1000
0100
0000
1000
0100
0000
1000
0000
0100
0010
,
0001
2000
0000
0000
3010
0000
0100
0001
0000
0000
0010
0000
0000
0100
0000
0010
,
0001
2000
0000
0000
3010
0000
0000
0100
0000
0000
0001
0000
1000
0000
0100
0010
,
0001
0020
0000
0000
1030
0000
1000
0100
0000
0010
0001
0000
1000
0000
0001
0100
,
0010
0200
0000
0000
0301
0000
0001
0010
0000
0001
0010
0000
0001
0010
0000
0001
,
0010
0200
0000
0000
0310
0000
0010
0100
0000
0100
1000
0000
0010
0000
0100
0001
,
1002
0000
0000
0000
1000
0000
0000
0003
2001
0000
0000
0000
0001
0000
0000
3000
1002
0000
0000
0000
1000
0000
0000
0003
0220
0000
0000
0000
0000
0000
0330
0000
0200
0000
0000
0000
0000
0000
0000
0000
0320
0000
0000
0000
0000
0000
0000
0000
2030
0000
0000
0000
0000
0000
0000
0000
0000
0000
0000
0000
0000
0000
0000
0000
,
0001
0000
0000
0000
3001
0000
0020
0000
0130
0000
0000
0010
0000
0001
0000
0001
,
0100
0000
0000
0010
0000
0100
0000
0100
0010
0000
0000
0010
0000
1000
0000
1000
,
0001
0000
0000
0010
0000
0100
0000
0100
1000
0000
0000
1000
0000
0001
0000
0001
,
0100
0000
0020
2030
3020
0030
0000
0000
0200
0000
0320
0000
2030
0000
0000
0000
,
0010
0000
3001
0020
0100
0000
0031
1000
,
0000
0011
0000
0000
1000
0000
0011
0000
2002
0000
0000
0000
0000
0000
0000
0000
,
0000
0000
0000
0000
0000
0000
0000
0000
0000
0000
0000
0000
0000
0000
0000
0000
0000
0000
0000
0000
0000
0000
0000
3003
2002
0000
0000
0000
0000
0000
0000
0000
0000
0000
0000
0000
0000
0000
0000
0000
0000
0000
0000
0000
0000
0000
0000
0000
0000
0000
0000
0000
0000
0000
0000
0000
0000
0000
0000
0000
0000
0000
0000
0000
,
0000
0000
0000
0000
0000
0000
0000
3003
0002
0000
0000
0000
0203
0000
0000
0000
0320
0000
0000
0000
0000
0000
0000
0000
0030
0000
0000
0000
0000
0000
0000
0000
2001
0000
0000
0000
0000
0000
0000
0000
3002
0000
0000
0000
0000
0000
0000
0000
0023
0000
0000
0000
0000
0000
0000
0000
0000
0000
0000
0000
0000
0000
0000
0000
,
0100
0000
0000
0000
0031
0000
2000
0000
3010
0000
0000
0100
0000
0010
0000
1000
,
0010
0000
0000
0100
0000
0001
0000
0010
0100
0000
0000
1000
0000
0100
0000
0001
,
0100
0000
0000
0010
0000
0001
0000
0100
0010
0000
0000
1000
0000
0001
0000
0100
,
0010
0000
2000
3002
0023
0030
0000
0000
0100
0000
0010
0000
0002
0000
0000
0000
,
0010
0000
1003
0200
0010
0000
1300
0010
,
0100
0001
0000
0010
0100
0000
0010
0000
0002
0000
0103
0000
1000
0000
0100
0000
,
0010
0000
0000
0000
1000
0000
0000
0000
0001
0000
0000
0000
0020
0000
0000
0000
0130
0000
0010
0000
0001
0100
0001
0100
0001
0000
0100
0010
1000
0000
0000
0000
,
1001
0000
0000
0000
;

//---------------dance-single - ----------------
#NOTES:
     dance-single:
     :
     Medium:
     5:
     0.295,0.373,0.093,0.303,0.043:
0000
0000
0000
0000
,
1001
0000
0000
0000
,
0001
0000
0000
0000
,
1000
0000
0000
0000
,
0001
0000
0000
0000
,
0110
0000
0000
0000
,
0101
0000
0000
0000
,
1010
0000
0000
0000
,
2002
0000
0000
3003
,
0001
0100
0001
0010
0000
0100
0000
0010
,
0000
0100
0000
0100
0000
0100
0000
1000
,
0000
0001
0000
0001
0000
0001
0000
0100
,
0002
0000
0013
0000
0100
0010
0001
0000
,
1000
0010
0000
1000
0000
0010
0000
0100
,
0000
0001
0000
0100
0000
0001
0000
0010
,
0000
0100
0000
0010
0000
0100
0000
1000
,
0001
0000
0100
0000
0001
0000
0000
0100
0000
0000
0010
0000
1000
0000
0010
0000
,
0000
0100
0010
1000
0000
0001
0000
1000
,
0000
0001
0000
0001
0000
0001
0000
0100
,
0000
0001
0000
0001
0000
0001
0000
0010
,
0200
0310
0200
1300
,
0100
0000
0010
0000
0000
0000
0000
0001
0000
0000
1000
0000
0000
0000
0001
0000
,
0000
0000
0100
0000
0010
0000
0000
1000
0000
0000
0010
0000
0100
0000
0010
0000
,
0100
0000
0010
0000
1000
0100
0010
0001
,
1000
0000
0001
0000
0100
0001
0000
0000
,
0021
0000
0000
0000
0000
0000
0000
0030
,
0002
0000
0000
0003
2000
0000
0000
3000
,
0020
0000
0000
0030
0200
0000
0000
0300
,
0002
0000
0000
0003
2000
0000
0000
3000
,
0001
0100
0002
0000
0000
0000
0200
0000
0000
0000
0000
0000
0303
0000
0000
0000
,
0010
1000
0010
2000
0000
0000
0000
0200
0000
0000
0000
0000
3300
0000
0000
0000
,
0010
0100
0020
0000
0000
0000
0000
0002
0000
0000
0000
0000
0033
0000
0100
0000
,
0002
0000
0000
0000
0000
0000
0000
2000
0000
0000
0000
0000
0000
0000
3003
0000
,
1000
0000
0100
0000
0010
0001
0010
0000
,
0001
0000
0100
0000
0010
1000
0010
0000
,
1000
0000
0001
0000
0100
0001
0100
0000
,
0001
0000
1000
0000
0100
1000
0100
0000
,
1000
0000
0010
0000
0001
0010
1000
0000
,
0100
0000
0001
0000
0100
0010
0001
0000
,
1001
0001
1001
1000
,
0220
0000
0000
0000
0000
0000
0000
0330
,
0100
0010
1000
0000
0010
0000
0100
0000
,
0001
0100
0010
0000
0100
0000
0010
0000
,
0001
0010
1000
0000
0100
0000
0010
0000
,
0100
0010
0001
0000
1000
0000
0001
0000
,
0100
1000
0010
0000
0100
0000
0001
0000
,
0010
0100
1000
0000
0100
0000
1000
0000
,
0010
0100
0001
0000
1000
0000
0010
0000
,
0100
0001
0000
0000
0000
0000
0000
0000
1000
0000
0010
0000
0200
0000
0000
0000
,
0000
0000
0000
0001
0000
0000
0000
0000
,
0000
0000
0000
0300
0001
0010
0100
0020
,
0000
0000
0000
0200
0000
0000
0000
0000
,
0000
0030
0300
0000
0100
1000
0020
0000
,
0000
0000
0000
2000
0000
0000
0000
0000
,
0000
0000
0000
3030
0002
0000
0000
0000
,
0000
0000
0000
0200
0000
0000
0000
0000
,
0000
0003
0300
0000
0001
0010
0200
0000
,
0000
0000
0000
0320
0000
0000
0000
0000
,
0000
0000
0000
0030
0100
1000
0001
2000
,
0000
0000
0000
0200
0000
0000
0000
0000
,
0000
3000
0300
0000
1000
0010
0200
0000
,
0000
0000
0000
0002
0000
0000
0000
0000
,
0000
0303
0202
0000
,
0000
0303
0000
1010
0020
1030
0200
0310
,
1100
0000
0000
0000
;

//---------------dance-single - ----------------
#NOTES:
     dance-single:
     :
     Easy:
     3:
     0.173,0.273,0.155,0.132,0.000:
0000
0000
0000
0000
,
1001
0000
0000
0000
,
0001
0000
0000
0000
,
0001
0000
0000
0000
,
0001
0000
0000
0000
,
1000
0000
0000
0000
,
1000
0000
0000
0000
,
1000
0000
0000
0000
,
0220
0000
0000
0330
,
0100
0000
0010
0000
,
1000
0000
0100
0000
,
1000
0000
0010
0000
,
0200
0000
0302
0000
,
0013
0000
0001
0000
,
1000
0000
0010
0000
,
0100
0000
0001
1000
,
0220
0000
0000
0330
,
0100
0000
0001
0000
,
1000
0000
0100
0000
,
1000
0000
0001
0000
,
0200
0000
0000
0300
,
1001
0000
0000
0000
,
1001
0000
0000
0000
,
0001
0010
0100
1000
,
0200
0000
0320
0000
,
0031
0000
0000
0000
,
0010
0000
0001
0000
,
1000
0000
0100
0000
,
1000
0000
0001
0000
,
0010
0100
0000
0000
0000
0000
0000
0000
,
0100
0010
0000
0000
0000
0000
0000
0000
,
0001
0100
0000
0000
0000
0000
0000
0010
,
1000
0000
0001
1000
,
1010
0000
0010
0000
,
0100
0000
0001
0000
,
1001
0000
1000
0000
,
1100
0000
1100
0011
,
1001
0000
0001
0000
,
0101
0000
0100
0000
,
0110
0000
1001
0000
,
0220
0000
0000
0330
,
0100
0000
1000
0001
,
0100
0000
0001
1000
,
0001
0000
1000
0100
,
1000
0000
0100
1000
,
0010
0000
0100
0001
,
0011
0000
0010
0100
,
1100
0000
0100
0010
,
2002
0000
0000
3003
0001
0000
0100
0000
,
0000
0000
0000
0010
0000
0000
0000
0000
,
0000
0000
0000
0000
0100
0000
0001
1000
,
0000
0000
0000
0100
0000
0000
0000
0000
,
0000
0000
1000
0010
,
0000
0000
0000
0100
0000
0000
0000
0000
,
0000
0000
0002
0000
,
0000
0000
0000
2000
0000
0000
0000
0000
,
0000
0003
3000
0000
0100
0000
0010
0000
,
0000
0000
0000
0100
0000
0000
0000
0000
,
0000
0000
0000
0000
0010
0000
0001
0100
,
0000
0000
0000
0001
0000
0000
0000
0000
,
0000
0000
1000
0010
,
0000
0000
0000
0100
0000
0000
0000
0000
,
0000
0000
1002
0000
,
0000
0000
0000
2000
0000
0000
0000
3003
,
0110
0000
0000
0000
;

//---------------dance-single - ----------------
#NOTES:
     dance-single:
     :
     Beginner:
     1:
     0.110,0.124,0.078,0.000,0.000: // measure 1
0000
0000
0000
0000
,  // measure 2
1001
0000
0000
0000
,  // measure 3
0001
0000
0000
0000
,  // measure 4
0001
0000
0000
0000
,  // measure 5
0001
0000
0000
0000
,  // measure 6
1000
0000
0000
0000
,  // measure 7
1000
0000
0000
0000
,  // measure 8
1000
0000
0000
0000
,  // measure 9
0110
0000
0000
0000
,  // measure 10
1001
0000
0000
0000
,  // measure 11
0001
0000
0000
0000
,  // measure 12
0100
0000
0000
0000
,  // measure 13
0001
0000
0100
0000
,  // measure 14
0001
0000
0000
0000
,  // measure 15
1000
0000
0000
0000
,  // measure 16
0100
0000
0010
0010
,  // measure 17
0100
0000
0000
0000
,  // measure 18
1001
0000
0000
0000
,  // measure 19
1000
0000
0000
0000
,  // measure 20
0010
0000
0000
0000
,  // measure 21
1000
0000
0100
0000
,  // measure 22
0010
0000
0000
0001
,  // measure 23
0000
0000
0000
0001
,  // measure 24
0001
0000
0100
0000
,  // measure 25
0010
0000
1000
0000
,  // measure 26
1001
0000
0000
0000
,  // measure 27
0001
0000
0010
0000
,  // measure 28
0100
0000
0010
0000
,  // measure 29
0001
0000
1000
0000
,  // measure 30
0110
0000
0000
0000
,  // measure 31
0001
0000
0000
0000
,  // measure 32
1000
0000
0000
0000
,  // measure 33
0100
0000
0010
0000
,  // measure 34
0001
0000
0000
0000
,  // measure 35
0100
0000
0000
0000
,  // measure 36
0001
0000
0000
0000
,  // measure 37
1000
0000
0100
0000
,  // measure 38
1000
0000
0000
0000
,  // measure 39
0010
0000
0000
0000
,  // measure 40
0100
0000
0010
0000
,  // measure 41
1001
0000
0000
0000
,  // measure 42
0110
0000
0000
0000
,  // measure 43
0100
0000
0000
0000
,  // measure 44
0001
0000
0000
0000
,  // measure 45
1000
0000
0100
0000
,  // measure 46
1000
0000
0000
0000
,  // measure 47
0010
0000
0000
0000
,  // measure 48
0100
0000
0001
0000
,  // measure 49
1001
0000
1000
1000
,  // measure 50
0000
0000
0100
0000
,  // measure 51
0000
0000
0010
0010
,  // measure 52
0000
0000
0001
0000
,  // measure 53
0000
0000
0100
0001
,  // measure 54
0000
0000
1000
0000
,  // measure 55
0000
0000
0100
0000
,  // measure 56
0000
0000
0010
0000
,  // measure 57
0000
0000
0001
1000
,  // measure 58
0000
0000
1000
0000
,  // measure 59
1000
0000
0001
0100
,  // measure 60
0000
0000
0010
0000
,  // measure 61
0100
0000
0001
0010
,  // measure 62
0000
0000
0001
0000
,  // measure 63
1000
0000
0100
0000
,  // measure 64
0000
0000
0010
0000
,  // measure 65
1001
0000
0000
0000
;
