#TITLE:Pompeii;
#SUBTITLE:;
#ARTIST:E.S. Posthumus;
#TITLETRANSLIT:;
#SUBTITLETRANSLIT:;
#ARTISTTRANSLIT:;
#CREDIT:;
#BANNER:Pompeii.png;
#BACKGROUND:Pompeii-background.png;
#LYRICSPATH:;
#CDTITLE:;
#MUSIC:Pompeii.mp3;
#OFFSET:-1.580;
#SAMPLESTART:12.640;
#SAMPLELENGTH:12.000;
#SELECTABLE:YES;
#BPMS:0.000=86.960;
#STOPS:160.000=0.690
;
#BGCHANGES:;

//---------------dance-single - ----------------
#NOTES:
     dance-single:
     :
     Hard:
     9:
     0.475,0.558,0.540,0.000,0.465:
0000
0000
0000
0000
,
0000
0000
0000
0000
,
0000
0000
0000
0000
,
0000
0000
0000
0000
,
0001
0100
1000
0100
0010
1000
0001
0000
,
1000
0100
0001
0100
0010
0001
1000
0000
,
0001
0010
1000
0010
0001
1000
0010
0000
,
1000
0010
0001
0010
1000
0001
0010
0000
,
0100
0010
0001
0100
1000
0100
0010
0000
,
1000
0010
0100
0001
0010
1000
0010
0000
,
0100
0010
0001
1000
0010
0100
0001
0000
,
1000
0100
0010
0100
1000
0001
1000
0000
,
0101
0010
1100
0010
0101
1010
1001
0000
,
1100
0010
0101
0010
1100
0011
1001
0000
,
0011
0100
1010
0100
0011
1100
1001
0000
,
1010
0100
0011
0100
0011
1100
1001
0000
,
0001
1000
0001
0000
0000
0000
0001
0100
0001
0000
0000
0000
0100
0000
0010
0000
,
1000
0010
0100
0000
0000
0000
0010
1000
0100
0000
0000
0000
0000
0000
0010
0000
,
0001
1000
0010
0000
0000
0000
0100
0001
1000
0000
0000
0000
0000
0000
0100
0000
,
0010
0001
1000
0000
0000
0000
1000
0010
0100
0000
0000
0000
0000
0000
0010
0000
,
1000
0010
0100
0000
0001
0000
0010
0100
1000
0000
0100
0000
0010
0000
0001
0000
,
1000
0001
0100
0000
0001
0000
0010
0100
0010
0000
0001
0000
0010
0000
1000
0000
,
0010
0100
1000
0000
0010
0000
0100
0001
0010
0000
0001
0000
1000
0000
0010
0000
,
0100
0001
0010
0000
0100
0000
1000
0000
0100
1000
0100
1000
0100
1000
0100
1000
,
0100
0100
0010
0000
0000
0010
0000
0100
0000
1000
0000
0001
0100
0000
0010
0000
,
1000
1000
0010
0000
0000
0100
0000
0001
0000
1000
0000
0100
0010
0000
0001
0000
,
1000
1000
0010
0000
0000
0100
0000
0010
0000
1000
0000
0010
0100
0000
1000
0000
,
0001
0001
0010
0000
0000
0100
0000
0010
0000
0001
0000
1000
0010
0000
0100
0000
,
0001
0001
0100
0000
0000
1010
0000
0101
0000
0011
0000
0010
0110
0000
1001
0000
,
0001
0001
0010
0000
0000
0011
0000
1100
0000
1010
0000
0010
1010
0000
0101
0000
,
0010
0010
1000
0000
0000
1010
0000
0101
0000
0011
0000
0010
0110
0000
1100
0000
,
1000
1000
0100
0000
0000
1100
0000
0011
0000
0101
0000
1010
0101
0000
1001
0000
,
0001
0000
0000
0001
0000
0000
0001
0000
0000
0001
0000
0000
0001
0000
0001
0000
,
1000
0000
0000
1000
0000
0000
1000
0000
0000
1000
0000
0000
1000
0000
1000
0000
,
0010
0000
0000
0010
0000
0000
0010
0000
0000
0010
0000
0000
0010
0000
0010
0000
,
0100
0000
0000
0100
0000
0000
0100
0000
0000
0100
0000
0000
0100
0000
0100
0000
,
0001
0100
0010
1000
0001
0100
0010
1000
0001
0100
0010
1000
0001
0100
0001
0000
,
1000
0100
0010
0001
0010
0100
1000
0100
0010
0001
0010
0100
1000
0001
1000
0000
,
0100
1000
0010
0100
0001
1000
0010
0100
0001
0010
0100
0010
0001
1000
0010
0000
,
0100
0001
0100
0010
1000
0001
0010
0100
1000
0100
0010
0001
1001
0010
1001
0000
,
0000
0000
0000
0000
0001
0100
0001
0100
0001
0100
0001
0100
0001
0001
0100
0000
,
0000
1010
0000
0101
0000
0011
0000
0010
0110
0000
1100
0000
1001
0001
0001
0000
,
0000
1001
0000
1010
0000
0110
0000
0001
0101
0000
1010
0000
1100
0100
0100
0000
,
0000
0110
0000
1100
0000
0011
0000
0001
0101
0000
1010
0000
1001
1001
1001
0000
,
0000
0101
0000
1010
0000
1100
0000
0011
1100
0000
1010
0000
0000
0000
0000
0000
;

//---------------dance-single - ----------------
#NOTES:
     dance-single:
     :
     Medium:
     6:
     0.317,0.419,0.250,0.117,0.239:
0000
0000
0000
0000
,
0000
0000
0000
0000
,
0000
0000
0000
0000
,
0000
0000
0000
0000
,
0001
0100
0001
0100
0001
0100
0001
0000
,
1000
0100
1000
0100
1000
0100
1000
0000
,
0100
0010
0100
0010
0100
0010
0100
0000
,
0010
0001
0010
0001
0010
0001
0010
0000
,
0001
1000
0001
1000
0001
1000
0010
0000
,
0100
0001
0100
0001
0100
0001
0010
0000
,
0100
1000
0100
1000
0100
1000
0010
0000
,
0100
0010
0100
0010
0100
0010
1000
0000
,
1000
0100
0010
0001
0010
0100
1000
0000
,
1000
0100
0010
0001
1000
0100
0010
0000
,
0001
0010
0100
1000
0100
0010
0001
0000
,
0001
0010
0100
1000
0001
0010
0100
0000
,
1001
0000
1000
0100
,
0020
0000
0000
0100
0230
0000
0300
0000
,
1002
0000
1000
1000
,
2000
0000
0000
0000
0000
3003
0000
0000
,
0210
0000
0001
0010
,
0302
0000
0000
0010
0020
0000
0033
0000
,
0210
0000
2300
0000
,
3020
0000
0000
0000
0200
0000
0000
0330
,
0010
0000
1000
0000
0000
0100
0000
1000
0000
0100
0000
1000
0100
0000
0010
0000
,
0001
0000
0001
0000
0000
0010
0000
0001
0000
1000
0000
0010
0100
0000
0001
0000
,
1000
0000
1000
0000
0000
0100
0000
0010
0000
0001
0000
0010
0001
0000
0010
0000
,
0100
0000
0100
0000
0000
0010
0000
0001
0000
1000
0000
0010
0100
0000
0001
0000
,
1001
0000
1001
0000
0000
0001
0000
0100
0000
0001
0000
0100
0001
0000
0100
0000
,
0110
0000
0110
0000
0000
0010
0000
0100
0000
0010
0000
0100
0010
0000
1000
0000
,
1010
0000
1010
0000
0000
0010
0000
1000
0000
0010
0000
1000
0010
0000
1000
0000
,
1010
0000
0101
0000
0000
0001
0000
0010
0000
1000
0000
0010
0100
0000
1000
0000
,
0002
0000
0000
0000
,
2003
0000
0000
0000
,
3020
0000
0000
0000
,
0230
0000
0000
0000
0000
0000
0000
0300
,
0101
0000
0000
1010
0000
0000
1100
0000
0000
0011
0000
0000
0001
1000
0001
0000
,
0101
0000
0000
1010
0000
0000
1100
0000
0000
0110
0000
0000
0010
0100
0010
0000
,
0110
0000
0000
1100
0000
0000
0011
0000
0000
0101
0000
0000
0001
0100
0001
0000
,
0101
0000
0000
1010
0000
0000
1001
0000
0000
1100
0000
0000
1000
0100
0010
0000
,
0000
0000
0100
0010
0001
1000
0001
0100
,
0000
0010
0000
0100
0000
0010
0000
0100
0010
0000
1000
0000
0001
0000
0001
0000
,
0000
1000
0000
0100
0000
0010
0000
0001
0010
0000
0001
0000
0100
0000
0100
0000
,
0000
0010
0000
1000
0000
0010
0000
0100
0001
0000
0100
0000
0001
0100
0010
0000
,
0000
0110
0000
1010
0000
0011
0000
0001
0010
0000
1100
0000
0000
0000
0000
0000
;

//---------------dance-single - ----------------
#NOTES:
     dance-single:
     :
     Easy:
     3:
     0.193,0.314,0.250,0.196,0.000:
0000
0000
0000
0000
,
0000
0000
0000
0000
,
0000
0000
0000
0000
,
0000
0000
0000
0000
,
0001
0100
0001
0100
,
0010
1000
0010
1000
,
0001
1000
0001
1000
,
0100
0010
0100
0010
,
0100
1000
0100
1000
,
0001
1000
0001
1000
,
0001
0100
0001
0100
,
0010
1000
0010
1000
,
1010
1010
1010
1010
,
0101
0101
0101
0101
,
0011
0011
0011
0011
,
1100
1100
1100
1100
,
2000
0000
0001
0001
,
3002
0000
0000
0103
0002
0000
0003
0000
,
0200
0000
0010
0010
,
0020
0000
0330
0000
,
0020
0000
1030
0100
,
0020
0000
0000
0100
0200
0000
0330
0000
,
0200
0000
2300
0000
,
3002
0000
0000
0000
0020
0000
0000
0033
,
0001
0010
0000
0000
0010
0000
0100
0000
,
0100
1000
0000
0000
0100
0000
1000
0000
,
0001
1000
0000
0000
0010
0000
1000
0000
,
0100
0100
0000
0000
0010
0000
0001
0000
,
0201
0000
0000
0000
0000
0000
0000
0300
,
0020
0000
0000
0000
0000
0000
0000
0030
,
2000
0000
0000
0000
0000
0000
0000
3000
,
0022
0000
0000
0000
0000
0000
0000
0033
,
0010
0000
0000
0000
,
0001
0000
0000
0000
,
1000
0000
0000
0000
,
0010
0000
0000
0000
,
0110
0000
0000
1001
0000
0000
0010
1000
,
1100
0000
0000
0110
0000
0000
0010
0001
,
0101
0000
0000
1010
0000
0000
0010
0100
,
1001
0000
0000
0101
0000
0000
0101
1010
,
0000
0000
0001
1000
0001
1000
2002
0000
,
0000
0000
0000
0000
0000
3003
0202
0000
,
0000
0000
0000
0000
0000
0303
2020
0000
,
0000
0000
0000
0000
0000
3030
0022
0000
,
0000
0000
0000
0000
0000
0033
0000
0000
;

//---------------dance-single - ----------------
#NOTES:
     dance-single:
     :
     Beginner:
     1:
     0.079,0.122,0.094,0.000,0.000: // measure 1
0000
0000
0000
0000
,  // measure 2
0000
0000
0000
0000
,  // measure 3
0000
0000
0000
0000
,  // measure 4
0000
0000
0000
0000
,  // measure 5
0001
0000
0000
0000
,  // measure 6
0100
0000
0000
0000
,  // measure 7
0001
0000
0000
0000
,  // measure 8
0010
0000
0000
0000
,  // measure 9
0001
0000
0000
0000
,  // measure 10
1000
0000
0000
0000
,  // measure 11
0100
0000
0000
0000
,  // measure 12
1000
0000
0000
0000
,  // measure 13
0010
0000
0010
0000
,  // measure 14
0100
0000
0100
0000
,  // measure 15
0001
0000
0001
0000
,  // measure 16
1000
0000
1000
0000
,  // measure 17
1001
0000
0000
0000
,  // measure 18
0001
0000
0100
0000
,  // measure 19
0110
0000
0010
0010
,  // measure 20
0010
0000
0000
0000
,  // measure 21
1001
0000
1000
1000
,  // measure 22
1000
0000
0100
0000
,  // measure 23
0010
0000
0001
0000
,  // measure 24
1000
0000
0010
0000
,  // measure 25
0100
0000
0000
0000
,  // measure 26
0001
0000
0000
0000
,  // measure 27
1000
0000
0000
0000
,  // measure 28
0100
0000
0000
0000
,  // measure 29
1001
0000
0000
0000
,  // measure 30
0110
0000
0000
0000
,  // measure 31
1001
0000
0000
0000
,  // measure 32
0110
0000
0000
0000
,  // measure 33
0001
0000
0000
0000
,  // measure 34
0001
0000
0000
0000
,  // measure 35
1000
0000
0000
0000
,  // measure 36
1000
0000
0000
0000
,  // measure 37
0010
0000
0000
0100
,  // measure 38
0001
0000
0000
1000
,  // measure 39
0001
0000
0000
1000
,  // measure 40
0010
0000
0000
0100
,  // measure 41
0000
0010
0010
1001
,  // measure 42
0000
0000
0000
0110
,  // measure 43
0000
0000
0000
1001
,  // measure 44
0000
0000
0000
0110
,  // measure 45
0000
0000
1001
0000
;
