#TITLE:Played-A-Live;
#SUBTITLE:(The Bongo Song);
#ARTIST:Safri Duo;
#TITLETRANSLIT:;
#SUBTITLETRANSLIT:;
#ARTISTTRANSLIT:;
#CREDIT:;
#BANNER:Played-A-Live (The Bongo Song).png;
#BACKGROUND:Played-A-Live (The Bongo Song)-background.png;
#JACKET:Played-A-Live (The Bongo Song)-jacket.png;
#LYRICSPATH:;
#CDTITLE:Pdmix3CDt.png;
#MUSIC:Played-A-Live (The Bongo Song).mp3;
#OFFSET:-0.034;
#SAMPLESTART:70.240;
#SAMPLELENGTH:12.000;
#SELECTABLE:YES;
#BPMS:0.000=138.000;
#STOPS:29.500=1.087
;
#BGCHANGES:;

//---------------dance-single - ----------------
#NOTES:
     dance-single:
     :
     Hard:
     9:
     0.451,0.522,0.108,0.090,0.542:
0000
0000
0000
0000
,
0000
0000
0000
0000
,
0000
0000
0000
0000
,
0000
0000
0000
0000
,
1000
0000
0000
0010
0000
0000
0100
0000
0000
0100
0000
0000
0100
0000
0010
0000
,
1000
0000
0001
1000
0000
1000
0100
0000
0000
1000
0000
0000
0001
0000
0100
0000
,
0001
0000
0010
0100
0000
0100
1000
0000
0000
0001
0000
0000
0100
0000
0000
0001
,
0000
0010
0100
1100
0000
0001
0100
0000
,
0000
0001
0100
0000
0000
0001
0100
0000
,
0000
0000
0001
0000
0100
0000
0010
0000
1000
0010
0000
1000
0010
0000
0000
0000
,
0000
0010
0100
0000
0000
0010
0100
0000
,
0000
0000
0010
0000
0100
0000
0010
0000
1000
0100
0000
0010
0001
0000
0000
0000
,
0000
0001
0010
0000
0000
0001
0010
0000
,
0000
0000
0001
0000
0010
0000
0100
0000
1000
0100
0000
0010
0001
0000
0000
0000
,
0000
0000
0001
0000
0100
0000
0010
0000
1000
0010
0000
0100
0020
0000
0000
0000
,
2030
0000
3100
0000
1001
0000
0001
1000
,
0001
0100
0000
0000
0001
0010
0001
1000
,
0010
0000
0000
0100
0000
0001
0100
0000
0000
0000
0010
0000
1000
0000
0100
0000
,
0001
0000
0100
0000
0000
0000
0000
0100
0000
0100
0010
0000
0100
0000
0001
0000
,
1000
0000
1000
0001
0000
0001
0100
0000
0001
0000
0010
0000
0100
0000
0010
0000
,
0001
0000
0100
0000
0000
0000
0000
0010
0000
0010
1000
0000
0100
0000
1000
0000
,
0001
0000
0000
0100
0000
0001
0010
0000
0000
0000
0010
0000
0100
0000
1000
0000
,
0001
0000
0100
0000
0000
0000
0000
0001
0000
1000
0100
0000
1000
0000
0001
0000
,
0100
0000
0001
0010
0000
0100
1000
0000
0001
0000
1000
0000
0200
0000
0000
0000
,
0000
0300
0000
2000
,
0000
3000
0000
0002
,
0000
0003
0000
0200
,
0000
0300
0010
2000
,
0000
3000
0000
0020
,
0000
0030
0000
0200
,
0000
0300
0000
0002
,
0000
0003
0000
1000
,
0001
0100
0001
0010
,
0100
0010
0001
1000
,
0010
0100
0010
1000
,
0001
0000
1000
0100
0001
0100
1000
0000
,
0010
0001
0010
0110
,
0010
1000
0001
0101
,
1100
0101
1100
1010
,
0011
1010
0011
1001
,
0001
0000
0100
0000
0001
0000
0100
0000
0000
0001
0000
0000
0000
0000
0000
0100
0000
0000
0000
0000
0000
0001
0000
0000
1000
0000
0000
0000
0000
0000
0001
0000
0000
1000
0000
0000
0100
0000
0000
1000
0000
0000
0000
0000
0000
0000
0000
0000
,
0001
0000
0000
0100
0000
0001
0000
0000
0010
0000
0000
0100
0000
1000
0000
0000
,
0001
0000
0000
0100
0000
0001
0000
0000
0010
0000
0010
0100
0000
1000
0000
0000
,
0001
0000
0000
0001
0000
0100
0000
0000
0010
0000
0000
0100
0000
0001
0000
0000
,
1000
0000
0000
0100
0000
0001
0000
0000
0100
0000
0010
0001
0000
1000
0000
0000
,
0001
0000
0000
0001
0000
0100
0000
0000
0010
0000
0000
0100
0000
0001
0000
0000
,
1000
0000
0000
0100
0000
1000
0000
0000
0010
0000
0100
0010
0000
1000
0000
0000
,
0001
0000
0000
0010
0000
0100
0000
0000
1000
0000
0000
0100
0000
1000
0000
0000
,
0010
0000
0000
0100
0000
0001
0000
0000
1000
0000
0001
0100
0000
0010
0000
0000
,
0100
0000
0000
0010
0000
1000
0000
0010
0100
0000
0000
0010
0000
1000
0000
0001
,
1000
0000
0000
1000
0000
0100
0000
0010
0001
0000
0001
0100
0000
0010
0000
1000
,
0010
0000
0000
0100
0000
0001
0000
1000
0100
0000
0000
1000
0000
0001
0000
0100
,
0001
0000
0001
0010
0000
0100
0000
1000
0100
0000
1000
0010
0000
0100
0000
0001
,
1000
0000
0000
1000
0000
0001
0000
0100
0001
0000
0000
0010
0000
0100
0000
1000
,
0100
0000
0000
1000
0000
0010
0000
0100
0010
0000
0010
1000
0000
0001
0000
0010
,
0100
0000
0000
0100
0000
1000
0000
0010
0100
0000
0000
0010
0000
1000
0000
0001
,
0010
0000
0000
0001
0000
0100
0000
0010
1000
0000
1000
0100
1000
0000
0000
0000
,
0000
0001
1000
0000
0000
0100
1000
0000
,
0000
0000
1000
0000
0010
0000
0100
0000
0001
1000
0000
0001
0100
0000
0000
0000
,
0000
0001
0100
0000
0000
0100
0010
0000
,
0000
0000
0100
0000
0010
0000
1000
0000
0001
0100
0000
0010
0100
0000
0000
0000
;

//---------------dance-single - ----------------
#NOTES:
     dance-single:
     :
     Medium:
     5:
     0.325,0.357,0.027,0.090,0.000:
0000
0000
0000
0000
,
0000
0000
0000
0000
,
0000
0000
0000
0000
,
0000
0000
0000
0000
,
0000
0000
0000
1000
0000
1000
0000
0001
,
0000
0001
0000
0100
0000
0100
0000
0010
,
0000
0010
0000
0100
0000
0100
0000
0100
,
0000
0100
0010
1001
0000
0001
0100
0000
,
0000
0001
0100
0000
0000
0001
0100
0000
,
0000
0001
0100
0000
0010
0000
1000
0000
,
0000
0010
1000
0000
0000
0010
1000
0000
,
0000
0010
1000
0000
0001
0000
0100
0000
,
0000
0010
0100
0000
0000
0010
0100
0000
,
0000
0010
0100
0000
0010
0000
1000
0000
,
0000
1000
0001
0000
0100
0000
0002
0000
,
2003
0000
0100
0000
3100
0000
1000
0100
,
1000
0000
0100
0000
0010
0000
0001
0010
,
0100
0000
0010
0001
1000
0000
0001
0100
,
0010
1000
0000
0000
0010
0100
0001
0000
,
0001
0000
1000
0000
1000
0000
0010
0100
,
0001
0100
0000
0000
0001
0100
0010
0000
,
0010
0000
0100
0000
0001
0000
1000
0100
,
0010
0100
0000
0000
0100
1000
0010
0000
,
0100
0000
0010
0000
0010
1000
0002
0000
,
0000
0003
0000
2000
,
0000
3000
0000
0020
,
0000
0030
0000
0200
,
0000
0300
0010
2000
,
0000
3000
0000
0002
,
0000
0003
0000
0020
,
0000
0030
0000
0200
,
0000
0300
1000
0001
,
1000
0001
1000
0010
,
1000
0010
1000
0010
,
0100
0010
0100
0010
,
0100
0000
0001
0000
1000
0001
1000
0000
,
0010
0100
0001
0010
,
0010
0100
0100
1000
,
1000
1000
1000
1000
,
1000
1000
1000
0101
,
0000
0000
0000
0000
0000
0000
0010
1000
,
0010
0000
0100
0000
0010
0000
1000
0001
,
0010
0000
0100
0000
1000
0100
0010
0000
,
0001
0000
0010
0100
1000
0000
0100
1000
,
0010
0000
0100
0010
1000
0001
1000
0100
,
1000
0000
0010
0000
0100
0000
0001
0100
,
0001
0000
0100
0000
0010
0000
0100
0001
,
1000
0000
0001
0010
0100
0000
0100
0010
,
0001
0000
0001
0010
0100
0000
0100
1000
,
0010
0000
0100
0000
0001
0000
1000
0010
,
0100
0000
0001
0000
0100
0000
0010
0100
,
0001
0000
1000
0000
0001
0000
0001
0100
,
0010
0000
0100
0010
1000
0000
1000
0001
,
0100
0000
0001
0000
0010
0000
0100
1000
,
0010
0000
0100
0000
0001
0000
0001
0100
,
1000
0000
1000
0100
0010
0000
0010
0001
,
0010
0000
0001
0010
1000
0010
0100
0000
,
0000
0100
0010
0000
0000
0100
0010
0000
,
0000
0100
0010
0000
1000
0000
0001
0000
,
0000
0001
1000
0000
0000
1000
0001
0000
,
0000
0001
1000
0000
0010
0000
0110
0000
;

//---------------dance-single - ----------------
#NOTES:
     dance-single:
     :
     Easy:
     3:
     0.195,0.275,0.045,0.072,0.000:
0000
0000
0000
0000
,
0000
0000
0000
0000
,
0000
0000
0000
0000
,
0000
0000
0000
0000
,
0000
0000
0000
1000
0000
0000
0000
0001
,
0000
0001
0000
1000
0000
0000
0000
0010
,
0000
0010
0000
0100
0000
0001
0000
1000
,
0000
0001
0000
1001
0000
0000
0001
0000
,
0000
0001
0000
0001
,
0000
0001
1000
0010
,
0000
0010
0000
0010
,
0000
0010
1000
0100
,
0000
0100
0000
0100
,
0000
0100
0010
0001
,
0000
1000
0001
0100
,
0101
0001
0101
0001
,
1000
0000
1000
0100
,
1000
0001
0000
0001
,
0100
0000
0001
1000
,
1000
0010
0000
0100
,
0001
0000
0100
0010
,
0010
1000
0000
0001
,
1000
0000
0100
1000
,
0010
0100
0000
0002
,
0000
0003
0000
2000
,
0000
3000
0000
0020
,
0000
0030
0000
0200
,
0000
0300
0010
0200
,
0000
0300
0000
0020
,
0000
0030
0000
2000
,
0000
3000
0000
0002
,
0000
0003
1000
0100
,
0000
1000
0000
0010
,
0000
0100
0000
0001
,
0000
1000
0000
0100
,
0000
1000
0010
1000
,
0000
0010
0000
0100
,
0000
0001
0000
1000
,
0000
0001
0000
0100
,
0100
0100
0100
1001
,
0000
0000
0000
0001
,
0000
1000
0000
0100
,
0000
1000
0010
1000
,
0000
0010
0000
0100
,
0100
0001
0001
1000
,
0000
0100
0000
1000
,
0000
0010
0000
0100
,
0001
0000
0100
0000
,
0010
0000
1000
0100
,
0001
0000
0100
0000
,
0010
0000
0100
1000
,
0010
0000
0001
0000
,
0010
0000
0100
0010
,
0001
0000
0010
0000
,
1000
0000
0100
0010
,
0001
0000
0001
0000
,
0100
0000
0010
1000
,
0000
0001
0000
1000
,
0000
0001
1000
0100
,
0000
0010
0000
0100
,
0000
0010
0100
1001
;

//---------------dance-single - ----------------
#NOTES:
     dance-single:
     :
     Beginner:
     1:
     0.089,0.137,0.045,0.000,0.000: // measure 1
0000
0000
0000
0000
,  // measure 2
0000
0000
0000
0000
,  // measure 3
0000
0000
0000
0000
,  // measure 4
0000
0000
0000
0000
,  // measure 5
0000
0000
0000
0010
0000
0000
0000
0000
,  // measure 6
0000
0000
0000
0100
0000
0000
0000
0000
,  // measure 7
0000
0000
0000
0001
0000
0000
0000
1000
,  // measure 8
0000
0000
0000
1001
0000
0000
0010
0000
,  // measure 9
0000
0000
0000
0010
,  // measure 10
0000
0000
0000
0100
,  // measure 11
0000
0000
0000
0100
,  // measure 12
0000
0000
0000
0001
,  // measure 13
0000
0000
0000
0001
,  // measure 14
0000
0000
0000
1000
,  // measure 15
0000
0000
0000
0010
,  // measure 16
0010
0010
0000
1001
,  // measure 17
0000
0000
0000
1000
,  // measure 18
0000
0000
0000
0100
,  // measure 19
0000
0000
0000
1000
,  // measure 20
0000
0000
0000
0001
,  // measure 21
0000
0000
0000
0100
,  // measure 22
0000
0000
0000
0001
,  // measure 23
0000
0000
0000
1000
,  // measure 24
0000
0000
0000
0100
,  // measure 25
0000
0000
0000
0000
,  // measure 26
0000
0000
0000
0000
,  // measure 27
0000
0000
0000
0000
,  // measure 28
0000
0000
0010
0001
,  // measure 29
0000
0000
0000
0000
,  // measure 30
0000
0000
0000
0000
,  // measure 31
0000
0000
0000
0000
,  // measure 32
0000
0000
1000
0100
,  // measure 33
0000
0000
0000
1000
,  // measure 34
0000
0000
0000
0001
,  // measure 35
0000
0000
0000
0100
,  // measure 36
0000
0000
0001
0100
,  // measure 37
0000
0000
0000
0010
,  // measure 38
0000
0000
0000
1000
,  // measure 39
0000
0000
0000
0001
,  // measure 40
0000
0000
0000
1001
,  // measure 41
0000
0000
0000
0010
,  // measure 42
0000
0000
0000
0100
,  // measure 43
0000
0000
0000
0001
,  // measure 44
0000
0000
0000
1000
,  // measure 45
0000
0100
0000
1000
,  // measure 46
0000
0000
0000
0010
,  // measure 47
0000
0000
0000
0100
,  // measure 48
0000
0000
0000
0001
,  // measure 49
0000
0001
0000
1001
,  // measure 50
0000
0000
0000
1000
,  // measure 51
0000
0000
0000
0100
,  // measure 52
0000
0000
0000
1000
,  // measure 53
0000
0010
0000
0100
,  // measure 54
0000
0000
0000
0001
,  // measure 55
0000
0000
0000
1000
,  // measure 56
0000
0000
0000
0001
,  // measure 57
0000
0000
0000
0100
,  // measure 58
0000
0000
0000
0100
,  // measure 59
0000
0000
0000
0010
,  // measure 60
0000
0010
0000
0010
,  // measure 61
0000
0010
0100
1001
;
