#TITLE:Pineapple Juniors;
#SUBTITLE:;
#ARTIST:SAINT PEPSI;
#TITLETRANSLIT:;
#SUBTITLETRANSLIT:;
#ARTISTTRANSLIT:;
#CREDIT:;
#BANNER:Pineapple Juniors.png;
#BACKGROUND:Pineapple Juniors-background.png;
#JACKET:Pineapple Juniors-jacket.png;
#LYRICSPATH:;
#CDTITLE:;
#MUSIC:Pineapple Juniors.mp3;
#OFFSET:-0.026;
#SAMPLESTART:74.880;
#SAMPLELENGTH:12.000;
#SELECTABLE:YES;
#BPMS:0.000=109.000;
#STOPS:;
#BGCHANGES:;

//---------------dance-single - ----------------
#NOTES:
     dance-single:
     :
     Hard:
     7:
     0.385,0.343,0.194,0.155,0.105:
0000
0000
0000
0000
,
0020
0000
0000
0000
0000
0000
0000
0000
0130
0000
0000
0100
0001
0000
0000
0000
,
0011
0000
0000
0000
1100
0000
0000
0000
0100
0000
0000
1000
0000
0000
0100
0000
,
0000
0100
0010
0000
0010
0001
1000
0000
,
0101
0000
0000
0000
0011
0000
0000
0000
0010
0000
0000
0100
0000
0000
0010
0000
,
0000
0100
1000
0000
0001
1000
0010
1000
,
1010
0000
0000
0000
0101
0000
0000
0000
0001
0000
0000
1000
0000
0000
0100
0000
,
0000
0010
0001
0000
0001
0010
1000
0000
,
0110
0000
0000
0000
1001
0000
0000
0000
1000
0000
0000
0001
0000
0000
0010
0000
,
0000
0100
1000
0100
1000
0100
0010
0001
,
1000
0000
0001
0000
1000
0000
0100
0000
0010
0000
0000
0010
0000
0000
0100
0000
,
0000
0010
0001
0100
0020
0000
0030
0000
,
0100
0000
0001
0000
1000
0000
0100
0000
1000
0000
0000
0001
0000
0000
0100
0000
,
0000
0001
1000
0100
0010
0100
1000
0001
,
0100
0000
0010
0000
1000
0000
0010
0000
0100
0000
0000
0001
0000
0000
0010
0000
,
0000
0100
0010
0001
1000
1000
0001
0000
,
0200
0000
0000
0000
0310
0000
0000
0000
0100
0000
0000
0100
0000
0000
0100
0000
,
0000
0001
0010
0100
1000
0100
0001
0100
,
1000
0000
0100
0000
1000
0000
0100
0000
0010
0000
0000
0001
0000
0000
0100
0000
,
0000
0010
0100
0001
1000
0100
0010
0100
,
1000
0000
0001
0000
0100
0000
0001
0000
0010
0000
0000
0100
0000
0000
1000
0000
,
0000
0001
1000
0010
0100
0001
0100
0001
,
0002
0013
0002
1003
,
0000
1000
0100
0010
0001
0000
1100
0000
,
0200
0000
0000
0000
0310
0000
0001
0000
1000
0000
0000
0001
0000
0000
0001
0000
,
0000
0100
0010
0100
0010
0100
0010
0100
,
0002
1000
1000
1003
,
2000
0001
0001
3001
,
0020
0100
0100
0130
,
0200
0010
0010
0310
,
1100
0000
0000
0000
0100
0000
0000
0000
1000
0000
0000
0001
0000
0000
0000
0000
,
0001
0000
0100
0000
1000
0000
0100
0000
0010
0000
0000
0100
0000
0000
0000
0000
,
0200
0001
0010
1000
,
0320
0000
0000
0000
0000
0000
0000
0000
0130
0000
0000
0001
0010
0000
0000
0000
,
1100
0000
0000
0000
0011
0000
0000
0000
0010
0000
0000
0001
0000
0000
0010
0000
,
0000
0010
0100
0000
0100
1000
0001
0000
,
1010
0000
0000
0000
1100
0000
0000
0000
0100
0000
0000
0010
0000
0000
0100
0000
,
0000
0010
0001
0000
1000
0001
0100
0001
,
0101
0000
0000
0000
1010
0000
0000
0000
1000
0000
0000
0001
0000
0000
0010
0000
,
0000
0100
1000
0000
1000
0100
0001
0000
,
0110
0000
0000
0000
1001
0000
0000
0000
0001
0000
0000
1000
0000
0000
0100
0000
,
0000
0010
0001
0010
0001
0010
0100
1000
,
0001
0000
1000
0000
0001
0000
0010
0000
0100
0000
0000
0100
0000
0000
0010
0000
,
0000
0100
1000
0010
0200
0000
0320
0000
,
2030
0000
0000
0000
3100
0000
0001
0000
0100
0000
0000
0010
0000
0000
0100
0000
,
0000
0100
0010
0001
1000
0010
0100
0001
,
1001
0000
0000
0000
0011
0000
0000
0000
0010
0000
0000
0100
0000
0000
1000
0000
,
0000
0001
0010
0010
0002
0000
2003
0000
,
3100
0000
0000
0000
0011
0000
0000
0000
0010
0000
0000
0100
0000
0000
1000
0000
,
0000
0001
0100
0100
0020
0000
1030
0001
,
1000
0000
0000
0100
0000
0000
0010
0000
0001
0000
0000
0001
0000
0000
0100
0000
,
0010
0000
0000
1000
0000
0000
0100
0000
0010
0000
0100
0000
0110
0000
0000
0000
,
1000
0010
1000
0001
0010
0001
1000
0010
,
0110
0000
0000
0000
1001
0000
0000
0000
0001
0000
0000
0001
0000
0000
0100
0000
,
0000
0010
1000
0100
0020
0000
0230
0000
,
1300
0011
0000
0000
;

//---------------dance-single - ----------------
#NOTES:
     dance-single:
     :
     Medium:
     5:
     0.329,0.322,0.264,0.078,0.000:
0000
0000
0000
0000
,
0020
0000
0130
1001
,
0101
0101
0001
0100
,
0010
0000
1000
0010
0100
0000
0100
0000
,
0110
1001
1000
0100
,
0001
0000
0100
0010
0001
0000
1000
0000
,
0101
0101
0001
1000
,
0010
0000
0100
0010
1000
0000
0002
0000
,
0013
1100
0100
0010
,
0100
1000
0100
1000
,
1100
0011
0001
0100
,
0010
0000
0100
0001
1000
0000
0001
0000
,
1000
0100
1000
0000
0100
0000
0010
0000
,
0100
0000
1000
0100
0001
0000
0100
0000
,
0010
0000
0001
0100
0010
0000
0100
0000
,
0001
0000
1000
0100
0010
0000
0100
0000
,
1000
0000
0001
0100
0010
0000
0100
0000
,
0001
0000
1000
0000
0001
0100
0001
0100
,
0010
0000
1000
0000
0010
0100
0001
0000
,
1000
0000
0100
0100
2000
0000
3100
0000
,
0100
0000
0010
0001
0010
0000
0100
0000
,
0010
0000
0001
1000
2000
0000
3100
0000
,
1000
0000
0010
0100
0001
0000
0100
0000
,
1000
0000
0100
0100
0020
0000
0130
0000
,
0100
0000
0001
0010
0100
0000
0010
0000
,
0001
0001
0001
0001
,
1002
1000
1000
1000
,
1000
1000
1000
1003
,
2001
0001
0001
0001
,
0001
0001
0001
3001
,
0210
0010
0010
0010
,
0010
0010
0010
0310
,
2002
0000
0000
0000
,
3003
0000
0110
0000
,
0101
0000
1010
0000
0010
1000
0010
0000
,
0100
0001
0010
1000
,
1010
0000
0110
0000
0100
1000
0100
0000
,
1000
0000
0010
0100
0001
0000
1000
0000
,
0101
0000
1010
0000
0010
0100
0001
0000
,
1000
0100
0010
0001
,
0011
0000
1100
0000
0100
0010
0001
0000
,
1000
0000
0001
0000
1000
0001
0100
0000
,
0101
0000
1010
0000
0010
0100
0010
0100
,
0000
0010
1000
0001
0010
0000
0100
0000
,
0110
0000
1100
0000
0100
0010
0001
1000
,
0000
0001
1000
0010
1000
0000
0010
0000
,
0101
0000
0101
0000
0001
0100
0010
0100
,
0000
0010
0100
0001
1000
0000
0100
0000
,
1100
0000
0011
0000
0001
0010
0100
1000
,
0000
0100
1000
0100
0010
0000
0001
0000
,
1000
0000
1000
0000
0001
0100
0001
0000
,
1000
0000
1000
0000
0010
0010
0100
0000
,
0100
0010
0100
0000
0010
0100
0010
0000
,
0110
0000
1001
0000
0001
1000
0010
0000
,
1000
0000
0010
0100
0001
0000
0010
0000
,
0100
1001
0000
0000
;

//---------------dance-single - ----------------
#NOTES:
     dance-single:
     :
     Easy:
     3:
     0.215,0.257,0.202,0.124,0.000:
0000
0000
0000
0000
,
0020
0000
0030
0000
,
1001
1001
0000
0000
,
0000
0001
0100
0010
,
0110
0110
0000
0000
,
0000
0100
0001
1000
,
1100
1100
0000
0000
,
0000
0100
1000
0010
,
0110
0101
0000
0000
,
0001
0001
0001
0001
,
1001
1001
0001
0100
,
0000
0010
0010
0000
,
0100
0010
1000
0100
,
0000
1000
1000
0000
,
0001
0100
0010
0100
,
0001
1000
1000
0000
,
0100
1000
0010
0100
,
0001
0000
1000
0000
,
0001
1000
0100
0100
,
0000
0100
0010
0000
,
0010
0100
1000
1000
,
0000
0001
0100
0000
,
0010
0100
0001
0001
,
0000
1000
0100
0000
,
1000
0010
0100
0000
,
0100
0100
0100
0100
,
0020
0000
0000
0030
,
0200
0000
0000
0300
,
2002
0000
0000
0000
,
0000
0000
0000
3003
,
0020
0000
0000
0030
,
0200
0000
0000
0300
,
0002
0000
0000
0000
,
0020
0000
0033
0000
,
1100
1100
0100
0100
,
0000
1000
0010
0200
,
0310
1001
0000
0000
,
0000
0001
0100
0020
,
2030
3100
0000
0000
,
0000
0100
0010
0002
,
0023
0130
0000
0000
,
0100
0010
0001
1000
,
1001
0101
0001
1000
,
0100
1000
1000
0100
,
0110
0011
0010
0100
,
1000
0001
0001
0100
,
0110
0101
0001
1000
,
0100
0010
0100
1000
,
1100
0011
0010
0100
,
1000
1000
0001
0001
,
0200
0000
0001
0300
,
0020
0000
1000
0030
,
0100
0100
0100
0100
,
0110
1001
0001
0100
,
0010
1000
1000
0010
,
0110
1001
0000
0000
;

//---------------dance-single - ----------------
#NOTES:
     dance-single:
     :
     Beginner:
     1:
     0.113,0.172,0.062,0.000,0.000: // measure 1
0000
0000
0000
0000
,  // measure 2
0000
0000
0000
0000
,  // measure 3
0010
0010
0000
0000
,  // measure 4
0000
1000
0000
0000
,  // measure 5
0001
0001
0000
0000
,  // measure 6
0000
0100
0000
0000
,  // measure 7
0010
0010
0000
0000
,  // measure 8
0000
0100
0000
0000
,  // measure 9
0001
0001
0000
0000
,  // measure 10
1000
1000
1000
1000
,  // measure 11
0010
0000
0100
0000
,  // measure 12
0000
0001
0001
0000
,  // measure 13
1000
0000
0100
0000
,  // measure 14
0000
1000
1000
0000
,  // measure 15
0010
0000
0100
0000
,  // measure 16
0000
0001
0001
0000
,  // measure 17
0100
0000
0010
0000
,  // measure 18
1000
0000
0000
0000
,  // measure 19
1001
0000
0010
0000
,  // measure 20
0000
0100
0100
0000
,  // measure 21
0010
0000
0100
0000
,  // measure 22
0000
0001
0001
0000
,  // measure 23
0100
0000
0010
0000
,  // measure 24
0000
1000
1000
0000
,  // measure 25
0100
0000
0010
0000
,  // measure 26
0100
0100
0100
0100
,  // measure 27
1001
0000
0000
0000
,  // measure 28
0100
0000
0000
0000
,  // measure 29
0010
0000
0000
0000
,  // measure 30
0100
0000
0000
0000
,  // measure 31
0001
0000
0000
0000
,  // measure 32
1000
0000
0000
0000
,  // measure 33
0100
0000
0000
0000
,  // measure 34
1000
0000
0000
0000
,  // measure 35
0110
0000
0000
0000
,  // measure 36
0100
0000
0000
0000
,  // measure 37
0001
0000
0000
0000
,  // measure 38
1000
0000
0000
0000
,  // measure 39
0100
0000
0000
0000
,  // measure 40
1000
0000
0001
0000
,  // measure 41
0100
0000
0000
0000
,  // measure 42
0001
0000
0001
0000
,  // measure 43
1000
1000
0000
0000
,  // measure 44
0000
0010
0000
0100
,  // measure 45
0010
0010
0000
0000
,  // measure 46
0000
0100
0000
0010
,  // measure 47
1000
1000
0000
0000
,  // measure 48
0000
0010
0000
0100
,  // measure 49
0001
0001
0000
0000
,  // measure 50
1000
0000
1000
0000
,  // measure 51
0110
0000
0000
0000
,  // measure 52
0100
0000
0000
0000
,  // measure 53
0001
0001
0001
0001
,  // measure 54
1001
1001
0000
0000
,  // measure 55
0000
0010
0000
0100
,  // measure 56
0110
0110
0000
0000
;
