#TITLE:おもちゃばこのロンド;
#SUBTITLE:;
#ARTIST:Dormir;
#TITLETRANSLIT:OMOCHABAKO NO RONDO;
#SUBTITLETRANSLIT:;
#ARTISTTRANSLIT:;
#CREDIT:;
#BANNER:Omochabako no Rondo.png;
#BACKGROUND:Omochabako no Rondo-background.png;
#JACKET:Omochabako no Rondo-jacket.png;
#LYRICSPATH:;
#CDTITLE:cdtitle.png;
#MUSIC:OMOCHABAKO NO RONDO.mp3;
#OFFSET:-1.874;
#SAMPLESTART:30.660;
#SAMPLELENGTH:12.000;
#SELECTABLE:YES;
#BPMS:0.000=100.000;
#STOPS:;
#BGCHANGES:;

//---------------dance-single - ----------------
#NOTES:
     dance-single:
     :
     Hard:
     6:
     0.266,0.352,0.080,0.193,0.040:
0000
0000
0000
0000
,
0000
0000
0000
0000
,
0000
0000
0000
0000
,
0000
0000
0000
0000
,
0000
0000
0020
0000
,
0000
0230
0000
0000
,
0302
0000
0000
2003
,
0000
0000
3200
0000
,
0000
0000
0000
0000
2300
0000
0000
0000
0000
0000
0000
0000
0000
0000
0000
3000
,
0001
1000
0001
1000
0001
1000
0010
1000
,
0010
0100
0100
0100
0010
1000
0010
1000
,
0010
1000
0100
1000
0100
1000
1000
1000
,
2100
0000
0000
3100
0000
0000
0100
0010
,
0000
0010
0100
0000
0000
0000
0000
0000
1020
0000
0000
0000
0100
0000
0130
0000
,
0000
0000
0000
0000
0100
0000
0001
0000
0000
0010
0100
0000
0000
0000
0000
0000
,
2100
0000
0100
3100
0000
0000
1000
0010
,
0000
0100
0001
0000
0000
0000
0000
0000
0012
0000
0000
0000
0010
0000
0013
0000
,
0000
0000
0000
0000
0010
0000
0100
0000
0000
0100
1000
0000
0000
0000
0000
0000
,
0200
0000
0000
0000
0000
0310
0001
0000
,
0000
0001
0100
1000
0200
0000
0000
0000
,
0300
0010
2000
0000
0000
3000
0000
0000
,
1000
0100
1000
0010
0010
0100
0001
0000
,
0100
0010
0000
0010
2000
0000
0000
0000
,
3000
0000
0000
0000
,
0101
0000
0000
0001
0010
1000
0010
0000
,
0100
0100
0000
0000
1000
0000
0100
1000
,
0010
0100
0001
0000
1000
0100
0000
0000
,
1000
0000
0000
0010
0100
0001
0100
0000
,
0000
0000
0010
1000
0001
0000
0000
0000
,
0010
0100
1000
0000
0000
0100
0010
0001
,
0020
0000
0000
0030
0100
1000
0001
0000
,
0000
0000
0000
0000
0001
1000
0100
1000
,
0000
0000
0010
0100
0001
0100
0000
0000
,
0100
0010
1000
0010
0000
0000
0100
0010
,
0001
0010
0000
0000
2100
0000
0000
3010
,
0000
0000
0000
0000
0100
0000
0001
0000
0000
0010
0100
0000
0000
0000
0000
0000
,
1020
0000
0100
0130
0000
0000
0010
0100
,
0000
0001
0010
0000
0000
0000
0000
0000
2100
0000
0000
0000
0010
0000
3010
0000
,
0000
0000
0000
0000
0100
0000
0010
0000
0000
1000
0001
0000
0000
0000
0000
0000
,
0012
0000
0000
0000
0010
0000
0013
0000
0000
0000
0000
0100
1000
0000
0010
0000
,
0000
0100
0001
0000
0000
0000
0000
0000
1002
0000
0000
0000
0000
0000
0000
0000
,
0000
1003
0100
0000
0000
0010
0100
1000
,
0020
0000
0000
0000
0000
0230
0002
0000
,
0000
0303
0000
0000
0001
1000
0100
1000
,
0001
0100
0010
1000
0100
0010
0000
0000
,
0100
1000
0010
0100
0001
1000
0100
1000
,
0001
0000
0100
0000
0000
0000
0001
0000
1000
0001
1000
0000
0100
0000
1000
0000
,
0010
0100
0001
0010
0100
1000
0000
0001
,
0200
0000
0000
0000
0000
0300
0000
0000
;

//---------------dance-single - ----------------
#NOTES:
     dance-single:
     :
     Medium:
     4:
     0.217,0.294,0.008,0.137,0.000:
0000
0000
0000
0000
,
0000
0000
0000
0000
,
0000
0000
0000
0000
,
0000
0000
0000
0000
,
0000
0000
2000
0000
,
3000
0002
0000
0003
,
0200
0000
0300
0002
,
0000
0003
2000
0000
,
3000
0200
0000
0300
,
0010
0000
0000
0001
0000
0000
0100
0000
,
0000
0010
0010
0010
0100
0000
0000
0010
,
0000
0000
1000
0000
0000
0001
0100
0001
,
0020
0000
0000
0130
0000
0000
0100
1000
,
0000
0010
0000
0000
0100
0000
0001
0010
,
0000
0000
0001
0100
0000
0010
0000
0000
,
0100
0000
0001
1000
0000
0000
1000
0100
,
0000
0010
0000
0000
0100
0000
0010
0001
,
0000
0000
0010
0010
0000
0100
0000
0000
,
2000
0000
0000
3000
0000
0001
0100
0000
,
0000
0010
1000
0001
0010
0000
0000
0000
,
0000
0100
2000
0000
0000
3000
0000
0000
,
1000
0100
0010
0001
1000
0100
0010
0000
,
0100
1000
0000
1000
0020
0000
0000
0000
,
0030
0000
0000
0000
,
1001
0000
0000
0001
1000
0100
0001
0000
,
0001
0100
0000
0000
0010
0000
0001
0010
,
1000
0010
0100
0000
0100
1000
0000
0000
,
1000
0000
0000
0010
0100
0100
0001
0000
,
0000
0000
0001
0010
0100
0000
0000
0000
,
0100
1000
0010
0000
0000
0100
0001
1000
,
0100
0000
0000
0000
0010
0001
0010
0000
,
0000
0000
0000
0000
0001
0100
0001
0100
,
0000
0000
0010
1000
0010
1000
0000
0000
,
0100
1000
0100
1000
0000
0000
0010
0001
,
0010
0001
0000
0000
2000
0000
0000
3100
,
0000
0000
0010
0001
0000
0010
0000
0000
,
0200
0000
0000
0310
0000
0000
0100
1000
,
0000
0010
0000
0000
0200
0000
0000
0301
,
0000
0000
0010
0100
0000
0010
0000
0000
,
0002
0000
0000
1003
0000
0000
1000
1000
,
0000
0010
0000
0000
0200
0000
0000
0300
,
0000
0010
1000
0000
0000
1000
0100
0100
,
0100
0000
0000
0000
0000
0010
0002
0000
,
0000
0003
0000
0000
0001
0100
0010
1000
,
0001
0100
0010
1000
0001
0100
0000
0000
,
0010
0100
0001
1000
0010
0100
0001
1000
,
0010
0100
0000
0000
1000
0100
0010
0001
,
1000
0100
0010
0001
0010
0100
0000
1000
,
0020
0000
0000
0000
0000
0000
0000
0000
0000
0000
0000
0000
0000
0000
0000
0000
0000
0000
0000
0000
0000
0000
0000
0000
0000
0000
0000
0000
0000
0000
0000
0000
0000
0000
0000
0000
0000
0000
0000
0000
0000
0000
0000
0000
0000
0000
0000
0000
0000
0000
0000
0000
0000
0000
0000
0000
0000
0000
0000
0000
0000
0000
0000
0000
0000
0000
0000
0000
0000
0000
0000
0000
0000
0000
0000
0000
0000
0000
0000
0000
0000
0000
0000
0000
0000
0000
0000
0000
0000
0000
0000
0000
0000
0000
0000
0000
0000
0000
0000
0000
0000
0000
0000
0000
0000
0000
0000
0000
0000
0000
0000
0000
0000
0000
0000
0000
0000
0000
0000
0000
0000
0030
0000
0000
0000
0000
0000
0000
0000
0000
0000
0000
0000
0000
0000
0000
0000
0000
0000
0000
0000
0000
0000
0000
0000
0000
0000
0000
0000
0000
0000
0000
0000
0000
0000
0000
0000
0000
0000
0000
0000
0000
0000
0000
0000
0000
0000
0000
0000
0000
0000
0000
0000
0000
0000
0000
0000
0000
0000
0000
0000
0000
0000
0000
0000
0000
0000
0000
0000
0000
0000
0000
;

//---------------dance-single - ----------------
#NOTES:
     dance-single:
     :
     Easy:
     1:
     0.080,0.117,0.016,0.048,0.000:
0000
0000
0000
0000
,
0000
0000
0000
0000
,
0000
0000
0000
0000
,
0000
0000
0000
0000
,
0000
0000
0010
0000
,
0000
0100
0000
0000
,
0001
0000
0000
1000
,
0000
0000
0010
0000
,
0000
0100
0000
0000
,
0001
0000
0000
1000
,
0000
0000
0010
0000
,
0000
1000
0000
0000
,
0100
0000
0000
0010
,
0000
0000
0001
0000
,
0000
1000
0000
0000
,
0010
0000
0000
0100
,
0000
0000
0001
0000
,
0000
1000
0000
0000
,
0100
0000
0000
0010
,
0000
0000
0001
0000
,
0000
1001
0000
0000
,
0001
0000
0000
0100
0000
0000
0010
0000
,
0000
1000
0000
0000
0100
0000
0000
0000
,
0000
0000
0000
0000
,
0020
0000
0000
0000
,
0000
0030
0000
0000
0002
0000
0000
0000
,
0000
0000
0000
0000
0000
0003
0000
0000
,
2000
0000
0000
0000
,
0000
3000
0000
0000
0020
0000
0000
0000
,
0000
0000
0200
0000
0000
0000
0000
0330
,
0000
0000
0000
1000
,
0000
0000
0001
0000
,
0000
1000
0000
0000
,
0001
0000
0000
1000
,
0000
0000
0110
0000
,
0000
1000
0000
0000
,
0001
0000
0000
0100
,
0000
0000
0001
0000
,
0000
0010
0000
0000
,
0100
0000
0000
1000
,
0000
0000
0001
0000
,
0000
0100
0000
0000
,
0010
0000
0000
1000
,
0000
0000
0000
0000
1000
0000
0000
0100
,
0000
0000
0010
0000
0000
0001
0000
0000
,
0001
0000
0000
0010
0000
0000
0100
0000
,
0000
1000
0000
0000
0010
0000
0000
0100
,
0000
0000
0001
0000
0000
1000
0000
0000
,
0002
0000
0000
0000
0000
0003
0000
0000
;

//---------------dance-single - ----------------
#NOTES:
     dance-single:
     :
     Beginner:
     1:
     0.048,0.058,0.000,0.000,0.000: // measure 1
0000
0000
0000
0000
,  // measure 2
0000
0000
0000
0000
,  // measure 3
0000
0000
0000
0000
,  // measure 4
0000
0000
0000
0000
,  // measure 5
0000
0000
1000
0000
,  // measure 6
0000
0001
0000
0000
,  // measure 7
0100
0000
0000
0010
,  // measure 8
0000
0000
0100
0000
,  // measure 9
0000
0010
0000
0000
,  // measure 10
1000
0000
0000
0000
,  // measure 11
0000
0000
0001
0000
,  // measure 12
0000
0000
0000
0000
,  // measure 13
0100
0000
0000
0010
,  // measure 14
0000
0000
0010
0000
,  // measure 15
0000
0100
0000
0000
,  // measure 16
0001
0000
0000
1000
,  // measure 17
0000
0000
1000
0000
,  // measure 18
0000
0100
0000
0000
,  // measure 19
1000
0000
0000
0000
,  // measure 20
0000
0000
0001
0000
,  // measure 21
0000
0000
0000
0000
,  // measure 22
0100
0000
0000
0000
,  // measure 23
0000
0000
0010
0000
,  // measure 24
0000
0000
0000
0000
,  // measure 25
1000
0000
0000
0000
,  // measure 26
0000
0000
0001
0000
,  // measure 27
0000
0000
0000
0000
,  // measure 28
0100
0000
0000
0000
,  // measure 29
0000
0000
0010
0000
,  // measure 30
0000
0000
0000
0000
,  // measure 31
1000
0000
0000
0001
,  // measure 32
0000
0000
0100
0000
,  // measure 33
0000
0000
0000
0000
,  // measure 34
0010
0000
0000
0000
,  // measure 35
0000
0000
1000
0000
,  // measure 36
0000
0001
0000
0000
,  // measure 37
0001
0000
0000
0100
,  // measure 38
0000
0000
0001
0000
,  // measure 39
0000
1000
0000
0000
,  // measure 40
0100
0000
0000
1000
,  // measure 41
0000
0000
0001
0000
,  // measure 42
0000
0000
0000
0000
,  // measure 43
1000
0000
0000
0000
,  // measure 44
0000
0000
0010
0000
,  // measure 45
0000
0000
0000
0000
,  // measure 46
0100
0000
0000
0000
,  // measure 47
0000
0000
0001
0000
,  // measure 48
0000
0000
0000
0000
,  // measure 49
1000
0000
0000
0000
;
