#TITLE:NNRT;
#SUBTITLE:;
#ARTIST:Levaslater;
#TITLETRANSLIT:;
#SUBTITLETRANSLIT:;
#ARTISTTRANSLIT:;
#CREDIT:;
#BANNER:NNRT.png;
#BACKGROUND:NNRT-bg.png;
#JACKET:NNRT-jacket.png;
#LYRICSPATH:;
#CDTITLE:;
#MUSIC:25 NNRT.mp3;
#OFFSET:-0.411;
#SAMPLESTART:21.780;
#SAMPLELENGTH:12.000;
#SELECTABLE:YES;
#BPMS:0.000=101.000,20.000=202.001,148.000=404.002,158.000=202.001,159.000=101.001,160.000=50.500,164.000=101.001,176.000=202.001,381.000=101.001;
#STOPS:208.000=0.891
;
#BGCHANGES:;

//---------------dance-single - ----------------
#NOTES:
     dance-single:
     :
     Hard:
     10:
     0.741,1.000,0.278,0.301,0.195: // measure 1
0000
0000
0000
0000
,  // measure 2
0000
0000
0000
0000
,  // measure 3
0001
0100
0001
1000
,  // measure 4
0001
0010
0100
1000
,  // measure 5
0010
0000
0000
0000
,  // measure 6
0100
0001
0010
0100
,  // measure 7
0010
0001
1000
1000
,  // measure 8
0010
0100
0001
1000
,  // measure 9
1100
1100
0101
0101
,  // measure 10
1001
0000
0000
0010
0000
0100
0000
0010
,  // measure 11
0110
0000
0000
0101
0000
0100
0000
0010
,  // measure 12
1010
0000
1000
0010
0100
0001
0010
0100
,  // measure 13
1000
0100
1000
0001
0100
0000
0000
0000
,  // measure 14
0010
1000
0001
0010
0100
1000
0100
0001
,  // measure 15
0100
0010
0001
1000
0010
0000
0100
0000
,  // measure 16
0010
1000
0100
0001
0100
0010
0001
0010
,  // measure 17
1000
0010
0001
1000
0100
0010
0100
1000
,  // measure 18
0010
1000
0100
0010
0001
0010
1000
0010
,  // measure 19
0001
1000
0100
0001
0100
0000
0010
0000
,  // measure 20
0001
0010
0100
1000
0100
1000
0001
1000
,  // measure 21
0110
0100
0110
0010
0110
0000
0000
0000
,  // measure 22
0001
0100
0010
1000
0001
0100
0010
1000
,  // measure 23
0001
0100
0010
1000
0200
0000
0320
0000
,  // measure 24
0031
0010
0100
1000
0001
0010
0100
1000
,  // measure 25
0001
0010
0100
1000
0100
0010
0100
1000
,  // measure 26
0001
0100
0010
1000
0001
0100
0010
1000
,  // measure 27
0001
0100
0010
1000
0002
0000
0023
0000
,  // measure 28
0130
1000
0100
0001
0100
0010
0001
0010
,  // measure 29
0100
0010
0001
0010
1000
0010
0100
1000
,  // measure 30
1100
0000
0000
1010
0000
0011
0000
0010
,  // measure 31
0110
0000
0000
0100
1100
0100
0020
0000
,  // measure 32
0130
1000
0001
0100
1000
0100
0010
1000
,  // measure 33
0001
0010
0001
0010
1000
0010
0100
0010
,  // measure 34
0001
1000
0100
1000
0001
0010
0100
0010
,  // measure 35
0001
0100
1000
0100
0020
0000
2030
0000
,  // measure 36
3001
0010
0100
0010
0001
1000
1000
0001
,  // measure 37
0100
0010
1000
0010
0100
0001
0001
0100
,  // measure 38
0020
0000
0000
0000
,  // measure 39
0000
0000
0000
0000
,  // measure 40
0000
0000
0000
0000
0000
0000
0000
0000
0000
0000
0000
0000
0000
0000
0000
0030
,  // measure 41
1000
0001
1000
0001
0010
0000
0001
0010
0001
0100
0001
1000
0100
0000
1000
0000
0001
0000
0010
0000
1000
0000
0010
0000
0200
0000
0000
0000
0300
0010
0001
1000
,  // measure 42
0100
0000
0010
0000
0001
0000
0010
0100
0010
0001
1000
0010
0100
0010
1000
0001
,  // measure 43
0010
0100
0010
0100
1000
0100
1000
0100
0010
0001
0010
0100
0000
0001
0010
0100
,  // measure 44
2000
0000
0000
0000
0020
0000
0000
3030
,  // measure 45
1001
0001
1000
0010
1000
0000
0010
0100
,  // measure 46
0101
0001
0010
0100
0010
0000
0100
1000
,  // measure 47
1100
0100
0010
0001
1000
0000
0001
0100
,  // measure 48
0101
0100
0001
1000
0001
0000
0000
0000
,  // measure 49
1000
0100
0001
0100
1000
1000
0001
0001
,  // measure 50
0010
1000
0010
0001
0010
0010
0100
0100
,  // measure 51
0010
0001
0100
1000
0100
0100
0010
0010
,  // measure 52
1001
0001
1001
1000
1001
0000
0000
0000
,  // measure 53
0000
0000
0001
0100
0001
1000
0100
0000
,  // measure 54
0010
0100
1000
0001
1000
0010
0100
0000
,  // measure 55
0001
0010
0110
1100
,  // measure 56
0101
0000
2002
0000
0000
0000
3003
1000
,  // measure 57
0001
1000
0001
0100
0001
0010
0100
0000
,  // measure 58
0010
0001
1000
0010
0100
0001
0010
0100
,  // measure 59
0010
0001
1000
0100
0010
0001
0001
0010
,  // measure 60
0100
1000
1000
0100
0010
0001
0001
0010
,  // measure 61
0100
1000
0100
1000
0010
0100
0001
0000
,  // measure 62
1000
0100
0010
0100
1000
0100
1000
0000
,  // measure 63
0010
1000
0110
1001
,  // measure 64
1010
0000
2200
0000
0000
0000
3300
1000
,  // measure 65
0100
0010
0001
1000
0010
0100
0001
0000
,  // measure 66
0001
1000
0010
0001
0010
1000
0100
0010
,  // measure 67
0100
1000
0100
1000
0010
1000
0001
1000
,  // measure 68
0010
0100
0010
1000
0001
0010
0100
0010
,  // measure 69
0100
1000
0002
0000
0000
0000
0000
0000
,  // measure 70
0003
0000
0000
0000
1000
0010
1000
0010
1000
0010
1000
0010
1000
0000
0101
0000
,  // measure 71
0101
0021
0100
0031
,  // measure 72
0010
0100
2000
0000
3100
0000
0200
0000
,  // measure 73
0310
0002
0010
0203
,  // measure 74
2300
3200
0010
0001
,  // measure 75
0010
0320
1000
0130
,  // measure 76
0100
0010
2000
0000
0100
0000
0001
0000
,  // measure 77
3020
0001
0100
1000
,  // measure 78
0100
2000
0000
0000
,  // measure 79
0000
3030
0202
0000
0000
0000
0000
0000
,  // measure 80
0000
0303
0100
0010
0100
0001
1000
0010
,  // measure 81
0100
0001
1000
0010
0100
0001
0020
0000
,  // measure 82
0230
0000
1300
0100
0010
0001
1000
0100
,  // measure 83
0010
0001
1000
0100
0010
0001
0010
0100
,  // measure 84
0010
0001
1000
0010
0100
0001
1000
0010
,  // measure 85
0100
0001
1000
0010
0100
0001
2000
0000
,  // measure 86
3200
0000
0310
0001
0010
1000
0010
0100
,  // measure 87
1000
0100
0010
0100
1000
0100
0001
0100
,  // measure 88
0010
0001
1000
0100
0010
0010
0100
1000
,  // measure 89
0010
0000
0010
0000
0100
0000
0001
0000
1000
0001
1000
0001
0200
0000
0000
0000
,  // measure 90
0302
0000
0000
0000
0013
0000
0100
0000
1000
0001
1000
0001
1000
0000
0100
0000
,  // measure 91
0010
0100
1000
0001
0100
0100
0010
1000
,  // measure 92
0001
0010
0001
1000
0010
1000
0001
1000
,  // measure 93
0010
0000
1000
0000
0001
0000
1000
0000
0010
0100
0010
0100
0001
0000
0000
0000
,  // measure 94
0010
0000
0000
0000
0100
0000
0010
0000
0001
1000
0010
0100
0001
0000
0010
0000
,  // measure 95
0100
0000
1000
0000
0001
0100
0001
0100
0001
0100
0001
0100
0001
0100
0001
0100
,  // measure 96
0001
0000
0100
0000
0001
0000
0100
0000
0000
0000
0000
0000
0000
0000
0000
0000
0000
0000
0000
0000
0000
0000
0000
0000
0000
1002
0000
0000
0000
0000
0000
0000
,  // measure 97
0000
0000
0000
0000
0000
0000
0003
0000
2000
0000
0000
0000
0000
0000
0000
0000
0000
0000
0000
0000
0000
0000
0000
0000
0000
0000
0000
0000
0000
0000
0000
0000
0000
0000
0000
0000
0000
0000
0000
0000
0000
0000
0000
0000
0000
0000
0000
0000
3000
0000
0000
0000
0000
0000
0000
0000
0000
0000
0000
0000
0200
0000
0000
0000
0000
0000
0000
0000
0000
0000
0000
0000
0000
0000
0000
0000
0000
0000
0000
0000
0000
0000
0000
0000
0000
0000
0000
0000
0000
0000
0000
0000
0000
0000
0000
0000
0300
0000
0000
0000
0000
0000
0000
0000
0000
0000
0000
0000
2000
0000
0000
0000
0000
0000
0000
0000
0000
0000
0000
0000
0000
0000
0000
0000
0000
0000
0000
0000
0000
0000
0000
0000
0000
0000
0000
0000
0000
0000
0000
0000
0000
0000
0000
0000
3000
0000
0000
0000
0000
0000
0000
0000
0000
0000
0000
0000
0000
0000
0000
0000
0120
0000
0000
0000
0000
0000
0000
0000
0000
0000
0000
0000
0000
0000
0000
0000
0000
0000
0000
0000
0000
0000
0000
0000
0000
0000
0000
0000
0000
0000
0000
0000
,  // measure 98
0000
0030
0000
0000
;

//---------------dance-single - ----------------
#NOTES:
     dance-single:
     :
     Medium:
     8:
     0.527,0.767,0.113,0.188,0.038:
0000
0000
0000
0000
,
0000
0000
0000
0000
,
0001
0100
0001
1000
,
0100
1000
0010
0100
,
0001
0000
0000
0000
,
1000
0100
1000
0010
,
0100
0001
1000
1000
,
0001
0100
0001
0010
,
0110
0110
0110
0110
,
1001
0000
0000
0001
0000
1000
0000
0010
,
0100
0000
0000
0010
0000
1000
0000
0010
,
0100
0001
1001
1000
,
0001
0100
0001
0100
0001
0000
0000
0000
,
0100
0010
1000
0100
,
0010
0000
0100
1000
0010
0000
0100
0000
,
0010
1000
0001
0010
,
0100
0010
0001
1000
0010
1000
0010
0100
,
0010
1000
0001
0010
,
0001
0000
0100
0010
1000
0000
0100
0000
,
0001
0100
0010
0001
,
1000
0100
0010
0001
1000
0000
0000
0000
,
0001
0100
0010
1000
,
0001
0100
0010
1000
0010
0000
1010
0000
,
1000
0100
0010
0001
,
1000
0100
0010
0001
0010
0100
1000
0100
,
1000
0010
0100
0010
,
1000
0010
0100
0010
1000
0000
0001
0000
,
0010
0000
0100
0000
0010
0001
1000
0000
,
0010
0000
0100
0000
0010
1000
0001
0000
,
0001
0000
0100
0000
0010
1000
0100
0010
,
0000
0100
1000
0010
0200
0000
0301
0000
,
1000
0001
0100
0001
0000
0100
0001
0100
,
0000
0001
0100
0010
1000
0100
0010
0000
,
0100
1000
0010
0100
0000
0100
0010
1000
,
0000
0010
0100
0001
2000
0000
3001
0000
,
0010
0100
0010
0001
1000
0010
0100
0000
,
0010
1000
0001
0010
0100
0010
0001
0000
,
2002
0000
0000
0000
,
0000
0000
0000
0000
,
0000
0000
0000
3003
,
0001
0000
0000
0000
0100
0000
0000
0000
0010
0000
0000
0000
0100
0000
0000
0000
0010
0000
1000
0000
0001
0000
0010
0000
0100
0000
0000
0000
0000
0010
0001
1000
,
0001
0001
1000
0001
0100
0100
0001
0001
,
0010
0010
0100
0100
1000
0001
0100
0001
,
0020
0000
0230
0000
,
1300
1000
0010
0100
,
0010
1000
0001
0010
,
0100
0010
0001
1000
,
0010
0100
0010
1000
0001
0000
0000
0000
,
1000
0000
0100
0000
0010
0000
0001
0010
,
0100
0000
0010
0000
0001
0000
1000
0010
,
0100
0010
1000
0001
,
1000
0100
0010
0001
0010
0000
0000
0000
,
0000
0000
0001
1000
0100
1000
0010
0000
,
0100
0000
0010
1000
0010
0100
0010
0000
,
1000
0100
0110
0011
,
1100
0000
2002
0000
0000
0000
3003
0001
,
0010
0100
1000
0000
0100
1000
0010
0000
,
0100
0010
1000
0000
0010
0000
0100
0000
,
0001
0000
1000
0001
1000
0001
0100
0001
,
0100
0001
0100
0010
0100
0010
0100
0010
,
1000
0100
0010
0000
0100
0010
0001
0000
,
1000
0001
0100
0001
1000
0100
1000
0000
,
0001
0100
0010
1000
,
0010
0000
0200
0000
0000
0000
0300
0010
,
1000
0001
0010
0000
0100
0000
0010
0000
,
0001
0010
0100
0000
0010
0000
0001
0000
,
1000
0000
0001
0100
0001
0100
0001
0010
,
0001
0010
0001
1000
0001
1000
0001
1000
,
0001
0010
0200
0000
0000
0000
0000
0000
,
0000
0020
0000
0000
,
0330
0100
0010
0001
,
1000
0010
1000
0000
0010
0000
0100
0000
,
0001
2000
0000
3002
,
0000
0200
0000
0000
,
0303
0001
0010
0001
,
1000
0010
1000
0000
0010
0000
0100
0000
,
0001
1000
0100
1000
,
0010
0200
0000
0000
,
0000
0020
0000
0000
,
0330
0100
0010
1000
,
0001
0000
0010
0000
0100
0010
0001
0000
,
0011
0000
0001
0000
1000
0000
0010
1000
,
0010
0000
0010
0000
0100
0000
0010
1000
,
0001
0010
0100
0010
,
0001
0000
1000
0000
0010
0100
0001
0000
,
1000
0000
0100
0000
1000
0000
0010
0100
,
0001
1000
0001
0100
,
0010
0000
1000
0010
0100
0010
1000
0001
,
0010
0100
0010
0001
1000
0010
0200
0000
,
0320
0000
1030
0100
0010
0001
1000
0100
,
0010
0000
0010
0100
1000
0010
0100
0001
,
1000
0001
0100
0010
,
1000
0000
0010
0100
1000
0001
0200
0000
,
0302
0000
0013
0000
0001
0000
0100
0010
,
1000
0000
0001
0000
0010
0000
0100
1000
,
0010
0000
0000
0000
0001
0000
0000
0000
0000
0000
0000
0000
0000
0000
0000
0000
0000
0000
0000
0000
0000
0000
0000
0000
0000
1002
0000
0000
0000
0000
0000
0000
,
0000
0000
0000
0000
0000
0000
0003
0000
2000
0000
0000
0000
0000
0000
0000
0000
0000
0000
0000
0000
0000
0000
0000
0000
0000
0000
0000
0000
0000
0000
0000
0000
0000
0000
0000
0000
0000
0000
0000
0000
0000
0000
0000
0000
0000
0000
0000
0000
3000
0000
0000
0000
0000
0000
0000
0000
0000
0000
0000
0000
0200
0000
0000
0000
0000
0000
0000
0000
0000
0000
0000
0000
0000
0000
0000
0000
0000
0000
0000
0000
0000
0000
0000
0000
0000
0000
0000
0000
0000
0000
0000
0000
0000
0000
0000
0000
0300
0000
0000
0000
0000
0000
0000
0000
0000
0000
0000
0000
2000
0000
0000
0000
0000
0000
0000
0000
0000
0000
0000
0000
0000
0000
0000
0000
0000
0000
0000
0000
0000
0000
0000
0000
0000
0000
0000
0000
0000
0000
0000
0000
0000
0000
0000
0000
3000
0000
0000
0000
0000
0000
0000
0000
0000
0000
0000
0000
0000
0000
0000
0000
0120
0000
0000
0000
0000
0000
0000
0000
0000
0000
0000
0000
0000
0000
0000
0000
0000
0000
0000
0000
0000
0000
0000
0000
0000
0000
0000
0000
0000
0000
0000
0000
,
0000
0030
0000
0000
;

//---------------dance-single - ----------------
#NOTES:
     dance-single:
     :
     Easy:
     5:
     0.374,0.429,0.150,0.135,0.000:
0000
0000
0000
0000
,
0000
0000
0000
0000
,
0000
0000
0000
0000
,
0001
0010
0100
1000
,
0001
0000
0000
0000
,
1000
0001
0000
0001
,
0000
0001
0100
0010
,
1000
0000
0010
0000
,
0100
0100
0010
0010
,
1001
0000
0000
0000
,
0110
0000
0000
0000
,
1001
0000
0110
0000
,
1001
1001
1001
0000
,
0001
1000
0010
1000
,
0001
0010
0100
0100
,
0010
0001
1000
0010
,
1000
0100
0010
0001
,
1000
0001
0100
0001
,
0010
0100
0010
0010
,
0001
1000
0010
0100
,
0101
0101
0101
0000
,
0001
1000
0100
1000
,
0001
0100
0010
0010
,
0100
0010
1000
1000
,
0010
0100
1000
1000
,
0100
0001
0010
0100
,
0010
0001
1000
1000
,
0001
0100
0001
0001
,
0010
0100
0010
0010
,
0100
0010
0001
1000
,
0010
0100
0001
0001
,
1000
0100
0010
0010
,
0100
1000
0010
0010
,
0100
0001
1000
0001
,
1000
0001
1000
1000
,
0100
0010
0100
1000
,
0010
0100
0001
0010
,
0200
0000
0000
0000
,
0000
0000
0000
0000
,
0000
0000
0000
0000
0000
0300
0000
0000
,
0100
0000
0010
0000
0001
1000
0010
0000
,
0100
0001
1000
0100
,
1000
0010
0100
0001
,
2000
0000
0000
3000
0002
0000
0000
0003
,
1001
0000
0000
0000
,
0110
0000
0000
0000
,
1001
0000
0000
0000
,
0110
0010
0010
0000
,
0101
0001
0100
0010
,
1010
1000
0010
0100
,
0101
0001
0010
0100
,
1100
0110
0011
0000
,
0000
0001
1000
0010
,
1000
0001
0010
0100
,
0010
0001
1000
0100
,
0001
0200
0000
0300
,
0010
0001
1000
0010
,
1000
0001
0001
1000
,
1000
0100
1000
0010
,
0100
0001
0100
0010
,
1000
0010
0100
0002
,
1003
0100
0010
0200
,
2300
3020
0130
0010
,
0100
0020
0000
0030
,
0100
0001
1000
0200
,
1300
0100
0100
1000
,
1000
0100
0010
0001
,
0010
0100
1000
0010
,
0100
0002
0000
0000
,
0000
2000
0000
0000
,
3003
0001
0100
0010
,
1000
0010
0100
0001
,
0010
0200
0000
2300
,
0000
0002
0000
0000
,
3003
1000
0100
1000
,
0010
0100
0010
1000
,
0001
0010
0100
0010
,
0001
2000
0000
0000
,
0000
0020
0000
0000
,
3030
0010
0100
0001
,
0010
0100
1000
0100
,
0100
1000
0010
0100
,
0100
0010
1000
0001
,
0001
1000
0001
0100
,
0001
0010
0100
0010
,
0010
0100
0010
0001
,
0001
1000
0010
0100
,
0100
0010
1000
0010
,
0100
0001
0010
0100
,
0100
0010
0001
1000
,
0010
0100
0001
0010
,
0100
0010
0001
1000
,
0010
0000
0100
0000
0010
1000
0010
0000
,
0100
0000
0010
0000
1000
0000
0001
0100
,
0001
0000
0001
0000
0010
0000
0100
0010
,
0002
0003
0000
0000
;

//---------------dance-single - ----------------
#NOTES:
     dance-single:
     :
     Beginner:
     2:
     0.187,0.321,0.143,0.000,0.000:
0000
0000
0000
0000
,
0000
0000
0000
0000
,
0000
0000
0000
0000
,
0000
0000
0000
0000
,
0010
0000
0000
0000
,
1000
0000
0000
0000
,
0001
0000
0000
0000
,
0100
0000
0000
0000
,
0001
0001
0001
0000
,
1000
0000
0000
0000
,
0010
0000
0000
0000
,
0100
0000
0010
0000
,
1001
1001
1001
0000
,
0010
0000
0100
0000
,
0010
0000
1000
1000
,
0001
0000
1000
0000
,
0010
0000
0100
0000
,
0001
0000
1000
0000
,
0100
0100
0100
0000
,
1000
0000
0001
0000
,
0110
0110
0110
0000
,
0010
0000
0000
0000
,
0100
0000
0000
0000
,
0001
0000
0000
0000
,
0001
0000
0000
0000
,
1000
0000
0000
0000
,
0100
0000
0000
0000
,
1000
0000
0000
0000
,
0010
0010
0010
0000
,
0100
0000
0000
0000
,
0010
0000
0000
0000
,
0100
0000
0000
0000
,
0001
0000
0000
0000
,
1000
0000
0000
0000
,
0100
0000
0000
0000
,
1000
0000
0000
0000
,
0010
0000
0000
0000
,
1001
0000
0000
0000
,
0000
0000
0000
0000
,
0000
0000
0000
0000
,
0010
0010
0100
0100
,
0001
0000
1000
0000
,
0010
0010
1000
0100
,
0010
0000
0010
0000
,
1001
0000
0000
0000
,
0110
0000
0000
0000
,
1001
0000
0000
0000
,
0110
0010
0010
0000
,
1001
0000
0000
0000
,
0110
0000
0000
0000
,
1001
0000
0000
0000
,
0110
1001
0110
0000
,
0000
0100
0100
0100
,
0000
0010
0000
1000
,
0000
0001
0000
0010
,
0000
0001
0000
0000
,
1000
0010
0010
0010
,
0000
0100
0000
0010
,
0000
1000
0000
1000
,
0000
0001
0001
1000
,
1000
0010
0100
0010
,
0000
0100
0000
0001
,
0000
1000
0000
0100
,
0000
0010
0000
0000
,
0000
0100
0100
0100
,
0000
1000
0000
0100
,
0000
0010
0000
0001
,
0000
1000
0000
0010
,
0000
0100
0000
0000
,
0000
1001
0000
0000
,
0000
0010
0000
0000
,
0000
0100
0000
0000
,
0000
0001
0000
0010
,
0000
0100
0000
0000
,
0000
0010
0000
0000
,
0000
0001
0000
0000
,
0000
1000
0000
0000
,
0000
0010
0000
0000
,
0000
1000
0000
0000
,
0000
0010
0000
0000
,
0000
0100
0000
0000
,
0000
0001
0000
0000
,
0000
0010
0000
0000
,
0000
0100
0000
0000
,
0000
1000
0000
0000
,
0000
0001
0000
0000
,
0000
1000
1000
1000
,
0000
1001
0000
0001
,
0000
1000
1000
0010
,
0000
0100
0000
0010
,
0000
0100
0000
0001
,
0000
1000
0000
0100
,
0000
0010
0001
0010
,
0000
0001
0000
0100
,
0000
0010
0100
1000
,
0001
0000
0000
0000
;
