#TITLE:NB RANGERS Returns;
#SUBTITLE:;
#ARTIST:NieN;
#TITLETRANSLIT:;
#SUBTITLETRANSLIT:;
#ARTISTTRANSLIT:;
#CREDIT:;
#BANNER:NB RANGERS Returns.png;
#BACKGROUND:NB RANGERS returns-bg.png;
#JACKET:NB RANGERS Returns-jacket.png;
#LYRICSPATH:;
#CDTITLE:;
#MUSIC:NB RANGERS Returns.mp3;
#OFFSET:1.132;
#SAMPLESTART:26.980;
#SAMPLELENGTH:12.000;
#SELECTABLE:YES;
#BPMS:0.000=145.000;
#STOPS:248.000=0.414
;
#BGCHANGES:;

//---------------dance-single - ----------------
#NOTES:
     dance-single:
     :
     Hard:
     10:
     0.676,0.851,0.177,0.096,0.476:
0000
0000
0000
0000
,
0000
0000
0000
0000
,
0000
0000
0000
0000
,
0000
0000
0000
0000
,
0000
0000
0000
0000
,
0000
0000
0000
0000
,
0000
0000
0000
0000
,
0000
0000
0000
0000
,
0000
0000
0000
0000
,
0102
0000
0000
0000
,
0023
0000
0000
0000
0000
0000
0130
0010
0100
0000
0000
0000
0100
0000
1000
0000
,
0020
0000
0000
0000
0000
0000
0000
0000
0000
0000
0000
0000
0130
0001
0100
0010
,
1000
0100
0010
0100
1000
0001
0100
0010
1000
0000
0001
0000
0001
0000
1000
0000
,
0002
0000
0000
0000
,
1003
0000
0100
0000
0010
0001
0010
0001
0010
0000
0001
1000
0010
0000
0000
0000
,
0200
0000
0000
0000
0310
0100
1000
0010
,
0001
0010
0100
1000
0100
0010
1000
0001
,
0011
0000
0000
0010
0100
0000
1000
0000
0001
0000
0100
0000
0010
0000
1000
0000
,
0100
0000
0000
1000
0010
0000
0100
0000
0001
0000
0010
0000
1000
0000
0010
0000
,
0100
0000
0000
0010
0001
0000
0100
0000
0010
0000
1000
0000
0100
0000
0010
0000
,
0001
0000
0000
1000
0010
0000
0100
0000
0001
0000
0010
0000
1000
0000
0010
0000
,
0200
1000
0010
0001
,
0320
0001
0230
0010
,
0310
0001
0010
0010
0001
0010
0100
0010
,
0000
0100
0000
1000
0000
0010
1001
0000
,
0001
0100
0001
0100
0001
0100
0001
0100
,
0010
0100
0010
0100
0010
1000
0010
1000
,
0001
1000
0001
1000
0001
1000
0001
1000
,
1001
0000
0002
0000
,
1003
0010
1000
0010
1000
0010
1000
0010
,
0100
0010
0100
0010
0100
0001
0100
0001
,
0010
0100
0010
0100
0010
0100
0010
0100
0010
0000
0000
0000
0000
0000
1000
0001
,
1000
0001
1000
0001
1000
0001
1000
0000
0000
0000
0000
0000
0001
0100
0001
0100
,
0001
0100
0001
0100
0001
0000
0000
0000
0000
0000
1000
0010
1000
0010
1000
0010
,
1000
0010
1000
0000
0000
0000
0000
0000
0010
0000
0100
0000
0010
0000
1000
0000
,
0001
0010
0100
0010
0001
1000
0010
0100
,
0001
1000
0100
1000
0010
0100
0010
1000
,
0001
0010
0100
0010
0001
0100
0010
1000
,
0010
0100
0001
0010
0100
0010
0001
1000
,
0010
1000
0100
0010
0100
1000
0010
0100
,
0001
0100
0010
1000
0010
0100
0001
0010
,
1000
0010
0001
0010
0100
0010
1000
0010
,
0100
0000
0010
0000
1001
0000
0000
0000
0001
0000
0100
0010
1000
0000
0010
0000
,
0100
0000
0001
1000
0100
0000
1000
0000
0010
0000
0100
0010
1000
0000
0001
0000
,
0010
0000
0100
0010
0001
1000
0010
0100
0001
0000
0100
0010
1000
0000
0010
0000
,
0100
0000
0001
0010
0100
0000
0010
0000
0001
0000
1000
0010
0100
0000
0010
0000
,
1000
0010
0100
0001
0010
0100
1000
0001
0100
0010
0100
0000
0010
0000
1000
0000
,
0001
0100
0001
0100
0010
1000
0010
0100
0010
0000
1000
0010
0100
0000
0010
0000
,
1000
0001
0100
0001
1000
0100
0010
0001
1000
0001
1000
0001
1000
0001
1000
0001
,
1000
0001
1000
0001
1000
0001
1000
0001
2002
0000
0000
0000
0000
0000
0000
0000
,
0000
0000
0000
0000
3003
0000
0000
0000
1001
0000
0001
0100
0001
0000
0001
1000
,
0001
0000
0001
0010
0001
0000
0001
1000
0001
0000
0001
0100
0001
0000
0001
1000
,
0001
0000
0001
0010
0001
0000
1000
0001
1000
0000
1000
0100
1000
0000
1000
0010
,
1000
0000
1000
0001
1000
0000
1000
0100
1000
0000
1000
0001
1000
0000
1000
0010
,
1000
0000
0100
0000
0010
0000
0001
0000
1000
0000
0000
0001
0100
0000
0010
0000
,
1010
0000
0000
0000
0011
0000
0000
0000
0010
0100
0000
0100
1000
0000
0001
0000
,
1001
0000
0000
0000
0110
0000
0000
0000
0001
0100
0001
0100
0001
0100
0001
0100
,
0001
0100
0001
0100
0001
0100
0001
0100
0001
0100
0001
0100
0001
0100
0001
0100
,
0001
1000
0001
0100
0010
0100
0010
1000
0010
0000
0100
0000
0001
0000
1001
0000
,
0001
1000
0100
0110
0001
0010
0100
1100
,
0100
0010
0001
0011
2200
0000
0000
0000
,
0000
0000
0000
0000
3300
0000
0000
0000
1100
0000
0000
0011
0000
0000
0101
0000
,
1001
0000
0001
0100
0010
1000
0100
0001
,
0100
1000
0010
0100
0001
1000
1000
0010
,
0001
0010
1000
0010
0100
0001
1000
0001
,
0010
0100
0010
0001
1000
0010
1000
0100
,
1000
0010
0100
0001
1000
0100
1000
0001
,
0100
0001
1000
0010
1000
0001
0010
0100
,
1000
0100
0010
0001
0010
0100
0010
0001
,
1000
0010
0000
1010
0000
0101
0000
0010
,
1001
0000
0000
0000
0001
1000
0001
0000
0010
0000
0100
1000
0010
0000
0100
0000
,
0010
1000
0001
0000
0100
0010
1000
0000
0100
0000
0010
0001
0010
0000
0100
0000
,
1000
0010
0100
0000
0001
1000
0010
0000
0100
0000
0010
1000
0010
0000
0100
0000
,
0001
0010
0100
0000
0010
0001
0100
0000
0010
0000
1000
0010
0100
0000
0010
0000
,
1000
0001
0100
0000
0001
0010
0100
0000
0010
0000
0001
0100
0010
0000
1000
0000
,
0010
0100
0010
0000
0100
0001
1000
0000
0100
0000
0010
0100
1000
0000
0010
0000
,
0100
1000
0001
0000
1000
0001
1000
0001
1000
0001
1000
0001
1000
0000
0000
0000
,
0000
0000
0010
0100
0010
0100
0010
0100
0010
0100
0010
0000
0000
0000
0000
0000
,
0100
0010
1000
0001
0010
0100
0010
0001
1000
0000
0000
0000
0000
0000
1000
0100
,
0001
0100
0010
0001
0100
1000
0100
0000
1001
0000
0000
0000
0000
0000
0000
0000
;

//---------------dance-single - ----------------
#NOTES:
     dance-single:
     :
     Medium:
     7:
     0.411,0.528,0.369,0.273,0.004:
0000
0000
0000
0000
,
0000
0000
0000
0000
,
0000
0000
0000
0000
,
0000
0000
0000
0000
,
0000
0000
0000
0000
,
0000
0000
0000
0000
,
0000
0000
0000
0000
,
0000
0000
0000
0000
,
0000
0000
0000
0000
,
2002
0000
0000
3000
,
0200
0000
0000
0000
0303
0000
0001
0100
,
0020
0000
0000
0100
,
0200
0000
0000
0000
0330
0000
0000
0100
,
0002
0000
0000
0000
,
2000
0000
0000
0003
,
0200
0000
3300
0000
1000
0100
0010
0001
,
1000
0100
0010
0001
1000
0100
0010
0001
,
0202
0000
0000
0000
0000
0000
0000
0300
,
0200
0000
0000
0300
2000
0000
0000
3000
,
0020
0000
0000
0000
,
0033
0000
0020
0000
,
0200
0000
0000
0000
0000
0000
0000
0030
,
2000
0000
0000
0300
0200
0000
0000
3000
,
0020
0000
0000
0000
,
0330
0000
0000
0000
,
2002
0000
0000
0000
0000
0000
0000
0003
,
0200
0000
0000
0300
0020
0000
0000
0030
,
0200
0000
0000
0000
,
3300
0000
0002
0000
,
2000
0000
0000
0000
0000
0000
0000
0003
,
0020
0000
0000
3000
0200
0000
0000
0030
,
0310
0100
0001
1000
0010
0000
0000
1000
,
0100
0010
0001
0010
0000
0000
0001
0100
,
0010
1000
0001
0000
0000
0001
0010
0100
,
0010
0001
0000
0000
1000
0000
0001
0100
,
0000
0001
1000
0001
0000
1000
0100
1000
,
0000
0100
1000
0010
0100
0000
0010
1000
,
0000
0010
0100
0001
0000
0001
1000
0010
,
0000
0100
0010
1000
0001
0000
1000
0100
,
0000
1000
0010
0100
0000
0010
0100
0001
,
0000
1000
0001
0100
0010
0000
0100
0001
,
0100
0001
0000
0100
0010
0100
0000
0000
,
0010
0000
0110
0000
0001
0100
0010
1000
,
0000
0010
0100
0010
0000
0100
0001
1000
,
0001
0010
0100
0000
0010
0100
1000
0000
,
0100
1000
0010
0000
0100
0010
0100
0010
,
0100
0010
0100
0000
0010
1000
0001
0000
,
0010
0100
1000
0000
0100
0000
1000
0000
,
0100
1000
0010
0000
0100
0010
1000
0001
,
0100
0010
1000
0010
0220
0000
0000
0000
,
0000
0000
0330
0000
0001
0100
0010
1000
,
0001
0100
0010
1000
0001
0100
0010
1000
,
0001
0100
0010
1000
0001
0100
0010
1000
,
0001
0100
0010
1000
0001
0100
0010
1000
,
0001
0100
0010
1000
1010
0000
0011
0000
,
2100
3100
1100
0101
,
1002
0000
1003
0000
1000
0100
0010
0001
,
1000
0100
0010
0001
1000
0100
0010
0001
,
1000
0100
0010
0001
0010
0100
1000
0010
,
0100
0010
1000
0001
0010
0100
1000
0010
,
0100
0001
0100
0010
2002
0000
0000
0000
,
0000
0000
0000
0000
3003
0000
0000
0000
0101
0000
0000
1010
0000
0000
1100
0000
,
1001
0000
0101
0000
0010
0110
0000
1001
,
0000
0101
0000
1100
0000
0000
0100
1000
,
0000
1100
0000
0110
0000
0011
0000
0110
,
0000
2002
0000
0000
3003
0000
0001
0100
,
0000
1010
0000
0011
0000
1100
0000
0011
,
0000
1100
0000
0101
0000
1100
0000
0101
,
0000
2002
0000
0000
0000
0000
0000
0000
,
0000
3003
0000
0001
0000
1000
0000
0010
,
0100
0001
0101
0000
0100
0110
0000
1001
,
0000
0110
0000
1010
0000
0000
0010
0100
,
0000
0101
0000
1100
0000
0011
0000
1010
,
0000
0101
0000
1001
0000
0000
0000
0000
,
0001
0100
0000
0110
0000
1001
0000
0110
,
0000
0000
0000
0010
1000
0001
0000
0100
,
0000
0010
0100
0001
1000
0100
0001
0000
,
0000
0100
0010
0001
1000
0010
0000
0000
,
0100
1000
0100
0001
0100
0000
0000
0010
,
0001
0010
1000
0100
1001
0000
0000
0000
;

//---------------dance-single - ----------------
#NOTES:
     dance-single:
     :
     Easy:
     5:
     0.278,0.381,0.339,0.192,0.000:
0000
0000
0000
0000
,
0000
0000
0000
0000
,
0000
0000
0000
0000
,
0000
0000
0000
0000
,
0000
0000
0000
0000
,
0000
0000
0000
0000
,
0000
0000
0000
0000
,
0000
0000
0000
0000
,
0000
0000
0000
0000
,
0020
0000
0000
0000
,
0200
0000
0330
0100
,
0002
0000
0000
1000
,
2000
0000
3003
0000
,
2000
0000
0000
0000
,
3200
0000
0000
0000
,
2000
0000
0000
0000
,
0000
0000
0000
3300
,
2002
0000
0000
3000
,
0100
0000
0100
0000
,
0200
0000
0000
0000
,
0303
0000
0200
0000
,
0020
0000
0000
0300
,
1000
0000
1000
0000
,
0200
0000
0000
0000
,
0330
0000
0000
0000
,
2002
0000
0000
3000
,
0100
0000
0100
0000
,
0200
0000
0000
0000
,
0303
0000
0020
0000
,
2000
0000
0000
0030
,
0010
0000
0010
0000
,
3010
0000
0100
0000
1001
0000
0000
0010
,
0000
0100
0000
0010
,
0010
0000
1001
0000
0000
0100
0000
0010
,
0000
1001
0000
0000
1001
0000
0000
0001
,
0000
1000
0100
1000
,
0010
0100
0010
1000
,
0001
0010
0100
0010
,
0001
1000
0010
0100
,
0001
1000
0100
1000
,
0001
0100
0001
1000
,
0001
1000
0100
1000
,
0010
0100
1001
0001
,
0100
0001
0100
0010
,
0100
0010
1000
0010
,
1000
0010
0100
0010
,
1000
0001
0010
0001
,
0100
0010
1000
0010
,
0100
0001
1001
0101
,
1001
1100
2002
0000
,
0000
0000
3003
0000
1001
0000
0001
0100
,
0000
0001
0000
1000
0000
0100
0000
1000
,
0000
0010
0000
0100
0000
0010
0000
1000
,
0000
0010
0000
0100
0000
0001
0000
0000
,
1000
0002
0000
0200
0000
0000
0000
0000
,
0000
0000
0000
0000
,
0000
0000
0303
0000
0001
0000
1000
0010
,
0000
0100
0000
0010
0000
0000
0000
0000
,
1000
0010
0000
0100
0010
0000
0110
0000
,
0100
0110
0010
1001
,
0100
1001
0220
0000
,
0000
0000
0300
0000
,
0030
0110
0010
1000
,
0010
0110
0100
0101
,
0001
0011
0010
0100
,
1000
0100
1000
1010
,
0010
0110
0100
0001
,
1000
1001
0001
1001
,
1000
2002
0000
0000
,
3003
0000
0000
0000
,
0000
0110
0010
1000
,
0010
0110
0100
0101
,
0001
0011
0010
0100
,
1000
0100
1000
0010
,
0110
0101
0001
1000
,
0010
1010
0010
0110
,
0100
0101
1010
1100
,
0000
0011
0000
0000
1100
0000
0000
0000
,
0011
0000
1100
0000
0101
0000
0000
1001
,
0000
0110
0000
0010
1001
0000
0000
0000
;

//---------------dance-single - ----------------
#NOTES:
     dance-single:
     :
     Beginner:
     2:
     0.157,0.293,0.199,0.007,0.000: // measure 1
0000
0000
0000
0000
,  // measure 2
0000
0000
0000
0000
,  // measure 3
0000
0000
0000
0000
,  // measure 4
0000
0000
0000
0000
,  // measure 5
0000
0000
0000
0000
,  // measure 6
0000
0000
0000
0000
,  // measure 7
0000
0000
0000
0000
,  // measure 8
0000
0000
0000
0000
,  // measure 9
0000
0000
0000
0000
,  // measure 10
1001
0000
0000
0000
,  // measure 11
0001
0000
0000
0100
,  // measure 12
0100
0000
0000
0000
,  // measure 13
0010
0000
0000
0000
,  // measure 14
1001
0000
0000
0000
,  // measure 15
0100
0000
0000
0000
,  // measure 16
0010
0000
0000
0000
,  // measure 17
0000
0000
0000
0000
,  // measure 18
1001
0000
0000
0000
,  // measure 19
1000
0000
0100
0000
,  // measure 20
0010
0000
0000
0000
,  // measure 21
0000
0000
0100
0000
,  // measure 22
0010
0000
0000
0000
,  // measure 23
0001
0000
0010
0000
,  // measure 24
0100
0000
0000
0000
,  // measure 25
0000
0000
0000
0000
,  // measure 26
1001
0000
0000
0000
,  // measure 27
0001
0000
0100
0000
,  // measure 28
0010
0000
0000
0000
,  // measure 29
0000
0000
0100
0000
,  // measure 30
0010
0000
0000
0000
,  // measure 31
1000
0000
0001
0000
,  // measure 32
1001
0000
0000
0000
,  // measure 33
0000
0000
0000
0110
,  // measure 34
0000
0000
0010
0000
,  // measure 35
0000
0000
0100
0000
,  // measure 36
0000
0000
0010
0000
,  // measure 37
0000
0000
1000
0000
,  // measure 38
0000
0001
0000
0000
,  // measure 39
0100
0000
0010
0000
,  // measure 40
0000
0100
0100
0000
,  // measure 41
0000
0010
0010
0000
,  // measure 42
1000
0000
1000
0000
,  // measure 43
0000
0000
1001
0000
,  // measure 44
0001
0000
0100
0000
,  // measure 45
0010
0000
0000
0100
,  // measure 46
0100
0000
0010
0000
,  // measure 47
1000
0000
0000
0001
,  // measure 48
0000
0000
1000
0000
,  // measure 49
0000
0000
0010
0000
,  // measure 50
0100
0000
1001
0000
,  // measure 51
0000
0000
0001
0001
,  // measure 52
0001
0001
1000
1000
,  // measure 53
1000
1000
0010
0010
,  // measure 54
0010
0010
0100
0100
,  // measure 55
0100
0100
1001
0000
,  // measure 56
0110
0000
0110
0000
,  // measure 57
1001
0000
0001
0000
,  // measure 58
1000
0000
0010
0000
,  // measure 59
0100
0100
0010
0000
,  // measure 60
1000
0000
0001
0000
,  // measure 61
0100
0000
0020
0000
,  // measure 62
0000
0030
0100
0000
,  // measure 63
1001
0001
0000
0000
,  // measure 64
0000
0100
0000
0010
,  // measure 65
0000
1000
0000
0000
,  // measure 66
0000
0010
0000
0100
,  // measure 67
0000
0110
0000
0000
,  // measure 68
0000
1001
0000
1001
,  // measure 69
0000
0110
0010
0100
,  // measure 70
0100
0000
0000
0000
,  // measure 71
0000
0110
0000
0010
,  // measure 72
0000
1001
0000
1001
,  // measure 73
0000
0110
0000
0100
,  // measure 74
0000
0110
0000
0010
,  // measure 75
0000
1001
0000
1000
,  // measure 76
0000
1001
0000
0110
,  // measure 77
0000
1001
0001
0001
,  // measure 78
0000
1000
1000
0000
,  // measure 79
0010
0010
0010
0000
,  // measure 80
0100
0010
1001
0000
;
