#TITLE:Mynarco;
#SUBTITLE:;
#ARTIST:positive MAD-crew;
#TITLETRANSLIT:;
#SUBTITLETRANSLIT:;
#ARTISTTRANSLIT:;
#CREDIT:;
#BANNER:Mynarco.png;
#BACKGROUND:bg.png;
#LYRICSPATH:;
#CDTITLE:cdtitle.png;
#MUSIC:1-30 Mynarco.mp3;
#OFFSET:-10.994;
#SAMPLESTART:32.200;
#SAMPLELENGTH:12.000;
#SELECTABLE:YES;
#BPMS:0.000=181.000;
#STOPS:140.000=0.994
;
#BGCHANGES:;

//---------------dance-single - ----------------
#NOTES:
     dance-single:
     :
     Hard:
     8:
     0.534,0.545,0.019,0.612,0.000: // measure 1
1000
0000
0001
0100
0000
0100
0010
0000
,  // measure 2
0100
0000
0010
1000
0000
1000
0100
0000
,  // measure 3
0100
0000
0100
0010
0000
0010
0001
0000
,  // measure 4
0001
0001
1000
1000
,  // measure 5
0010
0000
1000
0010
0000
0010
0100
0000
,  // measure 6
0100
0000
0100
0010
0000
0010
1000
0000
,  // measure 7
1000
0000
1000
0100
0000
0100
0010
0000
,  // measure 8
0010
0001
0010
1000
,  // measure 9
0010
0000
0100
1000
0000
1000
0010
0000
,  // measure 10
0100
0000
0100
0001
0000
0001
0010
0000
,  // measure 11
0010
0000
0001
0010
0000
0100
1000
0000
,  // measure 12
1000
0001
0100
0001
,  // measure 13
0010
0000
0100
1000
0000
1000
0100
0000
,  // measure 14
0100
0000
0010
0001
0000
0001
0010
0000
,  // measure 15
0001
0000
0010
0100
0000
0100
1000
0000
,  // measure 16
1000
0001
0100
1000
,  // measure 17
0200
0301
0002
0023
,  // measure 18
0230
0310
0100
0200
,  // measure 19
2300
3010
0020
0230
,  // measure 20
0301
0100
1000
0100
0010
1000
0001
0010
,  // measure 21
0200
1300
0020
0230
,  // measure 22
0320
1030
1000
0020
,  // measure 23
0230
0310
2000
3010
,  // measure 24
0100
0001
0100
1000
0100
0010
1000
0001
,  // measure 25
2000
3001
0002
0203
,  // measure 26
0320
0130
0100
0002
,  // measure 27
0023
1030
0020
0230
,  // measure 28
1300
0100
0010
0100
1000
0010
0100
0001
,  // measure 29
2000
3100
0020
0230
,  // measure 30
2300
3010
0200
0302
,  // measure 31
2003
3100
2000
3001
,  // measure 32
0002
0103
0002
1003
,  // measure 33
1000
0100
1000
0000
0100
0010
0100
0000
,  // measure 34
0010
0001
0010
0000
0001
0100
0001
0000
,  // measure 35
0001
0010
1000
0010
0100
1000
0100
0001
,  // measure 36
1000
0010
1000
0100
,  // measure 37
0001
0100
0010
0001
,  // measure 38
0010
1000
0010
0100
,  // measure 39
1000
0010
0010
0100
,  // measure 40
0100
0001
1000
0100
,  // measure 41
1000
0001
0100
0001
,  // measure 42
1000
0100
1000
0001
,  // measure 43
0100
0001
1001
1000
,  // measure 44
1001
0010
0010
0100
,  // measure 45
0100
0001
0001
1000
,  // measure 46
1000
0100
0100
0010
,  // measure 47
0010
0001
0010
0100
,  // measure 48
1000
0100
0100
1000
,  // measure 49
1000
0010
0010
0001
,  // measure 50
0001
0010
0010
0100
,  // measure 51
0100
0010
1000
0001
,  // measure 52
1000
0000
0100
0010
0100
1000
0001
0000
,  // measure 53
0001
0100
1000
0100
0010
0100
0000
0100
,  // measure 54
0001
1000
0002
0000
1000
0000
2003
0000
,  // measure 55
3020
2030
0010
0010
,  // measure 56
3020
0230
0302
0023
,  // measure 57
0230
0000
1300
0100
0001
0100
0010
0001
,  // measure 58
0010
0100
2000
0000
3200
0000
0302
0000
,  // measure 59
0203
0320
0001
0100
,  // measure 60
0230
2300
3010
0020
,  // measure 61
0130
0000
0100
0010
1000
0001
0010
0100
,  // measure 62
0010
0001
2000
0000
3100
0000
0200
0000
,  // measure 63
0320
0032
0100
0100
,  // measure 64
0203
2300
3200
0320
,  // measure 65
2030
0000
3001
0010
1000
0010
0100
0010
,  // measure 66
0100
1000
0002
0000
0203
0000
2300
0000
,  // measure 67
3200
0320
0100
0230
,  // measure 68
0302
0000
1003
0100
0010
0001
0010
0100
,  // measure 69
1000
0100
1000
0010
0100
0001
1000
0001
,  // measure 70
1000
0100
0000
0000
0000
0000
0000
0000
;

//---------------dance-single - ----------------
#NOTES:
     dance-single:
     :
     Medium:
     5:
     0.392,0.417,0.000,0.565,0.000:
1000
0000
0000
1000
0000
0000
0001
0000
,
0100
0000
0000
0010
0000
0000
0100
0000
,
0001
0000
0000
1000
0000
0000
0100
0000
,
1000
0100
0010
0010
,
0100
0000
0000
0100
0000
0000
1000
0000
,
0010
0000
0000
0001
0000
0000
0010
0000
,
0100
0000
0000
0001
0000
0000
1000
0000
,
0100
1000
0001
0100
,
0001
0000
0000
0001
0000
0000
1000
0000
,
0010
0000
0000
0100
0000
0000
0010
0000
,
1000
0000
0000
0010
0000
0000
0100
0000
,
0001
1000
0100
1000
,
0010
0000
0000
0010
0000
0000
0100
0000
,
0100
0000
0000
0010
0000
0000
1000
0000
,
0100
0000
0000
0010
0000
0000
0100
0000
,
1000
0100
0001
0100
,
0020
0000
0031
0100
,
0020
0000
0000
0130
,
0002
0000
1003
0100
,
2000
0100
0100
0100
,
3200
0000
0310
0001
,
0020
0000
0000
0130
,
2000
0000
3002
0000
,
0203
0000
0302
0103
,
0200
0000
0310
1000
,
0002
0000
0003
0010
,
0100
0100
1000
0010
,
0200
0000
0000
0300
,
0010
0010
0100
0100
,
0002
0000
1003
0100
,
0020
0000
0230
0000
,
2300
0000
3002
0103
,
0001
0100
0010
0000
0100
0010
1000
0000
,
0001
0000
1000
0000
0100
1000
0100
0000
,
1000
0100
0010
0000
0010
0100
1000
0001
,
0100
0001
0100
1000
,
0100
0010
1000
0010
,
0001
0010
0100
0010
,
1000
0000
0001
0000
0100
0000
0010
1000
,
0010
0100
0001
0010
,
1000
0010
0100
1000
,
0010
0001
0010
0100
,
0001
0000
1000
0000
0100
0000
0010
0100
,
0010
0100
1000
0010
,
0001
0010
0100
0001
,
1000
0100
1000
0001
,
0100
0000
0010
0000
1000
0000
0001
1000
,
0001
1000
0100
0001
,
0100
0010
0001
0010
,
0100
1000
0010
0100
,
0100
0000
0010
0000
0100
0000
0001
1000
,
0001
1000
0100
0010
,
0100
0000
1000
0000
0010
0000
0000
0100
,
0001
0100
0002
0000
0000
0000
2003
0000
,
3200
0320
0000
0000
,
0230
2300
3020
0230
,
0302
2003
0000
0000
,
0000
3002
2003
3200
,
2300
3002
0000
0000
,
2003
3020
0000
0230
,
0000
0302
0000
0023
,
0230
2300
0000
3200
,
2300
3020
0000
0000
,
0230
0302
2003
3200
,
2300
3002
0000
0000
,
0000
2003
3002
0203
,
0302
0023
0000
0230
,
2300
3020
0000
0230
,
0000
0302
0000
2003
,
0020
0000
0000
0000
0000
0000
0000
0000
0000
0000
0000
0000
0000
0000
0000
0000
0000
0000
0000
0000
0000
0000
0000
0000
0000
3030
0000
0000
0000
0000
0000
0000
0000
0000
0000
0000
0000
0000
0000
0000
0000
0000
0000
0000
0000
0000
0000
0000
0000
0000
0000
0000
0000
0000
0000
0000
0000
0000
0000
0000
0000
0000
0000
0000
0000
0000
0000
0000
0000
0000
0000
0000
0000
0000
0000
0000
0000
0000
0000
0000
0000
0000
0000
0000
0000
0000
0000
0000
0000
0000
0000
0000
0000
0000
0000
0000
0000
0000
0000
0000
0000
0000
0000
0000
0000
0000
0000
0000
0000
0000
0000
0000
0000
0000
0000
0000
0000
0000
0000
0000
0000
0000
0000
0000
0000
0000
0000
0000
0000
0000
0000
0000
0000
0000
0000
0000
0000
0000
0000
0000
0000
0000
0000
0000
0000
0000
0000
0000
0000
0000
0000
0000
0000
0000
0000
0000
0000
0000
0000
0000
0000
0000
0000
0000
0000
0000
0000
0000
0000
0000
0000
0000
0000
0000
0000
0000
0000
0000
0000
0000
0000
0000
0000
0000
0000
0000
0000
0000
0000
0000
0000
0000
;

//---------------dance-single - ----------------
#NOTES:
     dance-single:
     :
     Easy:
     3:
     0.282,0.320,0.000,0.250,0.000:
0001
0000
0000
1000
,
0010
0000
0000
0100
,
0001
0000
0000
1000
,
0100
0000
0000
1000
,
0010
0000
0000
0100
,
0100
0000
0000
0010
,
0010
0000
0100
0000
,
0001
1000
0100
1000
,
0010
0000
0000
0100
,
0100
0000
0000
0001
,
0001
0000
0000
0000
,
1000
0010
1000
0010
,
0100
0000
0000
0010
,
0010
0000
0000
0100
,
0100
0000
0000
0001
,
1000
0000
0100
1000
,
0010
0000
0100
0001
,
0020
0000
0030
0100
,
2000
0000
3100
1000
,
0020
0000
0000
0030
,
0200
0000
0310
1000
,
0002
0000
0003
1000
,
0100
0000
1000
0000
,
0010
0000
0100
0001
,
2000
0000
3100
0010
,
0002
0000
0003
0010
,
0100
0000
0010
0001
,
2000
0000
0000
3000
,
0002
0000
0103
0100
,
0010
0000
0100
0010
,
2000
3000
0002
0003
,
0200
0300
0020
0130
,
0100
0010
1000
1000
,
0001
0010
1000
0010
,
0100
0100
1000
0010
,
0100
0001
0000
1000
,
0000
0010
0000
1000
,
0000
0001
0000
0010
,
0000
0001
0000
1000
,
0000
0001
0000
0100
,
0000
0001
0000
1000
,
0000
0100
0000
1000
,
0000
0001
0000
0100
,
0000
0001
1000
0010
,
0010
1000
0001
0010
,
0010
0001
1000
0010
,
0010
1000
0001
1000
,
0001
1000
0001
0100
,
0100
0001
1000
0100
,
0100
1000
0001
0100
,
0100
0001
1000
0100
,
0100
0010
0001
0010
,
0100
1000
0100
0000
,
0100
1000
0000
0010
,
0100
0020
0000
0000
,
0130
0001
0100
0010
,
1000
0002
0000
0000
,
0003
1000
1000
0001
,
0001
0000
0200
0000
0000
0000
0000
0300
,
0001
0020
0000
0130
,
0000
0200
0000
1300
,
0100
0020
0000
0130
,
1000
0020
0000
0000
,
0130
0001
0001
1000
,
1000
0020
0000
0000
,
0030
0100
0001
1000
,
0100
2000
0000
3100
,
0010
0002
0000
0023
,
0000
0230
0000
2300
,
0020
3030
0000
0000
0000
0000
0000
0000
;

//---------------dance-single - ----------------
#NOTES:
     dance-single:
     :
     Beginner:
     2:
     0.150,0.192,0.009,0.065,0.000:
1000
0000
0000
0000
,
0001
0000
0000
0000
,
1000
0000
0000
0000
,
0001
0000
0000
0000
,
0100
0000
0000
0000
,
0001
0000
0000
0000
,
1000
0000
0000
0000
,
0100
0000
0100
0000
,
0100
0000
0000
0000
,
1000
0000
0000
0000
,
0001
0000
0000
0000
,
0100
0000
0000
0000
,
0001
0000
0000
0000
,
1000
0000
0000
0000
,
0100
0000
0000
0000
,
1000
0000
0000
0000
,
0020
0000
0000
0000
,
0000
0000
0030
0000
,
0200
0000
0000
0000
,
0000
0000
0000
0300
,
0002
0000
0000
0000
,
0000
0000
0000
0003
,
2000
0000
0000
0000
,
0000
0000
0000
3000
,
0010
0000
0100
0100
,
0100
0000
0000
0000
,
0010
0000
1000
1000
,
1000
0000
0000
0000
,
0001
0000
1000
1000
,
1000
0000
0000
0000
,
0100
0000
0010
0000
,
0001
0000
1000
0000
,
1001
0000
0000
0000
,
0001
0000
0000
0000
,
0100
0000
0001
0000
,
0010
0100
0000
0000
,
0000
0010
0000
0000
,
0000
0001
0000
0000
,
0000
1000
0000
1000
,
0000
0001
0000
0000
,
0000
0100
0000
0000
,
0000
0010
0000
0000
,
0000
1000
0000
0000
,
0000
0010
0000
0010
,
0000
0100
0000
0100
,
0000
0001
0000
0001
,
0000
1000
0000
1000
,
0000
0001
0000
0001
,
0000
0100
0000
0100
,
0000
0010
0000
0010
,
0000
1000
0000
1000
,
0000
0020
0000
0000
,
0000
0000
0000
0030
,
0000
0100
0000
0001
,
0001
0001
0000
0000
,
1000
1000
0000
0001
,
0001
0002
0000
0000
,
0003
0100
0000
0010
,
0010
0010
0000
0000
,
0000
0100
0000
0001
,
0000
1000
0000
0100
,
0010
0001
0000
0010
,
0010
0010
0000
0000
,
0000
0100
0000
1000
,
1000
2000
0000
0000
,
3000
0001
0000
1000
,
1000
1000
0000
0010
,
0010
0010
0000
0100
,
0000
0001
0000
1000
,
1000
0000
0000
0000
;

//---------------dance-single - ----------------
#NOTES:
     dance-single:
     :
     Challenge:
     8:
     0.641,0.545,0.056,0.788,0.000: // measure 1
0002
0000
1003
0100
0000
1000
0010
0000
,  // measure 2
0200
0000
0310
1000
0000
0100
0010
0000
,  // measure 3
0200
0000
0310
0001
0000
0010
0100
0000
,  // measure 4
0010
0001
0010
0001
0010
0001
0010
0001
,  // measure 5
1000
0000
0010
2000
0000
0001
3001
0000
,  // measure 6
0010
0000
0100
2000
0000
0010
3010
0000
,  // measure 7
0100
0000
0001
0020
0000
0100
0130
0000
,  // measure 8
0010
0001
0100
1000
0100
0010
1000
0001
,  // measure 9
0020
0000
0130
2000
0000
0001
3001
0000
,  // measure 10
2000
0000
3010
2000
0000
0001
3001
0000
,  // measure 11
0200
0000
0310
0200
0000
0001
0301
0000
,  // measure 12
0100
0010
0001
0010
1000
0100
0010
0001
,  // measure 13
2000
0000
0000
3020
0000
0000
0130
0000
,  // measure 14
0200
0000
0000
0302
0000
0000
0013
0000
,  // measure 15
0010
0001
0010
0100
1000
0001
0100
1000
,  // measure 16
0100
0010
1000
0010
0100
0001
1000
0001
,  // measure 17
0020
0031
0200
2300
,  // measure 18
3200
0301
0010
0200
,  // measure 19
0320
0031
0200
0320
,  // measure 20
0130
0001
0010
0100
1000
0100
0010
0001
,  // measure 21
2000
3001
0200
0302
,  // measure 22
2003
3100
1000
0020
,  // measure 23
0230
0301
0020
0130
,  // measure 24
0010
0001
0100
1000
0100
0010
1000
0010
,  // measure 25
0200
0310
2000
3002
,  // measure 26
0023
0031
0100
0020
,  // measure 27
2030
3002
0023
0230
,  // measure 28
0310
0001
0100
1000
0100
0010
1000
0010
,  // measure 29
0200
0310
2000
3002
,  // measure 30
0023
0130
0020
0032
,  // measure 31
1003
0100
0010
0001
0010
0100
1000
0100
,  // measure 32
0010
0001
1000
0010
0100
0001
0010
0100
,  // measure 33
1000
0001
1001
0000
0010
0100
0110
0000
,  // measure 34
0001
1000
1001
0000
0100
0010
0110
0000
,  // measure 35
0001
0001
0100
0010
0100
0100
0001
0001
,  // measure 36
0010
0000
0001
0000
0010
0100
1000
0001
,  // measure 37
0001
0000
0010
0001
0100
0010
1000
0000
,  // measure 38
0001
1000
0100
0010
0001
0000
0001
1000
,  // measure 39
1000
0010
0100
0000
0010
0010
0100
0001
,  // measure 40
1000
0000
0010
0000
0010
0100
0010
1000
,  // measure 41
1000
0000
0010
1000
0010
0010
0100
0000
,  // measure 42
0010
0010
0100
0001
1000
0000
0001
0001
,  // measure 43
1000
0100
0010
0000
0010
0001
0010
1000
,  // measure 44
0010
0000
1001
0000
0001
0001
1000
0100
,  // measure 45
0100
0000
0010
0010
0100
1000
1000
0000
,  // measure 46
0001
0010
0100
0010
0001
0000
1000
0001
,  // measure 47
0100
0001
0010
0000
0010
0100
1000
0001
,  // measure 48
0100
0000
0101
0000
0100
1000
0100
0010
,  // measure 49
1000
0000
0001
1000
0010
0100
0010
0000
,  // measure 50
0100
0000
0010
1000
0001
0000
1000
0001
,  // measure 51
0100
0010
1000
0000
0001
1000
0100
0001
,  // measure 52
0100
0000
1000
0010
0100
0001
2000
0000
,  // measure 53
3001
0100
0001
0010
0100
0020
0000
0130
,  // measure 54
0010
0001
2000
0000
0001
0000
3200
0000
,  // measure 55
2300
3020
0100
0100
,  // measure 56
0230
0302
2003
3002
,  // measure 57
2003
0000
3001
0100
0010
1000
0001
0010
,  // measure 58
0100
1000
0200
0000
0320
0000
0230
0000
,  // measure 59
2300
3020
0100
0100
,  // measure 60
0230
0302
1000
0203
,  // measure 61
0010
0320
0100
2030
,  // measure 62
3002
2003
0001
3020
,  // measure 63
0230
0302
0010
0010
,  // measure 64
2003
3200
0320
0032
,  // measure 65
0023
0000
0130
0010
0001
0010
0100
0010
,  // measure 66
0001
1000
0200
0000
0320
0000
0032
0000
,  // measure 67
0023
0032
1000
0023
,  // measure 68
0230
0000
1300
0100
1000
0010
0100
0010
,  // measure 69
0100
0001
1000
0001
0010
1000
0010
0001
,  // measure 70
0200
0301
0000
0000
0000
0000
0000
0000
;
