#TITLE:Mother ship;
#SUBTITLE:;
#ARTIST:Sota Fujimori;
#TITLETRANSLIT:;
#SUBTITLETRANSLIT:;
#ARTISTTRANSLIT:;
#CREDIT:;
#BANNER:Mother Ship.png;
#BACKGROUND:Mother Ship-background.png;
#JACKET:Mother Ship-jacket.png;
#LYRICSPATH:;
#CDTITLE:cdtitle.png;
#MUSIC:Mothership.mp3;
#OFFSET:-3.921;
#SAMPLESTART:54.420;
#SAMPLELENGTH:12.000;
#SELECTABLE:YES;
#BPMS:0.000=152.000;
#STOPS:;
#BGCHANGES:;

//---------------dance-single - ----------------
#NOTES:
     dance-single:
     :
     Hard:
     9:
     0.621,0.555,0.227,0.244,0.436:
1001
0000
0001
0100
0010
0000
0100
1000
,
0100
0001
0010
0100
0010
0001
1000
0010
,
1000
0000
1000
0000
0010
0000
0010
0000
0100
0000
0000
0100
0000
0000
0001
0000
,
1100
0000
0000
0101
0000
0000
1100
0000
0000
1000
0001
1000
,
0001
0000
0100
0000
0010
0000
0000
0000
0100
0000
0010
0000
1000
0010
0000
0010
,
1000
0100
0001
0100
0010
0001
0010
0100
,
1000
0000
0001
0000
0100
0000
0010
0100
0010
0000
0000
0100
0000
0000
0001
0000
,
1000
0100
0010
0001
0010
0100
2000
0000
,
3001
0100
0000
0001
0000
0000
1000
0000
0001
0000
0100
0000
0010
1000
0000
0010
,
0000
0100
0001
0000
1000
0000
0100
0000
0010
0000
0100
0000
1000
0000
0001
0000
,
0010
0001
0000
0001
0000
0000
0001
0000
0100
0000
0010
0100
0000
0010
0000
1000
,
0000
0000
0000
0001
0000
0000
1000
0000
0000
0000
0000
0000
0100
0000
0000
0000
0000
0000
1000
0000
0000
0000
0000
0000
0001
0000
0000
0000
0000
0000
0100
0000
0000
0000
0000
0000
0001
0000
0000
0000
0010
0000
0000
0000
0001
0000
0000
0000
,
1000
0001
0000
0100
0000
0001
0100
0000
0010
0000
1000
0000
0001
0010
0000
0100
,
0000
0010
0001
0000
1000
0000
0001
0000
0100
0000
0001
0000
1000
0000
0100
0000
,
0010
0100
0000
1000
0000
0100
0010
0000
0001
0000
0100
0000
1000
0100
0000
0010
,
0000
1000
0010
0000
0100
0000
0001
0000
1000
0000
0100
0000
2000
0000
0000
0000
,
3001
0000
0000
0100
0000
0000
0001
0000
1000
0000
0000
0100
0000
0000
1000
0000
,
0000
0100
0010
0000
0001
0000
0010
0000
0001
0000
1000
0000
0010
1000
0000
0010
,
0000
0000
0100
0000
0001
0000
0000
0000
1000
0000
0001
0000
1000
0001
0000
0100
,
0000
0001
0000
0010
0000
0010
0100
0000
0010
0000
0001
0000
1000
0000
0010
0000
,
0000
0000
1000
0000
0010
0000
1000
0000
0001
0000
0010
0000
0001
1000
0000
1001
,
0000
0000
0001
0000
0100
0000
0010
0000
1000
0000
0010
0000
0100
0001
0000
0101
,
0000
0000
0001
0000
0010
0000
0001
0000
1000
0000
0010
0000
0100
0001
0000
0101
,
0000
0000
0001
0000
0010
0000
1000
0000
0010
0000
0100
0000
1000
0010
0000
0010
,
0100
0000
0000
0001
0000
0000
1000
0000
1001
0000
0000
0000
1001
0000
0000
0000
,
0102
0000
0000
0100
0000
0000
0100
0000
0203
0000
0000
0000
0310
0000
0000
0000
,
0110
0000
0000
0010
0000
0000
1000
0000
0010
0000
0000
0100
0000
0000
0001
0000
,
1000
0100
1000
0100
0000
0000
0020
0000
0000
0001
0000
0000
,
0130
0000
0000
0010
0000
0000
0001
0000
0100
0000
0000
0010
0000
0000
0100
0000
,
0001
0000
0000
1000
0000
0000
0001
0000
0101
0000
0000
0000
0010
0000
0000
0000
,
0100
0000
0000
0001
0000
0000
1000
0000
0100
0000
0000
0010
0000
0000
0100
0000
,
1000
0010
1000
0010
0000
0000
0200
0000
0000
0301
0000
0000
,
0020
0000
0000
1030
0000
0000
0000
0000
0020
0000
0000
0130
0000
0000
0000
0000
,
0020
0000
0000
1030
0000
0000
0000
0000
0000
0000
0000
0000
0000
0000
0000
0000
,
0002
0000
0000
1003
0000
0000
0000
0000
0002
0000
0000
0013
0000
0000
0000
0000
,
0002
0000
0000
1000
0000
0000
0200
0000
0000
0000
0000
0000
0000
0000
0303
0000
,
0000
0001
0100
1000
0200
0320
2000
3030
,
0010
0000
0000
0100
0000
0000
0001
0000
2000
0000
3020
0000
0200
0000
0330
0000
,
0000
0010
0100
0001
2000
3002
2000
3003
,
0001
0000
0000
0200
0000
0000
0010
0000
0320
0000
0000
0000
1030
0000
0000
0000
,
0101
0000
0011
0000
,
0110
0000
1100
0000
,
1001
0000
0001
0000
0100
0000
0010
1000
0000
0000
0000
0000
1010
0000
0000
0000
,
0100
0000
0010
0000
1000
0000
0001
0010
0000
0000
0000
0000
1100
0000
0000
0000
,
0010
0000
0001
0000
0100
0000
1000
0100
0000
0000
0000
0000
0110
0000
0000
0000
,
0100
0000
0001
0000
0010
0000
0100
1000
0000
0000
0000
0000
0011
0000
0000
0000
,
0001
0000
0010
0000
0001
0000
0100
0010
0000
0000
0000
0000
1010
0000
0000
0000
,
0100
0000
0010
0000
1000
0000
0001
0010
0000
0000
0000
0000
1100
0000
0000
0000
,
0100
0000
0010
0000
0001
0000
1000
0010
0000
0000
0000
0000
0101
0000
0000
0000
,
0100
0000
0010
0000
1000
0000
0001
0010
0000
0000
0000
0000
1100
0000
0000
0000
,
0001
0000
0100
0000
0001
0000
1000
0000
0100
0000
0000
0100
0000
0000
0100
0000
,
0010
0000
0001
0000
0010
0000
0100
0000
0010
0000
0000
0010
0000
0000
0010
0000
,
0001
0000
0010
0000
0100
0000
1000
0000
0100
0000
0000
1000
0000
0000
0010
0000
,
0100
0000
0001
0000
1000
0000
0010
0000
0100
0000
0000
0001
0000
0000
1000
0000
,
0100
0000
0010
0000
0001
0000
0010
0000
0100
0000
0000
0100
0000
0000
0100
0000
,
1000
0000
0010
0000
0100
0000
0001
0000
0010
0000
0000
0010
0000
0000
0010
0000
,
0001
0000
1000
0000
0010
0000
0100
0000
0010
0000
0000
0010
0000
0000
0010
0000
,
0100
0001
0010
0100
2000
0000
0100
0000
,
3001
0000
1000
0000
0010
0000
0100
0001
0000
0100
0000
0001
0100
0000
0001
0000
,
1000
0000
0100
0000
0010
0000
0100
0010
0000
0001
0000
0010
0100
0000
1000
0000
,
0001
0001
0100
0000
0100
0100
0010
0000
,
0010
0010
1000
0010
0010
0100
0001
0000
,
1000
0000
0001
0000
1000
0000
0001
1000
0000
1000
0000
1000
0001
0000
0100
0000
,
0010
0000
0100
0000
0010
0000
0100
0010
0000
0010
0000
0010
0100
0000
0001
0000
,
1000
0100
0100
0000
0010
0001
0001
0000
,
1000
0001
0001
0000
0001
0010
0100
1000
,
2002
0000
0000
0000
3003
0000
0000
0000
0001
0100
0000
0010
2000
0000
0000
0000
,
3000
0000
0000
0000
;

//---------------dance-single - ----------------
#NOTES:
     dance-single:
     :
     Medium:
     7:
     0.508,0.467,0.366,0.253,0.096:
1001
0000
0001
0000
0100
0010
1000
0000
,
0100
0000
0010
0000
0100
1000
0010
0000
,
0100
0001
0010
0000
0100
1000
0010
0000
,
0110
0110
0110
1001
,
0101
0000
0001
0000
0100
0000
0010
1000
,
0010
0000
0100
0000
0001
0010
0100
0000
,
0010
0001
0100
0000
0010
1000
0001
0000
,
1000
0000
0100
0000
0010
0001
0200
0000
,
0301
0000
0000
0100
0000
0000
0001
0000
1000
0000
0000
0100
0000
0000
1000
0000
,
0010
1000
0010
0000
0100
0001
0010
0000
,
0100
0000
0000
0010
0000
0000
0001
0000
1000
0000
0000
0010
0000
0000
0100
0000
,
0001
0100
0001
0000
0100
0010
0100
0000
,
0010
0000
0000
1000
0000
0000
0100
0000
0010
0000
0000
0100
0000
0000
1000
0000
,
0001
0100
0010
0000
0100
0010
1000
0000
,
0001
0000
0000
1000
0000
0000
0010
0000
1000
0000
0000
0100
0000
0000
0010
0000
,
0001
0010
0100
0000
0100
0010
0001
0000
,
2000
3100
0200
0310
,
0200
0000
1300
0000
0100
0010
0001
0010
,
0002
0013
0002
1003
,
0002
0000
0103
0000
0001
0100
0010
1000
,
0020
1030
0020
0130
,
0020
0000
1030
0000
0010
0100
0001
0010
,
0200
1300
0200
0310
,
0200
1000
0020
0330
,
1001
0000
0000
0001
0000
0000
1000
0000
0010
0000
0000
0000
0100
0000
0000
0000
,
0002
0000
0000
0003
,
0001
0000
0000
0100
0000
0000
0010
0000
1000
0000
0000
0000
0100
0000
0000
0000
,
0020
0030
0110
0110
,
0100
0000
0000
1000
0000
0000
0100
0000
0010
0000
0000
0001
0000
0000
0010
0000
,
0002
0000
0000
0000
2000
0000
0000
3003
,
0101
0000
0000
0101
0000
0000
0001
0000
0100
0000
0000
0010
0000
0000
1000
0000
,
0010
0000
0100
0000
0010
0100
1001
0000
,
0101
0000
0000
0101
0000
0000
0000
0000
1010
0000
0000
1010
0000
0000
0000
0000
,
1001
0000
0000
1001
0000
0000
0000
0000
0000
0000
0000
0000
0000
0000
0000
0000
,
0110
0000
0000
0110
0000
0000
0000
0000
0101
0000
0000
0101
0000
0000
0000
0000
,
1001
0000
0000
1001
0000
0000
2002
0000
0000
0000
0000
0000
0000
0000
0000
3003
,
0000
0000
0001
0000
0100
0010
1000
0000
,
0010
0000
0000
0100
0000
0000
0001
0000
1000
0000
0100
0000
0010
0000
0000
0000
,
0100
0000
1000
0010
0200
0000
0300
0000
,
0010
0000
0000
1000
0000
0000
0001
0000
0010
0000
0000
0000
0100
0000
0000
0000
,
0110
0000
0010
0000
,
0001
0000
1000
0000
,
0001
0100
0010
1000
0010
0000
0110
0000
,
0100
0001
1000
0010
0100
0000
0110
0000
,
0100
0001
0010
0100
1000
0000
1100
0000
,
1000
0100
0010
0001
0010
0000
0110
0000
,
0100
0010
0001
1000
0010
0000
1010
0000
,
1000
0010
0100
0010
1000
0000
1010
0000
,
0010
0100
0001
1000
0001
0000
1001
0000
,
0001
0010
0100
0000
0100
0010
0001
0000
,
1000
0001
0100
0001
0020
0000
0130
0000
,
0100
0010
0001
1000
0020
0000
0130
0000
,
0100
0010
1000
0001
0020
0000
0130
0000
,
0100
1000
0100
0001
0100
1000
0010
0100
,
0001
0010
0100
1000
0200
0000
1300
0000
,
0100
1000
0010
0100
0002
0000
1003
0000
,
1000
0100
0001
0100
2000
0000
3010
0000
,
0100
0010
1000
0001
0020
0000
0130
0000
,
0010
0001
0010
0000
0001
0100
0010
0000
,
0100
0010
1000
0000
0010
0100
0001
0000
,
1000
1001
0001
1001
,
1000
1001
0001
1001
,
0001
0100
0010
0000
0100
0010
1000
0000
,
0010
0100
0001
0000
0001
0010
0100
0000
,
1000
1100
0100
0110
,
0010
0011
0001
0110
,
1001
0000
0000
0000
0001
0100
2000
0000
,
3000
0000
0000
0000
;

//---------------dance-single - ----------------
#NOTES:
     dance-single:
     :
     Easy:
     5:
     0.400,0.407,0.357,0.410,0.000:
1001
0001
1000
0100
,
1000
0010
0100
0001
,
0100
0100
0200
0000
,
0301
0001
0001
1001
,
0101
0000
0001
0000
1000
0000
0100
1000
,
0100
1000
0010
0100
,
0001
1000
0200
0000
,
0010
0010
0020
0330
,
0010
0100
1000
0010
,
0100
0010
1000
0001
,
0010
0001
0100
1000
,
0100
0010
0001
0010
,
0001
0010
0100
0001
,
1000
0100
0010
0100
,
1000
0001
0100
0001
,
1000
0100
1000
0010
,
0200
0301
0200
0310
,
0100
0001
1000
0100
,
2000
3100
2000
3001
,
1000
0010
0100
0001
,
0020
0130
0020
1030
,
0010
0100
0001
1000
,
0200
0310
0200
1300
,
0100
1000
0010
0100
,
0101
0000
1001
0000
,
2200
0000
3300
0000
,
1001
0000
1010
0000
,
0022
0000
0033
0000
,
0011
0000
1100
0000
,
0202
0000
0303
0000
,
1001
0000
1010
0000
,
0202
0000
0000
0303
,
0101
0000
1001
0000
,
1100
0000
0000
0000
,
1100
0000
0110
0000
,
0011
0000
0000
2200
0000
0000
0000
3300
,
0000
0000
1000
0000
0100
0010
0100
0000
,
0010
0000
0001
0000
1000
0001
1000
0000
,
0001
0000
0100
0000
0010
1000
0010
0000
,
0100
0010
1001
0110
,
2002
0000
0000
0000
,
0000
0000
0000
0000
0000
3000
0000
0003
,
0001
0100
0010
0110
,
0010
1000
0001
0011
,
0001
0100
0010
1010
,
1000
0001
0010
0011
,
0001
1000
0100
1100
,
1000
0001
0100
0101
,
0001
1000
0100
1100
,
1000
0100
0010
0100
,
1000
0020
0230
0301
,
0001
0020
0230
1300
,
0100
2000
3020
0130
,
0010
2000
3002
0013
,
0100
0020
0032
0013
,
0001
0200
0320
0130
,
0010
2000
3200
0310
,
0200
0000
2300
0000
3010
0100
0001
0000
,
1000
1001
0001
1001
,
0001
0101
0100
0101
,
0002
0103
0200
0310
,
0020
1030
2000
3100
,
1000
1100
0100
0110
,
0010
0011
0001
1001
,
0002
0103
0200
0310
,
0020
1030
0020
0130
,
1001
0000
0000
0000
0001
1000
0001
0000
;

//---------------dance-single - ----------------
#NOTES:
     dance-single:
     :
     Beginner:
     1:
     0.110,0.204,0.026,0.009,0.000:
1000
0000
0000
0000
,
0001
0000
0000
0000
,
0100
0000
0000
0000
,
0001
0001
0001
0000
,
1000
0000
0000
0010
,
0000
0000
0000
0000
,
1000
0000
0000
0000
,
0100
0000
0000
0000
,
0010
0000
0000
0000
,
0001
0000
0000
0000
,
1000
0000
0000
0000
,
0001
0000
0000
0000
,
0100
0000
0000
0000
,
0001
0000
0000
0000
,
1000
0000
0000
0000
,
0100
0000
0000
0000
,
1001
0000
0000
0000
,
1000
0000
0000
0000
,
0001
0000
0000
0000
,
0100
0000
0000
0000
,
0001
0000
0000
0000
,
1000
0000
0000
0000
,
0100
0000
0000
0000
,
1000
0000
0000
0000
,
0010
0000
0100
0000
,
0001
0000
0000
0000
,
1000
0000
0010
0000
,
0100
0000
0000
0000
,
0100
0000
0001
0000
,
1000
0000
0000
0000
,
1000
0000
0001
0000
,
0010
0000
0000
0000
,
0100
0000
0100
0000
,
0100
0000
0000
0000
,
0010
0000
0010
0000
,
0020
0000
0000
0030
,
0000
0001
0001
0000
,
1000
0000
0001
0000
,
0000
0100
0100
0000
,
0010
0000
1000
0001
,
1001
0000
0000
0000
,
0000
0000
0000
0000
,
0010
0000
0000
0000
,
0100
0000
0000
0000
,
0001
0000
0000
0000
,
0100
0000
0000
0000
,
0001
0000
0000
0000
,
1000
0000
0000
0000
,
0100
0000
0000
0000
,
1000
0000
0000
0000
,
0010
0000
0000
0000
,
0100
0000
0000
0000
,
0001
0000
0000
0000
,
1000
0000
0000
0000
,
0001
0000
0000
0000
,
1000
0000
0000
0000
,
0100
0000
0000
0000
,
1000
0000
0000
0000
,
0010
0000
0000
0000
,
0100
0000
0000
0000
,
0001
0000
1000
0000
,
0010
0000
0000
0000
,
0100
0000
0000
0000
,
0001
0000
0000
0000
,
1000
0000
0100
0000
,
0010
0000
0001
0000
,
1001
0000
0010
0010
;

//---------------dance-single - ----------------
#NOTES:
     dance-single:
     :
     Challenge:
     12:
     0.907,0.964,0.305,0.296,1.000: // measure 1
2002
0000
0000
0000
3003
0000
0001
0000
0100
0000
0010
1000
0000
0001
0000
0010
,  // measure 2
0000
0010
0100
0000
0010
0000
0001
0000
1000
0010
0000
0010
1000
0000
0001
0000
,  // measure 3
1000
0000
1000
0000
0100
0000
1000
0000
1000
0000
0000
0001
0000
0000
0100
0000
,  // measure 4
0010
0000
0000
0010
0000
0000
0010
0000
0000
0100
0001
1000
,  // measure 5
0100
0000
0010
0000
0001
0000
0010
0000
0001
0000
1000
0000
0001
0100
0000
1010
,  // measure 6
0000
0010
1000
0000
0100
0000
0010
0000
0001
0010
0100
0000
0100
1000
0010
0000
,  // measure 7
0100
0000
0010
0000
1000
0000
0001
0010
0100
0000
0000
0010
0000
0000
0001
0000
,  // measure 8
1000
0000
0100
0000
0010
0000
0001
0000
0001
0010
0100
1000
0002
0000
0000
0000
,  // measure 9
1003
0010
0000
0100
0000
0010
1000
0000
0001
0000
0010
0000
0001
1000
0000
0010
,  // measure 10
0000
0100
0001
0000
0010
0000
0100
0000
0010
0001
1000
0000
0010
0000
1000
0000
,  // measure 11
0000
1000
0000
0010
0100
0000
0001
1000
0100
0000
0010
0000
0001
0010
0000
0001
,  // measure 12
0000
0000
0000
0100
0000
0000
0010
0000
0000
0000
0000
0000
1000
0000
0000
0000
0000
0000
0001
0000
0000
0000
0000
0000
0010
0000
0000
0100
0000
0000
1000
0000
0000
0100
0000
0000
0010
0000
0000
0000
0001
0000
0000
0000
1000
0000
0000
0000
,  // measure 13
0001
1000
0000
0010
0000
0100
0001
0000
0010
0100
0000
0110
0000
0100
0000
0100
,  // measure 14
0000
0010
0001
0000
0010
0000
0100
0000
1000
0010
0100
0001
1000
0001
0010
0100
,  // measure 15
0000
0100
0000
0100
1000
0000
0001
0000
0100
0000
0010
0000
1000
0010
0000
0010
,  // measure 16
0000
0000
0000
0010
0000
0000
0100
0000
0000
0000
0000
0000
0010
0000
0000
0000
0000
0000
1000
0000
0000
0000
0000
0000
0001
0000
0000
0000
0000
0000
0010
0000
0000
0000
0000
0000
0100
0000
1000
0000
0100
0000
1000
0000
0100
0000
1000
0000
,  // measure 17
0100
0010
0001
1000
0000
0001
0100
0010
1000
0001
0010
0001
0000
0001
0010
0001
,  // measure 18
0000
0001
0100
0010
1000
0001
0010
0001
0000
0010
0001
0100
0010
1000
0001
1000
,  // measure 19
0000
1000
0100
0010
0100
1000
0010
0100
0000
0010
0100
0010
0001
1000
0001
1000
,  // measure 20
0000
0100
0010
0001
0010
0100
0010
0001
1000
0010
1000
0010
0100
0001
0010
0100
,  // measure 21
0000
0010
0001
0010
0100
0010
0001
1000
0010
0100
0001
0010
0001
1000
0100
0010
,  // measure 22
0000
0010
0001
0010
0100
1000
0100
1000
0010
0100
0001
1000
0001
0010
0100
1000
,  // measure 23
0000
1000
0100
0010
0100
1000
0010
0100
0001
0010
0100
1000
0100
0010
0001
1000
,  // measure 24
0010
1000
0010
0100
0001
1000
0001
0010
0100
0010
0001
1000
0010
1000
0100
0010
,  // measure 25
0001
0000
0100
0001
0000
0001
0010
0100
1000
0100
0000
0010
0001
0100
0000
0100
,  // measure 26
0010
0000
0000
0100
0000
0000
0001
0000
2000
0000
0000
0000
3200
0000
0000
0000
,  // measure 27
0310
0100
1000
0100
0000
0100
1000
0100
0010
0001
0000
0001
0100
0010
0000
0100
,  // measure 28
0001
0000
0000
0000
1000
0000
0000
0000
0001
0000
0000
0000
0010
0000
0000
0100
0000
0000
0000
0000
0000
0020
0000
0000
0000
0000
0000
0000
0000
0000
0100
0000
0000
0000
0000
0000
0200
0000
0000
0000
0000
0000
0330
0000
0000
0000
0000
0000
,  // measure 29
0110
0000
0000
1100
0000
0000
0011
0000
1100
0000
0000
0101
0000
0000
1001
0000
,  // measure 30
1200
0000
0000
0010
0000
0000
0310
0000
0200
0000
0000
0000
2300
0000
0000
0000
,  // measure 31
3001
0100
0001
0100
0000
0100
0010
0100
0010
0000
0100
0001
1000
0000
1000
0100
,  // measure 32
0010
0000
0100
0000
1000
0000
0001
0000
1000
0000
0001
0000
0100
0000
0000
0001
0100
0001
0100
0000
0000
0001
0000
0000
,  // measure 33
1100
0000
0000
0011
0000
0000
0000
0000
0101
0000
0000
1010
0000
0000
0000
0000
,  // measure 34
0110
0000
0000
0101
0000
0000
0000
0000
0000
0000
0000
0000
0000
0000
0000
0000
,  // measure 35
0101
0000
0000
1010
0000
0000
0000
0000
1100
0000
0000
0110
0000
0000
0000
0000
,  // measure 36
0110
0000
0000
1001
0000
0000
0202
0000
0000
0000
0000
0000
0303
0000
0000
0000
,  // measure 37
1001
0000
0000
0000
0000
0000
0001
0000
0000
0100
0000
0000
0010
0000
0000
0000
0000
0000
0100
0000
0000
0000
0000
0000
0010
0000
1000
0000
0010
0000
1000
0000
0010
0000
1000
0000
0010
0000
0000
0000
0000
0000
0000
0000
0000
0000
0000
0000
,  // measure 38
0010
0100
0001
1000
0000
0001
0010
0100
1000
0000
0010
0000
0200
0000
0000
0300
,  // measure 39
0000
0000
0000
0010
0000
0000
1000
0000
0000
0001
0000
0000
1000
0000
0000
0000
0000
0000
0001
0000
0000
0000
0000
0000
0010
0000
0100
0000
0010
0000
0100
0000
0010
0000
0100
0000
0010
0000
0000
0000
0000
0000
0000
0000
0000
0000
0000
0000
,  // measure 40
0100
0000
0100
0010
0000
0010
0001
0000
0002
0000
0000
0000
0203
0000
0000
0000
,  // measure 41
0310
1000
0000
0000
1000
0100
0000
0000
,  // measure 42
0100
0000
0010
0000
0000
0000
0000
0000
0001
0000
1000
0001
0100
0000
0001
0000
,  // measure 43
0001
0100
0010
1000
0001
0100
0010
1000
0000
0000
0000
0000
1100
0000
0000
0000
,  // measure 44
1000
0100
0010
0100
1000
0010
0100
0001
0000
0000
0000
0000
1001
0000
0000
0000
,  // measure 45
0001
0100
0001
1000
0001
0010
0100
1000
0000
0000
0000
0000
1100
0000
0000
0000
,  // measure 46
0100
0010
0001
0010
0100
1000
0100
0010
0000
0000
0100
0000
0110
0000
0000
0000
,  // measure 47
0100
1000
0100
0001
0100
1000
0010
0100
0000
0000
0000
0000
0101
0000
0000
0000
,  // measure 48
0001
0100
1000
0100
0010
1000
0010
0001
0000
0000
0000
0000
0110
0000
0000
0000
,  // measure 49
0100
0010
1000
0001
0010
0100
1000
0100
0000
0000
0000
0000
1001
0000
0000
0000
,  // measure 50
0001
1000
0010
1000
0001
0010
0100
1000
0100
0010
0100
1000
0010
0100
0001
0000
,  // measure 51
0100
0000
0001
1000
0010
0000
0100
0000
0001
0000
0100
0010
0000
0010
1000
0000
,  // measure 52
0100
0000
0010
0001
0010
0000
0100
0000
1000
0000
0100
0010
0000
0010
0100
0000
,  // measure 53
1000
0000
0100
1000
0010
0000
0100
0000
0001
0000
1000
0001
0000
0001
1000
0000
,  // measure 54
0001
0000
0100
0010
1000
0000
0010
0000
0100
0000
0001
0100
0000
0100
0010
0000
,  // measure 55
0100
0000
0001
0010
0100
0000
1000
0000
0100
0000
0100
0010
0000
0010
0100
0000
,  // measure 56
0100
0000
0100
1000
0010
0000
0100
0000
0001
0000
0100
0001
0000
0100
0010
0000
,  // measure 57
0100
0000
0010
1000
0001
0000
0010
0000
0100
1000
0100
1000
0100
0000
1000
0000
,  // measure 58
0010
0000
0000
0000
0100
0000
0000
0000
0001
0000
0000
0000
1000
0000
0000
0000
0001
0000
0000
0000
1000
0000
0000
0000
0001
0000
0000
1000
0000
0000
0001
0000
0000
1000
0000
0000
0000
0000
0000
1001
0000
0000
0000
0000
0000
0000
0000
0000
,  // measure 59
0001
0100
1000
0100
0010
1000
0001
0020
0000
0032
0000
0023
0100
0000
0130
0000
,  // measure 60
0100
0010
0001
1000
0010
1000
0001
2000
3100
0020
0031
0020
0000
0200
0000
0330
,  // measure 61
0100
0000
0100
0000
1100
0000
1100
0000
1000
0001
0000
0001
0100
0000
0001
0000
,  // measure 62
1000
0100
0000
0100
0010
0001
0000
0001
0100
0010
0000
0100
0001
1000
0000
0001
,  // measure 63
0200
0000
0320
0000
1030
0000
1000
0200
0000
0001
0000
0310
0002
0000
1003
0000
,  // measure 64
0200
0000
2300
0000
3020
0000
0100
0032
0000
0023
0000
0230
0010
0000
0320
0000
,  // measure 65
0130
0100
0010
0010
0001
0001
1000
1000
,  // measure 66
0001
0000
0100
0001
0000
0001
0010
0000
0100
1000
0010
0100
0001
1000
0100
0010
,  // measure 67
0011
0000
0000
0000
0000
0000
0000
0000
0000
0000
0000
0000
0001
1000
0001
1000
0001
1000
0002
0000
0000
0000
0000
0000
,  // measure 68
0003
0000
0000
0000
;
