#TITLE:Me And You;
#SUBTITLE:;
#ARTIST:Nero;
#TITLETRANSLIT:;
#SUBTITLETRANSLIT:;
#ARTISTTRANSLIT:;
#CREDIT:;
#BANNER:Me And You.png;
#BACKGROUND:Me And You-backkground.png;
#JACKET:Me And You-jacket.png;
#LYRICSPATH:;
#CDTITLE:cdtitle.png;
#MUSIC:Me & You.mp3;
#OFFSET:-13.342;
#SAMPLESTART:40.000;
#SAMPLELENGTH:12.000;
#SELECTABLE:YES;
#BPMS:0.000=144.000,192.000=72.000,219.000=144.000;
#STOPS:;
#BGCHANGES:;

//---------------dance-single - ----------------
#NOTES:
     dance-single:
     :
     Hard:
     7:
     0.411,0.422,0.417,0.342,0.046:
0101
0000
0001
1000
0010
0001
0000
0000
,
0110
0000
0010
1000
0100
1000
0000
0000
,
1100
0000
0000
0101
0000
0000
0020
0000
,
0000
0000
0000
0000
0030
0000
0100
0001
,
0011
0000
0001
0010
1000
0010
0000
0000
,
0011
0000
0001
0100
1000
0100
0000
0000
,
1010
0000
0000
1100
0000
0000
0020
0000
,
0000
0000
0000
0000
0000
0000
0031
1000
,
1100
0000
1000
0001
0200
0001
0000
0300
,
0011
0000
0010
0100
0002
1000
0000
0003
,
0101
0000
1010
0000
1000
0100
0001
0000
,
1000
0100
0001
0000
0001
0100
0010
0000
,
0011
0000
1010
0000
0020
0100
0000
0030
,
0101
0000
0011
0000
0020
0100
0000
0030
,
0001
0010
0100
0010
0001
1000
0010
0100
,
1000
0100
0010
1000
0001
0010
0100
1000
,
0012
0000
0000
0000
0100
0200
0000
0303
,
2001
0000
0000
0000
0100
0200
0000
3300
,
1100
0000
0100
0000
0100
0010
0001
0000
,
0001
0100
0010
0000
0100
0001
1000
0000
,
1020
0000
0000
0000
0100
0200
0000
0330
,
2001
0000
0000
0000
0001
0002
0000
3003
,
0011
0000
0000
1100
0000
0000
0202
0000
,
0000
0000
0303
0001
0100
0100
0010
0010
,
1010
0000
0000
0011
0000
0000
2200
0000
,
0000
0000
0000
3300
1000
1000
0001
0100
,
0001
0000
0001
0100
0000
0100
0020
0000
,
0000
0000
0030
0010
,
1000
0001
0010
0100
0010
0001
1000
0010
,
1000
0100
0010
0001
0010
0100
1000
0001
,
0100
0010
1000
0001
0010
0100
1000
0100
,
0020
0000
0000
0000
0001
0000
0100
0130
,
1100
0000
0011
0000
0002
0200
0000
0303
,
0011
0000
1010
0000
0020
0200
0000
0330
,
0010
1000
0010
1000
0000
0000
0001
0100
0001
0100
0000
0000
,
0001
0100
0010
0000
0100
0010
1000
0000
,
1010
0000
0101
0000
0002
0020
0000
0033
,
0110
0000
1100
0000
2000
0020
0000
3030
,
0100
0010
1000
0000
1000
0001
0010
0000
,
0100
1000
0100
0000
1000
0100
1000
0000
,
1100
0000
0011
0000
0001
0020
0000
0030
,
0110
0000
1100
0000
1000
0020
0000
0030
,
0100
0001
1000
0100
0000
0100
0010
0001
1000
0020
0000
0000
,
0000
0000
0000
0130
,
0101
0000
0011
0000
0020
0200
0000
0330
,
0110
0000
1100
0000
2000
0020
0000
3030
,
0110
0000
0000
0101
0000
0000
0001
0010
,
0100
0010
0001
0100
1000
0100
0010
1000
,
2200
0000
0000
0000
,
3300
0000
0000
0000
,
1000
0000
1000
0000
0001
0000
0101
1010
,
0101
0000
0010
0000
0100
0010
0001
0000
,
1000
0000
0000
1000
0000
0000
2000
0000
0000
0000
0000
0000
0000
3000
0000
0000
,
0001
0000
0001
0000
0100
0010
1000
0000
,
1000
0000
0000
0010
0000
0000
0200
0000
0000
0000
0000
0000
0310
0000
0010
0000
,
0100
0001
2200
0000
0000
0000
0000
0000
,
0000
3300
0000
0000
;

//---------------dance-single - ----------------
#NOTES:
     dance-single:
     :
     Medium:
     5:
     0.265,0.323,0.184,0.367,0.008:
1001
0000
0000
0000
0001
0200
0000
0000
,
0301
0000
0000
0000
0010
2000
0000
0000
,
3010
0000
0000
0100
0000
0000
0002
0000
,
0000
0000
0000
0000
0003
0000
1000
0001
,
0100
0000
0000
0000
0010
2000
0000
0000
,
3010
0000
0000
0000
0100
0002
0000
0000
,
0103
0000
0000
0001
0000
0000
2000
0000
,
0000
0000
0000
0000
3000
0000
0001
0100
,
0010
0000
0000
0000
0100
0020
0000
0000
,
0130
0000
0000
0000
0010
2000
0000
0000
,
3001
0000
0000
0000
0001
0100
0000
0000
,
0100
0010
0000
0000
0010
1000
0000
0000
,
0001
1000
0010
0000
0100
0000
0001
0000
,
0100
0010
1000
0000
0010
0000
0100
0000
,
0001
1000
0001
0000
1000
0001
1000
0000
,
0001
0100
0010
0000
0100
0010
1000
0000
,
2020
0000
0000
0000
3000
0030
0000
0000
,
0202
0000
0000
0000
0300
0003
0000
0000
,
1001
0000
0110
2002
,
0000
0000
0000
3003
,
0220
0000
0000
0000
0300
0030
0000
0000
,
0202
0000
0000
0000
0300
0003
0000
0000
,
1100
0000
0000
0001
0000
0000
0110
0000
,
0000
0000
0010
1000
,
1001
0000
0000
1001
0000
0000
2002
0000
,
0000
3003
0001
0100
,
0110
0000
0000
1010
0000
0000
0202
0000
,
0000
0000
0303
0001
,
1100
0000
0000
0110
0000
0000
0022
0000
,
0000
0000
0000
0000
,
0000
0000
0000
0000
,
0033
0000
1000
0001
,
0200
0000
0000
0000
0001
0001
0000
0000
,
0302
0000
0000
0000
1000
1000
0000
0000
,
1003
0001
0100
0100
,
0001
0100
0010
0000
0100
0010
1000
0000
,
0020
0000
0000
0000
0100
0100
0000
0000
,
0230
0000
0000
0000
0001
0001
0000
0000
,
0301
1000
0100
1000
,
0010
0100
0010
0000
0100
0010
0100
0000
,
0002
0000
0000
0000
1003
0020
0000
0000
,
0230
0000
0000
0000
0301
2000
0000
0000
,
3200
0000
0010
0020
,
0000
0000
0000
0330
,
2001
0000
0000
0000
3010
0200
0000
0000
,
0320
0000
0000
0000
1030
0010
0100
0000
,
0002
0000
0000
2003
0000
0000
0200
0000
,
0000
0000
0000
3300
,
0202
0000
0000
0000
,
0303
0000
0000
0000
,
0000
0000
0000
0000
0000
0000
1000
0001
,
0100
0000
0001
0000
1000
1000
1000
0000
,
0010
0000
0000
0100
0000
0000
0002
0000
0000
0000
0000
0000
0003
0000
0000
0000
,
1000
0000
0010
0000
0010
0001
0010
0000
,
0100
0000
0000
0001
0000
0000
0020
0000
0000
0000
0000
0000
0130
0000
0000
0000
,
1000
0101
0000
0000
;

//---------------dance-single - ----------------
#NOTES:
     dance-single:
     :
     Easy:
     2:
     0.156,0.230,0.125,0.158,0.000: // measure 1
1001
0000
0010
0000
,  // measure 2
1000
0000
0010
0000
,  // measure 3
0100
0000
0000
0100
0000
0000
0100
0000
,  // measure 4
0000
0000
0000
0001
,  // measure 5
1000
0000
0010
0000
,  // measure 6
0100
0000
0001
0000
,  // measure 7
1000
0000
0000
1000
0000
0000
1000
0000
,  // measure 8
0000
0000
0000
0001
,  // measure 9
0100
0000
0010
0000
,  // measure 10
1000
0000
0100
0000
,  // measure 11
1000
0000
0010
0000
,  // measure 12
0100
0000
0001
0000
,  // measure 13
1000
0000
0010
0000
,  // measure 14
0100
0000
0001
0000
,  // measure 15
1000
0000
1000
0000
,  // measure 16
0001
0000
0001
0000
,  // measure 17
2002
0000
0000
0000
3000
0003
0000
0000
,  // measure 18
0220
0000
0000
0000
0300
0030
0000
0000
,  // measure 19
0110
0000
0010
0220
,  // measure 20
0000
0000
0000
0330
,  // measure 21
1002
0000
0003
0000
,  // measure 22
2100
0000
3000
0000
,  // measure 23
1000
0000
0000
0100
0000
0000
0020
0000
,  // measure 24
0000
0000
0030
0000
,  // measure 25
0010
0000
0000
0001
0000
0000
0200
0000
,  // measure 26
0000
0000
0300
0000
,  // measure 27
0010
0000
0000
1000
0000
0000
0200
0000
,  // measure 28
0000
0000
0300
0000
,  // measure 29
1000
0000
0000
0001
0000
0000
0200
0000
,  // measure 30
0000
0000
0000
0000
,  // measure 31
0000
0000
0000
0000
,  // measure 32
0300
0000
0000
0000
,  // measure 33
1001
0000
0010
0000
,  // measure 34
1010
0000
0010
0000
,  // measure 35
0200
0000
0000
0300
,  // measure 36
0001
1000
0001
0100
,  // measure 37
0001
0000
1100
0000
,  // measure 38
1000
0000
0101
0000
,  // measure 39
0200
0000
0000
0000
,  // measure 40
0020
0000
0000
0330
,  // measure 41
1001
0000
1000
0000
,  // measure 42
0001
0000
0100
0000
,  // measure 43
0002
0000
0000
0000
,  // measure 44
0000
0000
0000
0003
,  // measure 45
1001
0000
0010
0000
,  // measure 46
0101
0000
0010
0000
,  // measure 47
1000
0000
0000
0010
0000
0000
0200
0000
,  // measure 48
0000
0000
0000
0000
,  // measure 49
0300
0000
0000
0000
,  // measure 50
0000
0000
0000
0000
,  // measure 51
0000
0000
0000
0000
0000
0000
0001
1000
,  // measure 52
0010
1000
0010
0100
,  // measure 53
0001
0001
0002
0003
,  // measure 54
1000
0010
1000
1000
,  // measure 55
0001
1000
0200
0310
,  // measure 56
0001
1100
0000
0000
;

//---------------dance-single - ----------------
#NOTES:
     dance-single:
     :
     Beginner:
     1:
     0.098,0.138,0.150,0.017,0.000: // measure 1
1000
0000
0000
0000
,  // measure 2
0001
0000
0000
0000
,  // measure 3
0100
0000
0000
0010
,  // measure 4
0000
0000
0000
0100
,  // measure 5
0100
0000
0000
0000
,  // measure 6
0001
0000
0000
0000
,  // measure 7
1000
0000
0000
0000
,  // measure 8
0000
0000
0000
1000
,  // measure 9
0010
0000
0000
0000
,  // measure 10
0100
0000
0000
0000
,  // measure 11
0001
0000
1000
0000
,  // measure 12
1000
0000
0001
0000
,  // measure 13
0100
0000
0000
0000
,  // measure 14
0001
0000
0000
0000
,  // measure 15
1000
0000
0000
0000
,  // measure 16
0001
0000
0000
0000
,  // measure 17
0110
0000
0000
0000
,  // measure 18
1001
0000
0000
0000
,  // measure 19
0110
0000
0000
0110
,  // measure 20
0000
0000
0000
0000
,  // measure 21
1001
0000
0000
0000
,  // measure 22
0110
0000
0000
0000
,  // measure 23
1001
0000
0000
1001
,  // measure 24
0000
0000
0000
0000
,  // measure 25
0110
0000
0000
0110
,  // measure 26
0000
0000
0000
0000
,  // measure 27
1001
0000
0000
1001
,  // measure 28
0000
0000
0000
0000
,  // measure 29
0001
0000
0001
0000
,  // measure 30
0002
0000
0000
0000
,  // measure 31
0000
0000
0000
0000
,  // measure 32
0003
0000
0000
0000
,  // measure 33
0000
0000
1001
0000
,  // measure 34
0000
0000
0010
0000
,  // measure 35
0100
0000
0000
0000
,  // measure 36
0001
0001
0000
0000
,  // measure 37
1000
0000
0000
0000
,  // measure 38
0001
0000
0000
0000
,  // measure 39
0100
0000
0000
0000
,  // measure 40
0010
0000
0000
0000
,  // measure 41
0000
0000
0110
0000
,  // measure 42
0000
0000
1001
0000
,  // measure 43
1000
0000
0001
0001
,  // measure 44
0000
0000
0000
0000
,  // measure 45
0000
0000
1001
0000
,  // measure 46
0000
0000
1001
0000
,  // measure 47
0010
0000
0010
0000
,  // measure 48
0020
0000
0000
0000
,  // measure 49
0030
0000
0000
0000
,  // measure 50
0000
0000
0000
0000
,  // measure 51
0000
0000
0000
0000
,  // measure 52
1000
1000
1000
0000
,  // measure 53
0001
0000
0000
0000
,  // measure 54
0100
0100
0100
0000
,  // measure 55
0010
0000
0000
0000
,  // measure 56
0000
0110
0000
0000
;
